osu file format v14

[General]
AudioFilename: lain wings.mp3
AudioLeadIn: 0
PreviewTime: 30851
Countdown: 0
SampleSet: Soft
StackLeniency: 0.7
Mode: 0
LetterboxInBreaks: 0
EpilepsyWarning: 1
WidescreenStoryboard: 1

[Editor]
DistanceSpacing: 1
BeatDivisor: 4
GridSize: 4
TimelineZoom: 1.7

[Metadata]
Title:duvet TV sized
TitleUnicode:duvet TV sized
Artist:boa
ArtistUnicode:boa
Creator:Renumi
Version:Renbery's Beginner
Source:serial experiments lain
Tags:シリアルエクスペリメンツレイン op opening alternative nubery MkGuh PolkaMocha Mir Bergy
BeatmapID:1119211
BeatmapSetID:466758

[Difficulty]
HPDrainRate:1
CircleSize:2
OverallDifficulty:1
ApproachRate:1
SliderMultiplier:1.2
SliderTickRate:2

[Events]
//Background and Video events
0,0,"duvet.jpg",0,0
//Break Periods
2,47050,50968
//Storyboard Layer 0 (Background)
//Storyboard Layer 1 (Fail)
//Storyboard Layer 2 (Pass)
//Storyboard Layer 3 (Foreground)
//Storyboard Sound Samples

[TimingPoints]
289,644.19153961778,4,2,1,30,1,0
1863,644.19153961778,4,2,1,55,1,0
32784,-100,4,2,1,55,0,1
40192,-100,4,2,4,25,0,0
41078,644.19153961778,4,2,1,55,1,0
41697,644.19153961778,4,2,4,55,1,0
43629,-100,4,2,1,55,0,0
46850,-100,4,2,2,55,0,0
52648,-100,4,2,1,55,0,0
59734,-100,4,2,1,35,0,0
60378,-100,4,2,1,40,0,0
61022,-100,4,2,1,45,0,0
61666,-100,4,2,1,50,0,0
62311,-100,4,2,1,55,0,1
71329,-100,4,2,1,45,0,0
71974,-100,4,2,1,35,0,0
72618,-100,4,2,1,55,0,1
80026,-100,4,2,4,45,0,0
80992,-100,4,2,1,40,0,0
81636,-100,4,2,1,30,0,0
82281,-100,4,2,1,20,0,0
82912,638.297872340426,4,2,1,10,1,0

[Colours]
Combo1 : 139,184,232
Combo2 : 0,47,108

[HitObjects]
74,97,1863,6,0,P|200:140|319:93,1,240,6|0,0:0|0:0,0:0:0:0:
400,48,3795,1,8,0:0:0:0:
436,164,4439,2,0,P|434:229|424:300,1,120,0|8,3:0|0:0,0:0:0:0:
310,252,5728,2,0,P|245:260|183:279,1,120,2|8,0:0|0:0,0:0:0:0:
91,212,7016,6,0,P|88:97|212:73,1,240,0|0,3:0|0:0,0:0:0:0:
294,125,8949,1,8,0:0:0:0:
200,202,9593,2,0,P|222:257|236:315,1,120,0|8,3:0|0:0,0:0:0:0:
350,283,10881,2,0,P|366:221|387:169,1,120,2|8,0:0|0:0,0:0:0:0:
352,57,12170,6,0,B|238:83|238:83|90:49,1,240,0|0,3:0|0:0,0:0:0:0:
71,165,14102,1,8,0:0:0:0:
179,214,14746,2,0,P|235:224|304:213,1,120,0|8,3:0|0:0,0:0:0:0:
385,133,16035,2,0,P|444:124|503:134,1,120,2|8,0:0|0:0,0:0:0:0:
489,253,17323,6,0,B|421:288|421:288|242:258,1,240,0|0,3:0|0:0,0:0:0:0:
159,196,19256,1,8,0:0:0:0:
266,141,19900,2,0,L|408:164,1,120,0|8,3:0|0:0,0:0:0:0:
237,345,21832,1,8,0:0:0:0:
150,264,22477,6,0,L|135:118,2,120,4|8|2,0:0|0:0|0:0,0:0:0:0:
237,345,24409,1,8,0:0:0:0:
357,327,25053,2,0,P|405:272|426:222,1,120,0|8,3:0|0:0,0:0:0:0:
387,114,26342,2,0,P|328:100|276:70,1,120,2|8,0:0|0:0,0:0:0:0:
162,33,27630,6,0,L|139:301,1,240,0|0,3:0|0:0,0:0:0:0:
237,345,29563,1,8,0:0:0:0:
352,333,30207,2,0,P|378:278|415:227,1,120,0|8,3:0|0:0,0:0:0:0:
268,36,32140,1,4,3:2:0:0:
177,115,32784,6,0,B|190:208|190:208|174:277,1,120,4|8,0:0|0:0,0:0:0:0:
98,317,34072,2,0,B|87:246|87:246|93:204|93:204|79:88,2,180,2|6|8,0:0|0:0|0:0,0:2:0:0:
214,288,36649,2,0,P|310:297|356:324,1,120,2|8,0:0|0:0,0:0:0:0:
411,218,37937,5,4,0:0:0:0:
338,122,38581,1,8,0:0:0:0:
227,171,39226,2,0,B|167:191|167:191|51:161,1,180,8|4,0:0|3:0,0:0:0:0:
312,269,41697,6,0,P|364:171|296:66,1,240,6|0,0:0|0:0,0:0:0:0:
189,28,43629,1,8,0:0:0:0:
121,129,44273,2,0,L|-9:135,2,120,0|8|0,0:0|0:0|0:0,0:0:0:0:
229,178,46206,1,8,0:0:0:0:
317,97,46850,5,2,0:0:0:0:
329,24,52648,6,0,P|390:123|331:229,1,240,8|8,0:0|0:0,0:0:0:0:
256,311,54580,1,2,0:0:0:0:
168,228,55225,2,0,P|116:125|177:27,1,240,8|8,0:0|0:0,0:0:0:0:
236,132,57157,6,0,P|342:181|456:123,2,240,6|0|2,0:0|0:0|0:0,0:0:0:0:
177,27,60378,1,8,0:0:0:0:
84,100,61022,2,0,L|88:228,1,120,2|8,0:0|0:0,0:0:0:0:
33,326,62311,6,0,P|91:342|160:312,1,120,6|8,0:0|0:0,0:0:0:0:
243,252,63599,2,0,P|327:221|409:256,2,180,2|6|8,0:0|0:0|0:0,0:0:0:0:
146,323,66176,1,2,0:0:0:0:
64,235,66820,1,8,0:0:0:0:
141,143,67464,6,0,L|286:139,1,120,4|8,0:0|0:0,0:0:0:0:
380,133,68753,2,0,L|385:337,2,180,2|6|8,0:0|0:0|0:0,0:0:0:0:
435,27,71329,2,0,B|378:44|378:44|318:28,1,120,8|4,3:0|3:0,0:0:0:0:
243,125,72618,6,0,L|123:128,1,120,6|8,0:0|0:0,0:0:0:0:
92,244,73906,2,0,L|290:240,2,180,2|4|8,0:0|0:0|0:0,0:0:0:0:
0,165,76483,1,2,0:0:0:0:
56,59,77127,1,8,0:0:0:0:
149,135,77771,6,0,B|255:131|255:131|280:118|280:118|388:115,1,240,4|10,0:0|0:0,0:0:0:0:
512,243,80026,1,6,0:0:0:0:
256,192,80348,12,0,82912,0:0:0:0:
