osu file format v14

[General]
AudioFilename: lain wings.mp3
AudioLeadIn: 0
PreviewTime: 30851
Countdown: 0
SampleSet: Soft
StackLeniency: 0.7
Mode: 0
LetterboxInBreaks: 0
EpilepsyWarning: 1
WidescreenStoryboard: 1

[Editor]
Bookmarks: 62311
DistanceSpacing: 1
BeatDivisor: 4
GridSize: 4
TimelineZoom: 2.2

[Metadata]
Title:duvet TV sized
TitleUnicode:duvet TV sized
Artist:boa
ArtistUnicode:boa
Creator:Renumi
Version:Normal
Source:serial experiments lain
Tags:シリアルエクスペリメンツレイン op opening alternative nubery MkGuh PolkaMocha Mir Bergy
BeatmapID:1301671
BeatmapSetID:466758

[Difficulty]
HPDrainRate:3
CircleSize:3.5
OverallDifficulty:4
ApproachRate:5.5
SliderMultiplier:2
SliderTickRate:2

[Events]
//Background and Video events
0,0,"duvet.jpg",0,0
//Break Periods
2,47050,50879
//Storyboard Layer 0 (Background)
//Storyboard Layer 1 (Fail)
//Storyboard Layer 2 (Pass)
//Storyboard Layer 3 (Foreground)
//Storyboard Sound Samples

[TimingPoints]
289,644.19153961778,4,2,1,30,1,0
1863,644.19153961778,4,2,1,55,1,0
32784,-100,4,2,1,55,0,1
40192,-100,4,2,4,25,0,0
41078,644.19153961778,4,2,1,55,1,0
41697,644.19153961778,4,2,1,55,1,0
44273,-100,4,2,1,45,0,0
44917,-100,4,2,1,35,0,0
45562,-100,4,2,1,25,0,0
46206,-100,4,2,1,15,0,0
46850,-100,4,2,1,5,0,0
52004,-100,4,2,1,55,0,0
59734,-100,4,2,1,35,0,0
60056,-100,4,2,1,40,0,0
60378,-100,4,2,1,45,0,0
60700,-100,4,2,1,50,0,0
62311,-100,4,2,1,55,0,1
71329,-100,4,2,1,45,0,0
71812,-100,4,2,1,35,0,0
72296,-100,4,2,1,30,0,0
72618,-100,4,2,1,55,0,1
80026,-100,4,2,4,45,0,0
80992,-100,4,2,1,40,0,0
81636,-100,4,2,1,30,0,0
82281,-100,4,2,1,20,0,0
82912,638.297872340426,4,2,1,10,1,0

[Colours]
Combo1 : 139,184,232
Combo2 : 0,47,108

[HitObjects]
96,185,289,5,0,0:0:0:0:
96,185,611,2,0,P|47:197|-11:175,1,100,0|0,2:2|2:2,2:2:0:0:
50,96,1255,2,0,P|99:84|157:106,1,100,0|0,2:2|2:2,2:2:0:0:
184,20,1863,6,0,P|220:51|228:117,1,100,6|0,0:0|0:0,2:2:0:0:
188,188,2507,2,0,B|256:184|256:184|284:196|284:196|392:192,1,200,8|0,0:0|0:0,0:0:0:0:
455,263,3473,1,0,0:0:0:0:
388,337,3795,2,0,L|276:341,1,100,8|0,0:0|0:0,0:0:0:0:
254,303,4278,1,0,0:0:0:0:
254,303,4439,6,0,B|104:310|104:310|44:280,1,200,0|8,3:0|0:0,0:0:0:0:
34,190,5406,1,0,0:0:0:0:
125,230,5728,2,0,P|132:167|115:131,1,100,2|0,0:0|0:0,0:0:0:0:
197,74,6372,2,0,P|157:38|99:39,1,100,8|0,0:0|0:0,0:0:0:0:
65,51,6855,1,0,0:0:0:0:
65,51,7016,6,0,B|11:117|57:183|57:183|57:207|38:238,1,200,0|8,3:0|0:0,0:0:0:0:
97,316,7982,1,2,0:0:0:0:
180,255,8304,2,0,B|248:251|248:251|276:263|276:263|384:259,2,200,0|8|0,0:0|0:0|3:0,0:0:0:0:
97,316,9915,5,0,0:0:0:0:
39,234,10237,2,0,L|43:122,1,100,8|0,0:0|0:0,0:0:0:0:
3,42,10881,2,0,P|61:33|105:56,1,100,2|0,0:0|0:0,0:0:0:0:
177,108,11525,2,0,P|223:125|271:115,1,100,8|0,0:0|0:0,0:0:0:0:
316,94,12009,1,0,0:0:0:0:
316,94,12170,6,0,P|412:73|478:148,1,200,0|8,3:0|0:0,0:0:0:0:
381,171,13136,1,2,0:0:0:0:
312,245,13458,2,0,L|100:237,2,200,0|8|0,0:0|0:0|3:0,0:0:0:0:
379,320,15068,5,0,0:0:0:0:
301,383,15391,2,0,L|195:379,1,100,8|0,0:0|0:0,0:0:0:0:
125,313,16035,2,0,L|19:309,1,100,2|0,0:0|0:0,0:0:0:0:
30,209,16679,2,0,L|34:103,1,100,8|0,0:0|0:0,0:0:0:0:
42,68,17162,1,0,0:0:0:0:
42,68,17323,6,0,B|110:69|110:69|136:84|136:84|244:89,1,200,0|8,3:0|0:0,0:0:0:0:
311,21,18289,1,2,0:0:0:0:
372,100,18611,2,0,L|367:303,2,200,0|8|0,0:0|0:0|3:0,0:0:0:0:
445,31,20222,5,0,0:0:0:0:
510,106,20544,2,0,L|507:207,1,100,8|0,0:0|0:0,0:0:0:0:
457,207,21027,6,0,L|454:308,1,100,10|10,0:0|0:0,0:0:0:0:
419,342,21510,1,2,3:2:0:0:
368,255,21832,1,8,0:0:0:0:
298,327,22155,1,2,0:0:0:0:
241,244,22477,6,0,L|139:241,1,100,4|0,0:0|0:0,0:0:0:0:
81,321,23121,2,0,P|41:241|119:144,1,200,8|2,0:0|0:0,0:0:0:0:
178,100,24087,1,0,0:0:0:0:
252,166,24409,2,0,L|353:168,1,100,8|0,0:0|0:0,0:0:0:0:
390,197,24892,1,0,0:0:0:0:
390,197,25053,6,0,B|366:153|390:108|390:108|422:48|382:-7,1,200,0|8,3:0|0:0,0:0:0:0:
303,54,26020,1,0,0:0:0:0:
215,5,26342,2,0,P|201:48|222:114,1,100,2|0,0:0|0:0,0:0:0:0:
123,144,26986,2,0,P|151:183|212:198,1,100,8|0,0:0|0:0,0:0:0:0:
248,207,27469,1,0,0:0:0:0:
248,207,27630,6,0,P|355:200|408:293,1,200,0|8,3:0|0:0,0:0:0:0:
307,290,28596,1,2,0:0:0:0:
220,340,28919,2,0,B|177:310|127:345|127:345|79:381|12:350,1,200,0|8,0:0|0:0,0:0:0:0:
69,262,29885,1,0,0:0:0:0:
97,166,30207,1,0,3:0:0:0:
296,182,30851,6,0,L|396:187,2,100,8|2|0,0:0|0:0|0:0,0:0:0:0:
230,106,31817,1,2,0:0:0:0:
135,137,32140,1,4,3:2:0:0:
135,237,32462,1,2,0:0:0:0:
232,268,32784,6,0,P|182:328|57:301,1,200,4|8,0:0|0:0,0:0:0:0:
136,237,33750,1,0,0:0:0:0:
70,160,34072,2,0,P|113:137|169:141,1,100,2|0,0:0|0:0,0:0:0:0:
257,172,34716,1,8,0:0:0:0:
347,130,35038,6,0,B|343:207|343:207|351:225|351:225|343:331,1,200,6|0,0:0|0:0,0:0:0:0:
258,381,36005,2,0,L|154:369,1,100,8|0,0:0|0:0,0:0:0:0:
108,364,36488,1,0,0:0:0:0:
108,364,36649,2,0,L|120:260,1,100,2|0,0:0|3:0,0:0:0:0:
191,195,37293,1,8,0:0:0:0:
253,273,37615,1,2,0:0:0:0:
333,213,37937,6,0,L|345:109,1,100,4|0,0:0|0:0,0:0:0:0:
405,33,38581,2,0,B|359:10|359:10|301:22,1,100,8|0,0:0|0:0,0:0:0:0:
261,46,39065,1,0,0:0:0:0:
261,46,39226,6,0,B|213:55|213:55|167:32,1,100,8|8,0:0|0:0,0:0:0:0:
93,99,39870,1,0,0:0:0:0:
35,17,40192,1,4,3:0:0:0:
256,192,41697,12,2,46850,0:0:0:0:
226,15,52004,6,0,L|229:154,1,100,4|4,0:0|0:1,0:0:0:0:
150,177,52648,2,0,L|-10:181,2,150,8|0|0,0:0|0:0|0:0,0:0:0:0:
229,115,53936,2,0,B|294:113|294:113|324:98|324:98|425:96,1,200,8|2,0:0|0:0,0:0:0:0:
496,165,54902,5,0,0:0:0:0:
434,244,55225,2,0,L|274:248,2,150,8|0|2,0:0|0:0|0:0,0:0:0:0:
483,245,56352,1,0,0:0:0:0:
483,245,56513,2,0,L|480:145,1,100,8|0,0:0|0:0,0:0:0:0:
430,58,57157,6,0,L|198:63,1,200,6|8,0:0|0:0,0:0:0:0:
155,1,58123,1,0,0:0:0:0:
79,66,58445,2,0,L|81:182,1,100
32,253,59090,2,0,P|84:268|130:253,1,100,8|0,0:0|0:0,0:0:0:0:
172,231,59573,1,0,0:0:0:0:
172,231,59734,6,0,P|219:218|266:233,1,100,2|0,0:0|0:0,0:0:0:0:
357,275,60378,2,0,P|403:290|451:277,1,100,8|0,0:0|0:0,0:0:0:0:
406,188,61022,1,2,0:0:0:0:
465,108,61344,1,0,0:0:0:0:
406,27,61666,1,8,0:0:0:0:
311,58,61989,1,0,0:0:0:0:
310,160,62311,6,0,P|249:139|221:12,1,200,6|8,0:0|0:0,0:0:0:0:
311,58,63277,1,0,0:0:0:0:
398,9,63599,2,0,B|412:58|412:58|393:128,1,100,2|0,0:0|0:0,0:0:0:0:
450,191,64243,1,8,0:0:0:0:
363,241,64565,6,0,B|296:238|296:238|276:251|276:251|159:246,1,200,6|0,0:0|0:0,0:0:0:0:
66,242,65532,2,0,L|73:141,1,100,8|0,0:0|0:0,0:0:0:0:
83,93,66015,1,0,0:0:0:0:
83,93,66176,2,0,L|184:100,1,100,2|0,0:0|0:0,0:0:0:0:
261,37,66820,1,8,0:0:0:0:
330,108,67142,1,2,0:0:0:0:
250,169,67464,6,0,L|246:268,1,100,4|0,0:0|0:0,0:0:0:0:
181,345,68108,2,0,L|81:341,1,100,8|0,0:0|0:0,0:0:0:0:
31,341,68591,1,0,0:0:0:0:
31,341,68753,2,0,L|34:241,1,100,2|0,0:0|0:0,0:0:0:0:
95,162,69397,1,8,0:0:0:0:
19,92,69719,6,0,P|109:60|186:117,1,200,6|0,0:0|0:0,0:0:0:0:
275,162,70685,2,0,P|288:112|266:60,1,100,8|0,0:0|0:0,0:0:0:0:
186,117,71329,6,0,B|161:168|191:212|191:212|205:241|184:280,1,150,8|0,0:3|0:0,0:0:0:0:
175,307,71974,2,0,B|237:309|237:309|260:324|260:324|320:327,1,150,4|0,0:3|0:0,0:0:0:0:
370,332,72618,6,0,B|368:127,1,200,6|8,0:0|0:0,0:0:0:0:
315,46,73584,1,0,0:0:0:0:
230,99,73906,2,0,P|184:86|125:103,1,100,2|0,0:0|0:0,0:0:0:0:
180,189,74550,1,8,0:0:0:0:
94,242,74872,6,0,P|160:289|266:240,1,200,4|0,0:0|0:0,0:0:0:0:
317,164,75839,2,0,B|432:162,1,100,8|0,0:0|0:0,0:0:0:0:
466,165,76322,1,0,0:0:0:0:
466,165,76483,2,0,B|467:280,1,100,2|0,0:0|0:0,0:0:0:0:
396,336,77127,1,8,0:0:0:0:
332,258,77449,1,2,0:2:0:0:
264,331,77771,6,0,B|148:332,1,100,4|0,0:0|0:0,0:0:0:0:
77,382,78415,2,0,B|62:335|62:335|75:284,1,100,8|0,0:0|0:0,0:0:0:0:
93,239,78899,1,0,0:0:0:0:
93,239,79060,5,10,0:0:0:0:
165,170,79382,1,10,0:0:0:0:
95,98,79704,1,0,0:0:0:0:
23,167,80026,5,6,0:0:0:0:
256,192,80348,12,0,82912,0:0:0:0:
