osu file format v14

[General]
AudioFilename: SECOND(Main Vocal Hitomi).mp3
AudioLeadIn: 1000
PreviewTime: 56788
Countdown: 0
SampleSet: Soft
StackLeniency: 0.7
Mode: 0
LetterboxInBreaks: 1
EpilepsyWarning: 1
WidescreenStoryboard: 0

[Editor]
Bookmarks: 4988,5788,12188,15388,18588,30588,42988,43388,44188,55388,56988,69788,82588,85788,88988,95388,98588,110588,122988,123388,124188,135388,136988,149788,162588,165788,168988,178588,191388,197788,210588,216988,220188,231388,232988,245788,248988,252188,261588,264988
DistanceSpacing: 0.8
BeatDivisor: 2
GridSize: 32
TimelineZoom: 0.9999999

[Metadata]
Title:SECOND(Main Vocal Hitomi)
TitleUnicode:SECOND(Main Vocal Hitomi)
Artist:blue drops
ArtistUnicode:blue drops
Creator:wmtokok
Version:Normal
Source:劇場版 そらのおとしもの 時計じかけの哀女神(エンジェロイド)
Tags:Sora no Otoshimono yoshida hitomi 吉田仁美 saori hayami 早見沙織 ikaros
BeatmapID:543296
BeatmapSetID:234199

[Difficulty]
HPDrainRate:3
CircleSize:3
OverallDifficulty:3
ApproachRate:4
SliderMultiplier:1.3
SliderTickRate:2

[Events]
//Background and Video events
0,0,"bg.jpg",0,0
//Break Periods
2,3188,4468
2,89188,94068
2,169188,177268
2,220388,231668
//Storyboard Layer 0 (Background)
//Storyboard Layer 1 (Fail)
//Storyboard Layer 2 (Pass)
//Storyboard Layer 3 (Foreground)
//Storyboard Sound Samples

[TimingPoints]
988,400,4,2,1,35,1,0
4988,-100,4,2,1,55,0,0
18988,-100,4,2,2,40,0,0
19188,-100,4,2,1,55,0,0
23788,-100,4,2,2,40,0,0
23988,-100,4,2,1,55,0,0
24588,-100,4,2,2,40,0,0
24788,-100,4,2,1,55,0,0
29388,-100,4,2,2,40,0,0
29588,-100,4,2,1,55,0,0
31388,-100,4,2,1,30,0,0
31588,-100,4,2,1,55,0,0
32588,-100,4,2,2,40,0,0
32788,-100,4,2,1,55,0,0
56988,-100,4,2,1,65,0,1
59588,-100,4,2,0,35,0,1
60188,-100,4,2,1,65,0,1
62788,-100,4,2,0,35,0,1
63388,-100,4,2,1,65,0,1
67788,-100,4,2,2,50,0,1
67988,-100,4,2,1,65,0,1
72388,-100,4,2,0,35,0,1
72988,-100,4,2,1,65,0,1
75588,-100,4,2,0,35,0,1
76188,-100,4,2,1,65,0,1
85788,-100,4,2,1,55,0,0
98988,-100,4,2,2,40,0,0
99188,-100,4,2,1,55,0,0
103788,-100,4,2,2,40,0,0
103988,-100,4,2,1,55,0,0
137088,-100,4,2,1,65,0,1
139588,-100,4,2,0,35,0,1
140188,-100,4,2,1,65,0,1
142788,-100,4,2,0,35,0,1
143388,-100,4,2,1,65,0,1
147788,-100,4,2,2,50,0,1
147988,-100,4,2,1,65,0,1
152388,-100,4,2,0,35,0,1
152988,-100,4,2,1,65,0,1
155588,-100,4,2,0,35,0,1
156188,-100,4,2,1,65,0,1
165888,-100,4,2,1,55,0,0
197188,-100,4,2,0,35,0,0
197788,-100,4,2,1,55,0,0
204988,-100,4,2,2,40,0,0
205188,-100,4,2,1,55,0,0
206588,-100,4,2,2,40,0,0
206788,-100,4,2,1,55,0,0
208188,-100,4,2,2,40,0,0
208388,-100,4,2,1,55,0,0
232988,-100,4,2,1,65,0,1
235588,-100,4,2,0,35,0,1
236188,-100,4,2,1,65,0,1
238788,-100,4,2,0,35,0,1
239388,-100,4,2,1,65,0,1
252188,-100,4,2,1,55,0,0
260388,-100,4,2,0,35,0,0
260788,-100,4,2,1,55,0,0
264988,-100,4,2,1,10,0,0

[Colours]
Combo1 : 128,255,128
Combo2 : 255,96,96
Combo3 : 74,165,255
Combo4 : 255,255,85

[HitObjects]
54,263,988,6,0,P|113:234|177:234,1,130,2|0,0:0|0:0,0:0:0:0:
207,334,1788,2,0,P|264:296|279:238,1,130,2|0,0:0|0:0,0:0:0:0:
299,192,2388,2,0,P|359:176|419:208,1,130,2|0,0:0|0:0,0:0:0:0:
444,250,2988,1,2,0:0:0:0:
320,208,5788,5,4,0:0:0:0:
80,112,6788,2,0,L|64:48,2,65,0|0|4,0:0|0:0|0:0,0:0:0:0:
148,192,7588,2,0,L|100:240,1,65,2|0,0:0|0:0,0:0:0:0:
120,288,7988,2,0,B|166:299|200:344|200:344|232:304|288:304,1,195,0|0,0:0|0:0,0:0:0:0:
384,284,8988,5,4,0:0:0:0:
264,52,9988,2,0,P|284:28|316:12,2,65,0|0|4,0:0|0:0|0:0,0:0:0:0:
352,108,10788,2,0,L|352:176,1,65,2|0,0:0|0:0,0:0:0:0:
315,209,11188,2,0,P|251:221|183:197,2,130,0|0|2,0:0|0:0|0:0,0:0:0:0:
336,256,12188,6,0,P|400:244|468:268,2,130,4|8|0,0:0|0:0|0:0,0:0:0:0:
254,321,13388,1,8,0:0:0:0:
168,260,13788,2,0,P|104:248|36:272,1,130,2|8,0:0|0:0,0:0:0:0:
28,216,14388,2,0,P|48:120|132:76,1,195,2|8,0:0|0:0,0:0:0:0:
200,148,15388,6,0,P|228:92|216:24,2,130,4|8|2,0:0|0:0|0:0,0:0:0:0:
248,240,16588,1,8,0:0:0:0:
279,281,16788,2,0,P|339:309|407:305,1,130,4|8,0:0|0:0,0:0:0:0:
441,339,17388,1,4,0:0:0:0:
328,56,18588,6,0,B|328:120|352:180|352:180|328:248|328:312,1,260,4|0,0:0|0:0,0:0:0:0:
228,276,19788,2,0,P|164:260|96:276,1,130,8|0,0:0|0:0,0:0:0:0:
49,183,20588,1,8,0:0:0:0:
99,91,20988,2,0,P|162:107|225:95,1,130,0|8,0:0|0:0,0:0:0:0:
293,173,21788,6,0,P|325:125|317:53,2,130,2|8|0,0:0|0:0|0:0,0:0:0:0:
204,224,22988,1,8,0:0:0:0:
179,325,23388,2,0,B|250:333|286:283|286:283|319:325|363:325,1,195,0|0,0:0|0:0,0:0:0:0:
372,220,24388,2,0,P|348:152|364:96,1,130
368,48,24988,6,0,P|300:72|240:64,1,130,2|8,0:0|0:0,0:0:0:0:
140,88,25788,1,0,0:0:0:0:
63,159,26187,2,0,P|86:219|80:283,1,130,8|0,0:0|0:0,0:0:0:0:
168,340,26988,1,8,0:0:0:0:
268,312,27388,2,0,L|340:312,2,65,2|0|8,0:0|0:0|0:0,0:0:0:0:
240,268,27988,6,0,B|192:248|192:204|136:188,1,130,2|2,0:0|0:0,0:0:0:0:
208,112,28788,2,0,B|256:132|256:176|312:192,2,130,0|2|0,0:0|0:0|0:0,0:0:0:0:
238,70,29788,2,0,P|298:38|362:38,1,130,2|8,0:0|0:0,0:0:0:0:
444,100,30588,2,0,L|472:168,1,65
436,200,30988,2,0,L|408:268,1,65,8|0,0:0|0:0,0:0:0:0:
360,272,31388,5,4,0:0:0:0:
256,272,31788,2,0,P|188:256|124:272,1,130,8|0,0:0|0:0,0:0:0:0:
96,308,32388,2,0,P|112:244|96:180,1,130,0|2,0:0|0:0,0:0:0:0:
132,84,33188,1,2,0:0:0:0:
216,144,33588,2,0,L|352:144,1,130,2|0,0:0|0:0,0:0:0:0:
398,148,34188,1,8,0:0:0:0:
420,196,34388,6,0,P|440:224|472:240,1,65
372,280,34988,2,0,L|236:280,1,130,8|0,0:0|0:0,0:0:0:0:
196,256,35588,2,0,L|164:328,1,65,0|8,0:0|0:0,0:0:0:0:
117,309,35988,2,0,P|81:279|63:195,1,130,2|0,0:0|0:0,0:0:0:0:
98,163,36588,1,8,0:0:0:0:
150,165,36788,2,0,P|210:135|249:84,1,130,2|0,0:0|0:0,0:0:0:0:
297,69,37388,2,0,L|377:77,1,65,8|2,0:0|0:0,0:0:0:0:
413,67,37788,5,0,0:0:0:0:
375,164,38188,1,8,0:0:0:0:
477,145,38588,1,0,0:0:0:0:
433,239,38988,2,0,L|436:304,1,65,8|2,0:0|0:0,0:0:0:0:
336,340,39588,2,0,L|272:344,1,65,2|8,0:0|0:0,0:0:0:0:
192,272,40188,6,0,L|32:312,2,130,0|8|2,0:0|0:0|0:0,0:0:0:0:
256,192,41388,1,8,0:0:0:0:
192,112,41788,2,0,L|65:80,2,130,2|8|0,0:0|0:0|0:0,0:0:0:0:
290,77,42988,1,8,0:0:0:0:
388,44,43388,6,0,L|454:44,1,65
504,54,43788,2,0,L|505:133,1,65,8|0,0:0|0:0,0:0:0:0:
475,162,44188,6,0,P|420:196|356:193,1,130,4|8,0:0|0:0,0:0:0:0:
280,264,44988,1,0,0:0:0:0:
181,232,45388,1,8,0:0:0:0:
150,331,45787,2,0,P|97:294|77:233,1,130,2|8,0:0|0:0,0:0:0:0:
108,191,46388,2,0,P|147:148|171:79,1,130,2|0,0:0|0:0,0:0:0:0:
211,113,46988,6,0,P|247:133|287:133,2,65,8|0|0,0:0|0:0|0:0,0:0:0:0:
284,40,47788,2,0,P|352:32|404:68,1,130,8|0,0:0|0:0,0:0:0:0:
365,162,48588,1,8,0:0:0:0:
448,224,48988,1,0,0:0:0:0:
384,308,49388,2,0,B|304:264|220:344|128:296,1,260,8|8,0:0|0:0,0:0:0:0:
100,196,50588,6,0,L|68:68,1,130,4|8,0:0|0:0,0:0:0:0:
111,40,51188,1,2,0:0:0:0:
260,88,51788,2,0,L|341:87,2,65,8|0|2,0:0|0:0|0:0,0:0:0:0:
174,146,52588,1,8,0:0:0:0:
212,181,52788,2,0,P|242:242|219:312,1,130,2|0,0:0|0:0,0:0:0:0:
328,324,53588,2,0,B|396:296|399:235|399:235|484:220,1,195,2|8,0:0|0:0,0:0:0:0:
460,120,54588,5,0,0:0:0:0:
404,32,54988,1,8,0:0:0:0:
365,128,55388,2,0,L|300:128,2,65,4|4|4,0:0|0:0|0:0,0:0:0:0:
235,48,56388,2,0,P|200:110|207:169,1,130,4|0,0:0|0:0,0:0:0:0:
244,200,56988,6,0,P|208:252|144:280,1,130,4|8,0:0|0:0,0:0:0:0:
54,235,57788,1,0,0:0:0:0:
124,158,58188,1,8,0:0:0:0:
53,81,58588,2,0,P|109:57|193:77,1,130,0|8,0:0|0:0,0:0:0:0:
219,95,59188,1,0,0:0:0:0:
324,100,59588,6,0,L|324:165,1,65,8|8,0:0|0:0,0:0:0:0:
411,216,60188,6,0,P|379:250|290:261,1,130,0|8,0:0|0:0,0:0:0:0:
223,335,60988,1,0,0:0:0:0:
152,260,61388,1,8,0:0:0:0:
228,188,61788,2,0,P|188:136|124:124,1,130,0|8,0:0|0:0,0:0:0:0:
80,144,62388,1,0,0:0:0:0:
64,248,62788,6,0,L|60:312,1,65,8|8,0:0|0:0,0:0:0:0:
152,260,63388,5,4,0:0:0:0:
244,312,63788,2,0,L|308:312,1,65,8|0,0:0|0:0,0:0:0:0:
412,300,64388,2,0,L|492:300,2,65,0|8|0,0:0|0:0|0:0,0:0:0:0:
376,264,64988,2,0,P|332:216|332:148,1,130,0|8,0:0|0:0,0:0:0:0:
420,104,65788,2,0,P|372:60|304:56,1,130,0|8,0:0|0:0,0:0:0:0:
205,64,66588,6,0,B|176:82|143:82|143:82|125:113|93:123,1,130,0|8,0:0|0:0,0:0:0:0:
46,140,67188,1,0,0:0:0:0:
108,224,67588,2,0,P|172:252|196:308,1,130
96,324,68388,2,0,L|20:324,2,65,0|8|0,0:0|0:0|0:0,0:0:0:0:
164,244,69188,2,0,L|212:200,1,65,0|8,0:0|0:0,0:0:0:0:
283,125,69788,6,0,P|299:69|363:25,1,130,4|8,0:0|0:0,0:0:0:0:
387,125,70588,1,0,0:0:0:0:
434,217,70988,1,8,0:0:0:0:
422,321,71388,2,0,P|362:293|330:237,1,130,0|8,0:0|0:0,0:0:0:0:
287,210,71988,1,0,0:0:0:0:
257,309,72388,6,8,L|185:309,1,65
88,294,72988,6,0,P|62:235|76:174,1,130,0|8,0:0|0:0,0:0:0:0:
165,226,73788,1,0,0:0:0:0:
160,124,74188,1,8,0:0:0:0:
85,51,74588,2,0,P|142:22|208:32,1,130,0|8,0:0|0:0,0:0:0:0:
240,68,75188,1,0,0:0:0:0:
300,152,75588,6,0,L|256:212,1,65,8|8,0:0|0:0,0:0:0:0:
191,281,76188,5,4,0:0:0:0:
282,330,76588,2,0,L|326:270,1,65,8|0,0:0|0:0,0:0:0:0:
424,278,77188,2,0,L|462:330,2,65,0|8|0,0:0|0:0|0:0,0:0:0:0:
448,176,77988,2,0,L|512:176,2,65,0|8|0,0:0|0:0|0:0,0:0:0:0:
348,208,78788,2,0,L|288:182,1,65,0|8,0:0|0:0,0:0:0:0:
252,84,79388,6,0,P|196:128|184:192,1,130,4|8,0:0|0:0,0:0:0:0:
228,276,80188,1,0,0:0:0:0:
144,336,80588,2,0,P|106:284|45:266,1,130,8|0,0:0|0:0,0:0:0:0:
100,180,81388,1,8,0:0:0:0:
60,84,81788,1,0,0:0:0:0:
164,92,82188,1,8,0:0:0:0:
244,28,82588,6,0,P|268:84|248:152,1,130,4|8,0:0|0:0,0:0:0:0:
332,212,83388,2,0,P|388:188|456:208,1,130,0|8,0:0|0:0,0:0:0:0:
479,250,83988,1,4,0:0:0:0:
400,320,84388,5,0,0:0:0:0:
300,344,84788,1,0,0:0:0:0:
224,276,85188,2,0,P|192:216|132:208,1,130
88,228,85788,5,4,0:0:0:0:
256,192,85988,12,4,88988,0:0:0:0:
360,60,95388,5,2,0:0:0:0:
388,160,95788,2,0,P|452:180|497:231,2,130,8|2|8,0:0|0:0|0:0,0:0:0:0:
362,205,96788,2,0,P|314:248|252:266,1,130,4|8,0:0|0:0,0:0:0:0:
199,265,97388,1,8,0:0:0:0:
120,316,98588,6,0,B|120:252|96:192|96:192|120:124|120:60,1,260,4|0,0:0|0:0,0:0:0:0:
216,104,99788,1,8,0:0:0:0:
308,52,100188,2,0,P|320:120|288:180,1,130,0|8,0:0|0:0,0:0:0:0:
372,242,100988,2,0,L|456:218,2,65,0|0|8,0:0|0:0|0:0,0:0:0:0:
280,292,101788,6,0,P|216:276|148:288,1,130,2|8,0:0|0:0,0:0:0:0:
172,180,102588,2,0,P|168:112|128:64,1,130,0|8,0:0|0:0,0:0:0:0:
84,92,103188,1,2,0:0:0:0:
76,196,103588,2,0,P|104:260|160:288,1,130,2|0,0:0|0:0,0:0:0:0:
240,344,104388,1,2,0:0:0:0:
253,240,104788,2,0,L|318:240,1,65
396,308,105388,5,8,0:0:0:0:
422,207,105788,2,0,P|386:151|317:129,1,130,0|8,0:0|0:0,0:0:0:0:
278,131,106388,1,2,0:0:0:0:
212,52,106788,2,0,L|144:52,1,65,2|8,0:0|0:0,0:0:0:0:
73,125,107388,1,0,0:0:0:0:
152,192,107788,1,8,0:0:0:0:
48,208,108188,6,0,P|84:264|84:328,1,130,0|8,0:0|0:0,0:0:0:0:
188,348,108988,1,2,0:0:0:0:
248,264,109388,2,0,P|296:220|368:220,2,130,8|0|8,0:0|0:0|0:0,0:0:0:0:
337,317,110588,2,0,P|400:313|447:269,1,130,2|8,0:0|0:0,0:0:0:0:
477,229,111188,6,0,B|457:181|481:137|445:97,1,130,4|2,0:0|0:0,0:0:0:0:
398,109,111788,2,0,P|342:125|266:101,1,130,4|0,0:0|0:0,0:0:0:0:
188,48,112588,1,8,0:0:0:0:
100,100,112988,2,0,P|84:168|108:220,1,130,0|8,0:0|0:0,0:0:0:0:
88,268,113588,1,2,0:0:0:0:
168,332,113988,2,0,L|240:332,1,65,2|8,0:0|0:0,0:0:0:0:
336,340,114588,6,0,P|384:288|456:288,1,130,0|8,0:0|0:0,0:0:0:0:
460,180,115388,1,0,0:0:0:0:
400,96,115788,1,8,0:0:0:0:
351,187,116188,2,0,P|296:156|231:153,1,130,2|8,0:0|0:0,0:0:0:0:
161,73,116988,2,0,P|124:127|127:195,2,130,0|8|2,0:0|0:0|0:0,0:0:0:0:
262,43,118188,6,0,B|312:14|351:51|391:26,2,130,8|0|8,0:0|0:0|0:0,0:0:0:0:
195,123,119388,1,0,0:0:0:0:
276,188,119788,1,8,0:0:0:0:
380,196,120188,2,0,P|420:260|416:312,1,130,0|8,0:0|0:0,0:0:0:0:
316,280,120988,6,0,P|254:299|191:286,1,130,2|8,0:0|0:0,0:0:0:0:
140,288,121588,1,2,0:0:0:0:
184,192,121988,1,2,0:0:0:0:
95,137,122388,2,0,P|80:176|85:217,1,65,2|0,0:0|0:0,0:0:0:0:
140,288,122988,1,8,0:0:0:0:
240,324,123388,6,0,L|304:344,1,65
356,344,123788,2,0,L|420:324,1,65,8|0,0:0|0:0,0:0:0:0:
448,280,124188,6,0,P|420:216|436:156,1,130,4|8,0:0|0:0,0:0:0:0:
388,68,124988,1,0,0:0:0:0:
292,108,125388,1,8,0:0:0:0:
184,98,125788,2,0,P|196:162|243:208,1,130,2|8,0:0|0:0,0:0:0:0:
292,200,126388,1,2,0:0:0:0:
381,253,126788,2,0,L|449:253,2,65,0|8|0,0:0|0:0|0:0,0:0:0:0:
360,300,127388,6,0,P|292:300|224:316,1,130,2|8,0:0|0:0,0:0:0:0:
128,316,128188,1,0,0:0:0:0:
116,212,128588,2,0,P|116:144|100:76,1,130,8|2,0:0|0:0,0:0:0:0:
203,50,129388,1,8,0:0:0:0:
304,76,129788,2,0,L|368:104,1,65,0|2,0:0|0:0,0:0:0:0:
406,131,130188,2,0,L|406:207,1,65,8|2,0:0|0:0,0:0:0:0:
444,232,130588,6,0,P|384:272|328:272,1,130,4|8,0:0|0:0,0:0:0:0:
288,306,131188,1,2,0:0:0:0:
132,319,131788,2,0,L|55:340,2,65,8|0|2,0:0|0:0|0:0,0:0:0:0:
166,220,132588,1,8,0:0:0:0:
188,172,132788,2,0,L|240:48,1,130,2|2,0:0|0:0,0:0:0:0:
324,112,133588,2,0,P|288:200|324:288,1,195,2|8,0:0|0:0,0:0:0:0:
405,352,134588,5,0,0:0:0:0:
464,266,134988,1,8,0:0:0:0:
412,176,135388,2,0,L|412:111,2,65,4|4|4,0:0|0:0|0:0,0:0:0:0:
413,19,136388,2,0,P|345:47|321:103,1,130,4|0,0:0|0:0,0:0:0:0:
316,144,136988,6,0,P|284:199|224:220,1,130,4|8,0:0|0:0,0:0:0:0:
216,116,137788,1,0,0:0:0:0:
112,122,138188,1,8,0:0:0:0:
132,224,138588,2,0,P|152:284|216:312,1,130,0|8,0:0|0:0,0:0:0:0:
256,336,139188,1,0,0:0:0:0:
348,284,139588,6,0,P|372:256|420:244,1,65,8|8,0:0|0:0,0:0:0:0:
340,160,140188,6,0,P|296:112|292:44,1,130,0|8,0:0|0:0,0:0:0:0:
392,68,140988,1,0,0:0:0:0:
448,156,141388,1,8,0:0:0:0:
396,248,141788,2,0,P|332:264|272:236,1,130,0|8,0:0|0:0,0:0:0:0:
227,260,142388,1,0,0:0:0:0:
132,216,142788,6,0,P|100:196|68:196,1,65,8|8,0:0|0:0,0:0:0:0:
72,300,143388,5,4,0:0:0:0:
168,340,143788,2,0,L|232:340,1,65,8|0,0:0|0:0,0:0:0:0:
336,340,144388,2,0,L|400:340,2,65,0|8|0,0:0|0:0|0:0,0:0:0:0:
308,296,144988,2,0,P|328:232|384:192,1,130,0|8,0:0|0:0,0:0:0:0:
300,120,145788,2,0,P|260:69|195:52,1,130,0|8,0:0|0:0,0:0:0:0:
204,154,146588,6,0,L|176:282,1,130,0|8,0:0|0:0,0:0:0:0:
130,305,147188,1,0,0:0:0:0:
52,236,147588,2,0,L|20:104,1,130
122,87,148388,2,0,L|182:51,2,65,0|8|0,0:0|0:0|0:0,0:0:0:0:
200,156,149188,2,0,L|265:156,1,65,0|8,0:0|0:0,0:0:0:0:
340,80,149788,6,0,P|372:138|362:201,1,130,4|8,0:0|0:0,0:0:0:0:
286,264,150588,1,0,0:0:0:0:
384,298,150988,1,8,0:0:0:0:
363,198,151388,2,0,P|305:164|242:172,1,130,0|8,0:0|0:0,0:0:0:0:
203,202,151988,1,0,0:0:0:0:
112,155,152388,6,0,L|48:107,1,65,8|8,0:0|0:0,0:0:0:0:
16,207,152988,6,0,P|64:255|124:263,1,130,0|8,0:0|0:0,0:0:0:0:
216,309,153788,1,0,0:0:0:0:
311,267,154188,1,8,0:0:0:0:
410,248,154588,2,0,P|380:192|306:166,1,130,0|8,0:0|0:0,0:0:0:0:
276,139,155188,1,0,0:0:0:0:
337,55,155588,6,0,L|405:55,1,65,8|8,0:0|0:0,0:0:0:0:
452,146,156188,5,4,0:0:0:0:
408,240,156588,2,0,L|364:292,1,65,8|0,0:0|0:0,0:0:0:0:
264,300,157188,2,0,L|222:349,2,65,0|8|0,0:0|0:0|0:0,0:0:0:0:
260,196,157988,2,0,L|304:144,2,65,0|8|0,0:0|0:0|0:0,0:0:0:0:
160,228,158788,2,0,L|116:280,1,65,0|8,0:0|0:0,0:0:0:0:
56,192,159388,6,0,P|72:120|120:84,1,130,4|8,0:0|0:0,0:0:0:0:
156,116,159988,1,0,0:0:0:0:
240,56,160388,2,0,L|308:56,2,65,0|8|0,0:0|0:0|0:0,0:0:0:0:
236,160,161188,2,0,L|236:224,2,65,0|8|0,0:0|0:0|0:0,0:0:0:0:
340,144,161988,2,0,L|408:144,1,65,0|8,0:0|0:0,0:0:0:0:
396,248,162588,6,0,P|364:308|308:328,1,130,4|8,0:0|0:0,0:0:0:0:
204,328,163388,2,0,P|144:304|116:248,1,130,0|8,0:0|0:0,0:0:0:0:
116,196,163988,1,4,0:0:0:0:
132,92,164388,5,0,0:0:0:0:
232,60,164788,1,0,0:0:0:0:
216,164,165188,2,0,L|332:224,1,130
376,248,165788,5,4,0:0:0:0:
256,192,165988,12,4,168988,0:0:0:0:
192,88,178588,6,0,P|256:108|320:88,1,130,4|8,0:0|0:0,0:0:0:0:
412,128,179388,2,0,P|392:192|412:256,1,130,0|8,0:0|0:0,0:0:0:0:
314,292,180188,2,0,P|252:276|192:296,1,130,0|8,0:0|0:0,0:0:0:0:
120,220,180988,2,0,L|56:220,2,65,8|8|8,0:0|0:0|0:0,0:0:0:0:
187,141,181788,6,0,B|200:104|200:104|243:145|310:123,1,130,0|8,0:0|0:0,0:0:0:0:
358,57,182588,2,0,B|396:80|371:147|406:176,1,130,0|8,0:0|0:0,0:0:0:0:
385,278,183388,2,0,L|253:281,1,130
164,332,184188,1,8,0:0:0:0:
124,298,184388,2,0,L|76:254,1,65,8|8,0:0|0:0,0:0:0:0:
160,191,184988,6,0,P|218:165|250:110,1,130,4|8,0:0|0:0,0:0:0:0:
355,110,185788,2,0,P|387:165|445:191,1,130,0|8,0:0|0:0,0:0:0:0:
364,260,186588,2,0,P|300:248|228:260,1,130
172,340,187388,2,0,L|104:376,2,65,0|0|0,0:0|0:0|0:0,0:0:0:0:
132,244,188188,6,0,L|92:180,2,65,4|0|8,0:0|0:0|0:0,0:0:0:0:
204,168,188988,2,0,L|184:104,2,65,0|0|8,0:0|0:0|0:0,0:0:0:0:
308,168,189788,2,0,L|336:108,2,65,0|0|8,0:0|0:0|0:0,0:0:0:0:
380,244,190588,1,8,0:0:0:0:
428,224,190788,2,0,L|492:188,1,65,8|8,0:0|0:0,0:0:0:0:
420,108,191388,5,4,0:0:0:0:
328,56,191788,2,0,L|264:56,1,65,8|8,0:0|0:0,0:0:0:0:
204,140,192388,2,0,L|268:140,1,65,0|8,0:0|0:0,0:0:0:0:
328,224,192988,1,4,0:0:0:0:
244,284,193388,2,0,L|192:336,1,65,8|0,0:0|0:0,0:0:0:0:
100,292,193988,2,0,L|152:240,1,65,0|8,0:0|0:0,0:0:0:0:
100,152,194588,6,0,P|152:108|172:48,1,130,4|8,0:0|0:0,0:0:0:0:
220,32,195188,1,8,0:0:0:0:
256,128,195588,2,0,L|256:200,1,65,0|8,0:0|0:0,0:0:0:0:
304,284,196188,2,0,P|348:336|408:356,1,130,4|8,0:0|0:0,0:0:0:0:
445,323,196788,1,0,0:0:0:0:
444,220,197188,2,0,L|444:148,1,65,8|8,0:0|0:0,0:0:0:0:
360,92,197788,6,0,P|304:64|220:76,1,130,4|8,0:0|0:0,0:0:0:0:
172,148,198588,1,0,0:0:0:0:
80,196,198988,2,0,L|128:324,1,130,8|4,0:0|0:0,0:0:0:0:
208,252,199788,1,8,0:0:0:0:
252,348,200188,1,0,0:0:0:0:
352,316,200588,2,0,L|304:188,1,130,8|4,0:0|0:0,0:0:0:0:
304,92,201388,6,0,L|236:92,1,65,8|2,0:0|0:0,0:0:0:0:
136,92,201988,2,0,L|88:144,1,65,2|8,0:0|0:0,0:0:0:0:
56,236,202588,1,0,0:0:0:0:
129,310,202988,1,8,0:0:0:0:
232,296,203388,2,0,L|296:340,2,65,4|8|8,0:0|0:0|0:0,0:0:0:0:
232,192,204188,6,0,B|100:72|100:72|88:92|88:116|120:116|120:116|96:148|96:148|136:160|132:192|132:192|140:216|176:204|176:204,1,390,4|0,0:0|0:0,0:0:0:0:
274,192,205788,2,0,B|406:72|406:72|418:92|418:116|386:116|386:116|410:148|410:148|370:160|374:192|374:192|366:216|330:204|330:204,1,390
261,278,207388,6,0,P|173:314|69:294,2,195,0|0|0,0:0|0:0|0:0,0:0:0:0:
348,336,208988,2,0,P|364:272|352:204,1,130,0|8,0:0|0:0,0:0:0:0:
404,192,209588,2,0,L|404:120,2,65,0|8|8,0:0|0:0|0:0,0:0:0:0:
280,96,210588,6,0,P|228:136|152:136,1,130,4|8,0:0|0:0,0:0:0:0:
114,230,211388,2,0,L|41:230,2,65,2|0|8,0:0|0:0|0:0,0:0:0:0:
168,320,212188,2,0,P|220:280|296:280,1,130,0|8,0:0|0:0,0:0:0:0:
323,180,212988,2,0,L|405:181,2,65,2|0|8,0:0|0:0|0:0,0:0:0:0:
284,84,213788,6,0,P|328:32|388:20,1,130,0|8,0:0|0:0,0:0:0:0:
444,104,214588,1,0,0:0:0:0:
380,188,214988,2,0,P|336:240|276:252,1,130,8|0,0:0|0:0,0:0:0:0:
227,237,215588,1,2,0:0:0:0:
136,288,215988,2,0,P|92:244|92:172,1,130,2|2,0:0|0:0,0:0:0:0:
113,132,216588,1,8,0:0:0:0:
256,192,216988,12,4,220188,0:0:0:0:
96,196,232988,6,0,P|140:244|172:320,1,130,4|8,0:0|0:0,0:0:0:0:
248,236,233788,1,0,0:0:0:0:
284,332,234188,1,8,0:0:0:0:
348,252,234588,2,0,P|392:204|424:128,1,130,0|8,0:0|0:0,0:0:0:0:
418,93,235188,1,0,0:0:0:0:
328,44,235588,6,0,L|256:44,1,65,8|8,0:0|0:0,0:0:0:0:
204,132,236188,6,0,P|168:188|104:208,1,130,0|8,0:0|0:0,0:0:0:0:
108,106,236988,1,0,0:0:0:0:
184,36,237388,1,8,0:0:0:0:
284,64,237788,2,0,P|320:120|384:140,1,130,0|8,0:0|0:0,0:0:0:0:
428,156,238388,1,0,0:0:0:0:
428,260,238788,6,0,L|428:324,1,65,8|8,0:0|0:0,0:0:0:0:
324,324,239388,5,4,0:0:0:0:
240,264,239788,2,0,L|172:264,1,65,8|0,0:0|0:0,0:0:0:0:
120,176,240388,2,0,L|52:176,2,65,0|8|0,0:0|0:0|0:0,0:0:0:0:
224,176,241188,2,0,L|289:176,2,65,0|8|0,0:0|0:0|0:0,0:0:0:0:
172,84,241988,2,0,L|172:19,1,65,0|8,0:0|0:0,0:0:0:0:
264,68,242588,6,0,P|332:68|384:116,1,130,4|8,0:0|0:0,0:0:0:0:
416,140,243188,1,0,0:0:0:0:
396,244,243588,2,0,L|336:276,1,65,0|8,0:0|0:0,0:0:0:0:
288,264,243988,2,0,B|248:300|200:276|168:308,1,130
116,296,244588,2,0,L|56:264,1,65,8|0,0:0|0:0,0:0:0:0:
76,164,245188,2,0,L|72:92,1,65,0|8,0:0|0:0,0:0:0:0:
172,64,245788,6,0,P|236:40|300:64,2,130,4|8|0,0:0|0:0|0:0,0:0:0:0:
236,144,246988,2,0,L|236:209,1,65,8|4,0:0|0:0,0:0:0:0:
340,204,247588,1,0,0:0:0:0:
300,300,247988,2,0,P|240:324|172:300,2,130,0|0|0,0:0|0:0|0:0,0:0:0:0:
352,300,248988,5,4,0:0:0:0:
256,192,249188,12,0,251388,0:0:0:0:
312,104,252188,6,0,P|312:172|352:224,1,130,4|8,0:0|0:0,0:0:0:0:
428,284,252988,1,8,0:0:0:0:
336,336,253388,1,8,0:0:0:0:
256,272,253788,2,0,L|124:256,1,130,8|8,0:0|0:0,0:0:0:0:
84,228,254388,1,2,0:0:0:0:
52,128,254788,2,0,L|48:56,1,65,8|8,0:0|0:0,0:0:0:0:
152,84,255388,6,0,B|200:56|200:56|204:104|229:122,1,130,4|8,0:0|0:0,0:0:0:0:
304,48,256188,2,0,L|368:48,2,65,8|0|8,0:0|0:0|0:0,0:0:0:0:
330,92,256788,2,0,P|315:185|233:229,1,195,2|8,0:0|0:0,0:0:0:0:
137,266,257788,2,0,P|175:317|237:330,1,130,8|8,0:0|0:0,0:0:0:0:
332,287,258588,6,0,L|465:318,1,130,4|8,0:0|0:0,0:0:0:0:
484,216,259388,2,0,L|460:84,1,130,4|8,0:0|0:0,0:0:0:0:
448,36,259988,1,4,0:0:0:0:
346,16,260388,2,0,L|282:0,1,65,8|8,0:0|0:0,0:0:0:0:
267,103,260988,2,0,L|186:110,2,65,8|8|8,0:0|0:0|0:0,0:0:0:0:
298,145,261588,5,4,0:0:0:0:
256,192,261788,12,2,264988,0:0:0:0:
