osu file format v13

[General]
AudioFilename: second.mp3
AudioLeadIn: 0
PreviewTime: 56986
Countdown: 0
SampleSet: Soft
StackLeniency: 0.7
Mode: 0
LetterboxInBreaks: 0
WidescreenStoryboard: 0

[Editor]
Bookmarks: 5794,12194,18594,44194,56994,63386,76186,85786,98586,110586,123386,136986,162586,178586,191386,204186,216986,220186
DistanceSpacing: 1
BeatDivisor: 4
GridSize: 4
TimelineZoom: 1

[Metadata]
Title:SECOND(Main Vocal Hitomi)
TitleUnicode:SECOND(Main Vocal Hitomi)
Artist:blue drops
ArtistUnicode:blue drops
Creator:pkhg
Version:Easy
Source:劇場版 そらのおとしもの 時計じかけの哀女神(エンジェロイド)
Tags:yoshida hitomi saori hayami ikaros nymph astrea kazane hiyori sakurai tomoki sohara mitsuki eishiro sugata mikako satsukitane Sora no Otoshimono Tokei Jikake no Angeloid heaven's lost property the angeloid of clockwork
BeatmapID:341496
BeatmapSetID:135153

[Difficulty]
HPDrainRate:3
CircleSize:3
OverallDifficulty:3
ApproachRate:3
SliderMultiplier:0.9
SliderTickRate:2

[Events]
//Background and Video events
0,0,"pkhgIsTheBestestWithLoveFromLanturn.jpg",0,0
//Break Periods
2,89186,97146
2,169186,177146
2,220386,231546
//Storyboard Layer 0 (Background)
//Storyboard Layer 1 (Fail)
//Storyboard Layer 2 (Pass)
//Storyboard Layer 3 (Foreground)
//Storyboard Sound Samples

[TimingPoints]
5786,400,4,2,1,50,1,0
5886,-100,4,2,1,75,0,0
7186,-100,4,2,1,50,0,0
7286,-100,4,2,1,75,0,0
8986,-100,4,2,1,50,0,0
10486,-100,4,2,1,75,0,0
11986,-100,4,2,2,75,0,0
12386,-100,4,2,2,75,0,0
18586,-100,4,2,2,50,0,0
18686,-100,4,2,2,60,0,0
18886,-100,4,2,4,60,0,0
19086,-100,4,2,2,60,0,0
22086,-100,4,2,4,60,0,0
22286,-100,4,2,2,60,0,0
25286,-100,4,2,4,60,0,0
25486,-100,4,2,2,60,0,0
26886,-100,4,2,4,60,0,0
27086,-100,4,2,2,60,0,0
30886,-100,4,2,4,60,0,0
31086,-100,4,2,2,60,0,0
36486,-100,4,2,4,60,0,0
36686,-100,4,2,2,60,0,0
38086,-100,4,2,4,60,0,0
38286,-100,4,2,2,60,0,0
52486,-100,4,2,4,60,0,0
52686,-100,4,2,2,60,0,0
56986,-100,4,2,2,75,0,1
59486,-100,4,2,5,75,0,1
59886,-100,4,2,2,75,0,1
62086,-100,4,2,4,75,0,1
62686,-100,4,2,3,75,0,1
63086,-100,4,2,2,75,0,1
63686,-100,4,2,4,75,0,1
63886,-100,4,2,2,75,0,1
65286,-100,4,2,4,75,0,1
65486,-100,4,2,2,75,0,1
66886,-100,4,2,4,75,0,1
67086,-100,4,2,2,75,0,1
67686,-100,4,2,4,75,0,1
67886,-100,4,2,2,75,0,1
72286,-100,4,2,3,75,0,1
72686,-100,4,2,2,75,0,1
73286,-100,4,2,4,75,0,1
73486,-100,4,2,2,75,0,1
75486,-100,4,2,5,75,0,1
75886,-100,4,2,2,75,0,1
76486,-100,4,2,4,75,0,1
76686,-100,4,2,2,75,0,1
79686,-100,4,2,4,75,0,1
79886,-100,4,2,2,75,0,1
88986,-100,4,2,2,75,0,0
100486,-100,4,2,4,75,0,0
100686,-100,4,2,2,75,0,0
101286,-100,4,2,4,75,0,0
101486,-100,4,2,2,75,0,0
105286,-100,4,2,4,75,0,0
105486,-100,4,2,2,75,0,0
106886,-100,4,2,4,75,0,0
107086,-100,4,2,2,75,0,0
108486,-100,4,2,4,75,0,0
108686,-100,4,2,2,75,0,0
109286,-100,4,2,4,75,0,0
109486,-100,4,2,2,75,0,0
110886,-100,4,2,4,75,0,0
111086,-100,4,2,2,75,0,0
114886,-100,4,2,4,75,0,0
115086,-100,4,2,2,75,0,0
118086,-100,4,2,4,75,0,0
118286,-100,4,2,2,75,0,0
121286,-100,4,2,4,75,0,0
121486,-100,4,2,2,75,0,0
122086,-100,4,2,4,75,0,0
122286,-100,4,2,2,75,0,0
130886,-100,4,2,4,75,0,0
131086,-100,4,2,2,75,0,0
134086,-100,4,2,4,75,0,0
134286,-100,4,2,2,75,0,0
136986,-100,4,2,2,75,0,1
138886,-100,4,2,4,75,0,1
139486,-100,4,2,3,75,0,1
139886,-100,4,2,2,75,0,1
140486,-100,4,2,4,75,0,1
140686,-100,4,2,2,75,0,1
142086,-100,4,2,4,75,0,1
142286,-100,4,2,2,75,0,1
142686,-100,4,2,3,75,0,1
143086,-100,4,2,2,75,0,1
143686,-100,4,2,4,75,0,1
143886,-100,4,2,2,75,0,1
146886,-100,4,2,4,75,0,1
147086,-100,4,2,2,75,0,1
147686,-100,4,2,4,75,0,1
147886,-100,4,2,2,75,0,1
150086,-100,4,2,4,75,0,1
150286,-100,4,2,2,75,0,1
150886,-100,4,2,4,75,0,1
151086,-100,4,2,2,75,0,1
152286,-100,4,2,3,75,0,1
152686,-100,4,2,2,75,0,1
155486,-100,4,2,3,75,0,1
155886,-100,4,2,2,75,0,1
156486,-100,4,2,4,75,0,1
156686,-100,4,2,2,75,0,1
168986,-100,4,2,2,60,0,0
178886,-100,4,2,4,60,0,0
179086,-100,4,2,2,60,0,0
179286,-100,4,2,4,60,0,0
179486,-100,4,2,2,60,0,0
181086,-100,4,2,3,60,0,0
181486,-100,4,2,2,60,0,0
182086,-100,4,2,4,60,0,0
182286,-100,4,2,2,60,0,0
184286,-100,4,2,3,60,0,0
184686,-100,4,2,2,60,0,0
185286,-100,4,2,4,60,0,0
185486,-100,4,2,2,60,0,0
187486,-100,4,2,3,60,0,0
187886,-100,4,2,2,60,0,0
188486,-100,4,2,4,60,0,0
188686,-100,4,2,2,60,0,0
190736,-100,4,2,3,60,0,0
191036,-100,4,2,2,60,0,0
191386,-100,4,2,2,60,0,0
192986,-100,4,2,2,50,0,0
193086,-100,4,2,2,60,0,0
194586,-100,4,2,2,50,0,0
194686,-100,4,2,2,60,0,0
196186,-100,4,2,2,50,0,0
196286,-100,4,2,2,60,0,0
197086,-100,4,2,3,60,0,0
197486,-100,4,2,2,60,0,0
197786,-100,4,2,2,60,0,0
198086,-100,4,2,4,60,0,0
198286,-100,4,2,2,60,0,0
202886,-100,4,2,4,60,0,0
203086,-100,4,2,2,60,0,0
210886,-100,4,2,4,60,0,0
211086,-100,4,2,2,60,0,0
214086,-100,4,2,4,60,0,0
214286,-100,4,2,2,60,0,0
232986,-100,4,2,2,75,0,1
233286,-100,4,2,5,75,0,1
233486,-100,4,2,2,75,0,1
234086,-100,4,2,4,75,0,1
234286,-100,4,2,2,75,0,1
235486,-100,4,2,3,75,0,1
235886,-100,4,2,2,75,0,1
236486,-100,4,2,4,75,0,1
236686,-100,4,2,2,75,0,1
238086,-100,4,2,4,75,0,1
238286,-100,4,2,2,75,0,1
238686,-100,4,2,3,75,0,1
239086,-100,4,2,2,75,0,1
239686,-100,4,2,4,75,0,1
239886,-100,4,2,2,75,0,1
242886,-100,4,2,4,75,0,1
243086,-100,4,2,2,75,0,1
243686,-100,4,2,4,75,0,1
243886,-100,4,2,2,75,0,1
247186,-100,4,2,2,75,0,0
248986,-100,4,2,2,75,0,1
249286,-100,4,2,4,75,0,1
249486,-100,4,2,2,75,0,1
249686,-100,4,2,4,75,0,1
249886,-100,4,2,2,75,0,1
250086,-100,4,2,4,75,0,1
250286,-100,4,2,2,75,0,1
250486,-100,4,2,4,75,0,1
250686,-100,4,2,2,75,0,1
250886,-100,4,2,4,75,0,1
251086,-100,4,2,2,75,0,1
251286,-100,4,2,4,75,0,1
251486,-100,4,2,5,75,0,1
251886,-100,4,2,2,75,0,1
254686,-100,4,2,5,75,0,1
255086,-100,4,2,2,75,0,1
255686,-100,4,2,4,75,0,1
255886,-100,4,2,2,75,0,1
261086,-100,4,2,4,75,0,1
261486,-100,4,2,2,75,0,1
262986,-100,4,2,2,55,0,1
264186,-100,4,2,2,40,0,1
264986,-100,4,2,2,20,0,1
265786,-100,4,2,2,5,0,1
266586,-100,4,2,2,5,0,0

[Colours]
Combo1 : 242,242,0
Combo2 : 255,132,132
Combo3 : 99,188,254

[HitObjects]
64,140,5786,6,0,P|128:132|192:160,1,135,4|2,0:0|0:0,0:0:0:0:
204,248,6786,1,0,0:0:0:0:
276,300,7186,2,0,P|336:308|416:228,1,180.000006866455,4|0,0:1|0:0,0:0:0:0:
212,136,8986,6,0,P|152:132|104:77,1,135,4|2,0:0|0:0,0:0:0:0:
188,52,9986,1,0,0:0:0:0:
276,72,10386,2,0,P|296:108|292:172,1,90.0000034332277,4|2,0:1|0:0,0:0:0:0:
232,220,11186,2,0,P|324:244|392:148,1,225.000008583069,2|10,0:0|0:0,0:0:0:0:
340,76,12586,6,0,P|296:64|252:76,1,90,10|10,0:0|0:0,0:0:0:0:
180,120,13386,1,10,0:0:0:0:
132,196,13786,2,0,P|140:252|116:296,2,90,10|10|10,0:0|0:0|0:0,0:0:0:0:
92,116,14986,1,10,0:0:0:0:
180,120,15386,6,0,P|224:128|272:108,1,90,10|10,0:0|0:0,0:0:0:0:
344,68,16186,2,0,B|362:98|353:134|353:134|346:169|364:199,1,135,10|4,0:0|0:0,0:0:0:0:
328,280,17186,2,0,P|300:288|264:288,1,45,2|6,0:0|0:0,0:0:0:0:
32,196,18586,6,0,P|35:147|142:90,1,180.000006866455,4|0,0:0|0:0,0:0:0:0:
204,152,19786,1,8,0:0:0:0:
292,176,20186,2,0,P|336:176|376:152,1,90.0000034332277,0|8,0:0|0:0,0:0:0:0:
428,80,20986,2,0,P|456:112|464:168,1,90.0000034332277,0|8,0:0|0:0,0:0:0:0:
416,232,21786,6,0,B|394:273|404:312|404:312|352:288|300:320,1,180
224,296,22986,1,8,0:0:0:0:
136,280,23386,2,0,P|88:276|44:300,2,90.0000034332277,0|8|0,0:0|0:0|0:0,0:0:0:0:
188,208,24586,1,8,0:0:0:0:
132,136,24986,6,0,B|91:105|79:64|79:64|113:37|164:37,1,180.000006866455
220,108,26186,1,8,0:0:0:0:
304,136,26586,2,0,P|368:144|436:56,1,180.000006866455
348,56,27786,1,8,0:0:0:0:
260,60,28186,6,0,P|224:92|216:144,1,90.0000034332277,0|8,0:0|0:0,0:0:0:0:
152,196,28986,2,0,P|108:212|52:196,2,90.0000034332277,0|8|0,0:0|0:0|0:0,0:0:0:0:
240,216,30186,1,8,0:0:0:0:
296,288,30586,6,0,B|348:280|384:320|384:320|432:316|436:268,1,180.000006866455,0|4,0:0|0:0,0:0:0:0:
368,208,31786,2,0,P|332:192|276:196,1,90.0000034332277,8|0,0:0|0:0,0:0:0:0:
200,156,32586,1,8,0:0:0:0:
144,80,32986,1,0,0:0:0:0:
216,24,33386,2,0,P|300:48|392:24,1,180.000006866455,8|8,0:0|0:0,0:0:0:0:
440,100,34586,6,0,L|432:200,1,90.0000034332277,0|8,0:0|0:0,0:0:0:0:
380,260,35386,1,0,0:0:0:0:
296,296,35786,1,8,0:0:0:0:
208,308,36186,2,0,B|154:289|122:315|122:315|101:271|47:266,1,180.000006866455,0|0,0:0|0:0,0:0:0:0:
44,176,37386,1,8,0:0:0:0:
96,104,37786,6,0,B|164:80|224:124|224:124|256:52|324:44,1,270.000010299683,0|8,0:0|0:0,0:0:0:0:
396,100,39386,2,0,P|400:144|420:196,1,90.0000034332277,0|8,0:0|0:0,0:0:0:0:
388,272,40186,2,0,P|344:288|296:288,1,90.0000034332277,0|8,0:0|0:0,0:0:0:0:
224,244,40986,5,0,0:0:0:0:
144,288,41386,1,8,0:0:0:0:
80,224,41786,1,0,0:0:0:0:
120,144,42186,1,8,0:0:0:0:
208,156,42586,1,0,0:0:0:0:
384,196,43386,6,0,P|428:192|468:164,1,90.0000034332277,2|8,0:0|0:0,0:0:0:0:
480,76,44186,1,4,0:0:0:0:
396,104,44586,2,0,B|352:96|312:128|312:128|276:160|228:152,1,180.000006866455,8|10,0:0|0:0,0:0:0:0:
164,88,45786,1,0,0:0:0:0:
144,176,46186,6,0,L|124:356,1,180.000006866455,8|10,0:0|0:0,0:0:0:0:
212,344,47386,1,0,0:0:0:0:
300,344,47786,2,0,P|388:348|468:296,1,180.000006866455,8|10,0:0|0:0,0:0:0:0:
456,212,48986,2,0,L|448:120,1,90.0000034332277,0|8,0:0|0:0,0:0:0:0:
376,72,49786,5,0,0:0:0:0:
296,116,50186,1,10,0:0:0:0:
208,108,50586,2,0,P|160:108|116:96,2,90.0000034332277,4|8|0,0:0|0:0|0:0,0:0:0:0:
248,188,51786,1,10,0:0:0:0:
172,236,52186,6,0,B|140:272|88:264|88:264|136:360,1,180.000006866455
216,328,53386,1,10,0:0:0:0:
304,316,53786,2,0,P|352:300|392:304,1,90.0000034332277,0|8,0:0|0:0,0:0:0:0:
460,244,54586,2,0,P|476:192|480:144,1,90.0000034332277,0|10,0:0|0:0,0:0:0:0:
424,84,55386,5,4,0:0:0:0:
336,72,55786,2,0,P|272:96|204:80,1,135.000005149841,4|6,0:0|0:0,0:0:0:0:
96,156,56986,6,0,P|112:200|104:248,1,90,4|10,0:0|0:0,0:0:0:0:
36,296,57786,1,0,0:0:0:0:
120,328,58186,2,0,P|204:348|308:328,1,180,10|10,0:0|0:0,0:0:0:0:
356,264,59386,2,0,P|376:212|376:172,1,90,0|10,0:0|0:0,0:0:0:0:
328,104,60186,6,0,P|368:88|424:104,2,90,0|10|0,0:0|0:0|0:0,0:0:0:0:
248,148,61386,1,10,0:0:0:0:
160,172,61786,2,0,P|116:180|40:124,1,135
124,88,62786,2,0,P|140:64|148:40,1,45,8|10,0:0|0:0,0:0:0:0:
236,44,63386,6,0,P|300:92|408:80,1,180,4|0,0:0|0:0,0:0:0:0:
480,116,64586,1,10,0:0:0:0:
416,180,64986,2,0,B|392:216|408:268|408:268|360:260|316:288,1,180
228,288,66186,1,10,0:0:0:0:
184,208,66586,6,0,P|172:128|68:92,2,180,4|0|0,0:0|0:0|0:0,0:0:0:0:
228,288,68586,2,0,P|288:320|396:304,1,180,10|10,0:0|0:0,0:0:0:0:
440,228,69786,5,4,0:0:0:0:
392,152,70186,2,0,B|352:132|308:156|308:156|264:180|220:152,1,180,10|10,0:0|0:0,0:0:0:0:
144,104,71386,1,0,0:0:0:0:
144,192,71786,2,0,L|124:320,1,90,10|0,0:0|0:0,0:0:0:0:
200,340,72586,1,10,0:0:0:0:
288,336,72986,6,0,P|340:312|452:356,1,180
472,264,74186,2,0,L|452:164,1,90,10|0,0:0|0:0,0:0:0:0:
380,128,74986,1,10,0:0:0:0:
292,104,75386,2,0,P|232:120|176:96,1,90,0|10,0:0|0:0,0:0:0:0:
140,176,76186,6,0,B|132:220|88:248|88:248|168:312,1,180,4|0,0:0|0:0,0:0:0:0:
236,260,77386,1,10,0:0:0:0:
308,312,77786,2,0,P|352:328|424:304,2,90,0|10|0,0:0|0:0|0:0,0:0:0:0:
360,240,78986,1,10,0:0:0:0:
344,152,79386,6,0,P|288:80|200:88,1,180
252,164,80586,1,10,0:0:0:0:
172,204,80986,2,0,P|116:228|60:216,1,90,0|10,0:0|0:0,0:0:0:0:
36,152,81786,1,0,0:0:0:0:
144,296,82586,6,0,P|181:322|240:324,2,90,6|10|10,0:0|0:0|0:0,0:0:0:0:
212,240,83786,2,0,L|236:176,1,45,10|6,0:0|0:0,0:0:0:0:
256,192,85786,12,10,88986,0:0:0:0:
68,132,98586,6,0,P|100:168|168:176,1,90,0|8,0:0|0:0,0:0:0:0:
220,136,99386,1,0,0:0:0:0:
304,100,99786,1,8,0:0:0:0:
376,152,100186,2,0,B|352:192|368:236|368:236|384:284|352:324,2,180
228,256,102586,6,0,P|184:248|116:280,1,90,0|8,0:0|0:0,0:0:0:0:
84,192,103386,2,0,P|52:144|52:80,1,90,0|8,0:0|0:0,0:0:0:0:
104,44,104186,1,0,0:0:0:0:
188,72,104586,1,8,0:0:0:0:
252,136,104986,2,0,P|331:163|399:107,1,180
316,76,106186,1,8,0:0:0:0:
232,48,106586,6,0,P|244:132|180:208,1,180
108,248,107786,1,8,0:0:0:0:
188,292,108186,2,0,L|392:308,2,180
108,132,110586,6,0,B|139:134|167:109|167:109|190:140|238:140,2,135,0|4|12,0:1|0:0|0:2,0:0:0:0:
160,208,112186,1,0,0:0:0:0:
248,224,112586,2,0,P|296:192|308:136,1,90,8|0,0:0|0:0,0:0:0:0:
344,80,113386,2,0,P|384:64|432:68,2,90,8|0|8,0:0|0:0|0:0,0:0:0:0:
400,152,114586,6,0,L|428:336,1,180
336,328,115786,2,0,P|300:316|244:324,1,90,8|0,0:0|0:0,0:0:0:0:
164,356,116586,2,0,P|119:362|77:349,1,90,8|0,0:0|0:0,0:0:0:0:
44,264,117386,1,8,0:0:0:0:
132,272,117786,6,0,B|199:249|171:160|171:160|143:71|211:48,1,270,0|8,0:0|0:0,0:0:0:0:
296,80,119386,2,0,P|332:100|388:100,1,90,0|8,0:0|0:0,0:0:0:0:
456,56,120186,1,0,0:0:0:0:
460,144,120586,1,8,0:0:0:0:
396,208,120986,2,0,B|356:236|363:287|363:287|312:276|273:294,2,180
232,136,123386,6,0,P|188:160|140:160,2,90,2|2|4,0:0|0:0|0:0,0:0:0:0:
312,96,124586,2,0,P|368:80|464:156,1,180,8|10,0:0|0:0,0:0:0:0:
436,232,125786,1,0,0:0:0:0:
364,288,126186,2,0,P|280:316|172:296,1,180,8|10,0:0|0:0,0:0:0:0:
120,252,127386,5,0,0:0:0:0:
72,176,127786,2,0,P|64:140|84:84,2,90,8|0|10,0:0|0:0|0:0,0:0:0:0:
156,140,128986,2,0,L|260:128,1,90,0|8,0:0|0:0,0:0:0:0:
332,104,129786,1,0,0:0:0:0:
412,148,130186,1,10,0:0:0:0:
420,236,130586,6,0,B|366:238|339:198|339:198|296:207|276:253,1,180
244,336,131786,1,10,0:0:0:0:
156,360,132186,2,0,P|100:364|56:344,2,90,0|8|0,0:0|0:0|0:0,0:0:0:0:
120,276,133386,1,10,0:0:0:0:
108,188,133786,6,0,B|120:144|96:100|96:100|148:96|176:60,1,180
236,128,134986,1,10,0:0:0:0:
320,160,135386,1,4,0:0:0:0:
404,124,135786,2,0,P|412:168|352:248,1,135,6|6,0:0|0:0,0:0:0:0:
248,308,136986,5,4,0:0:0:0:
160,308,137386,2,0,B|120:296|88:304|88:304|104:244|64:200,1,180,10|10,0:0|0:0,0:0:0:0:
108,124,138586,2,0,P|144:88|228:80,1,135
308,116,139586,2,0,P|332:132|384:128,1,45,8|10,0:0|0:0,0:0:0:0:
392,212,140186,6,0,P|388:288|336:328,1,135,0|2,0:0|0:0,0:0:0:0:
308,244,141186,1,2,0:0:0:0:
316,156,141586,2,0,P|352:124|392:120,2,90,2|0|0,0:0|0:0|0:0,0:0:0:0:
236,200,142786,2,0,P|204:208|176:208,1,45,8|10,0:0|0:0,0:0:0:0:
116,164,143386,6,0,L|100:20,2,135,4|0|10,0:0|0:0|0:0,0:0:0:0:
112,252,144986,1,0,0:0:0:0:
188,304,145386,1,10,0:0:0:0:
272,336,145786,2,0,P|316:336|356:317,1,90,0|10,0:0|0:0,0:0:0:0:
436,268,146586,6,0,P|416:208|424:136,1,135,4|0,0:0|0:0,0:0:0:0:
356,76,147586,2,0,P|312:72|268:88,1,90,0|0,0:0|0:0,0:0:0:0:
244,172,148386,2,0,L|192:176,2,45,0|8|0,0:0|0:0|0:0,0:0:0:0:
316,228,149186,2,0,P|313:254|302:280,1,45,0|10,0:0|0:0,0:0:0:0:
232,320,149786,6,0,P|184:340|104:312,1,135,4|0,0:0|0:0,0:0:0:0:
172,252,150786,2,0,P|172:208|184:164,1,90
236,88,151586,1,0,0:0:0:0:
272,168,151986,1,0,0:0:0:0:
360,184,152386,2,0,P|384:196|420:204,1,45,8|10,0:0|0:0,0:0:0:0:
388,292,152986,5,0,0:0:0:0:
304,320,153386,2,0,B|232:308|232:308|192:356|128:344,1,180,10|10,0:0|0:0,0:0:0:0:
76,280,154586,2,0,P|92:232|88:188,1,90,0|10,0:0|0:0,0:0:0:0:
76,104,155386,2,0,P|62:76|56:48,2,45,0|8|10,0:0|0:0|0:0,0:0:0:0:
160,136,156186,6,0,P|216:156|304:88,1,180,4|0,0:0|0:0,0:0:0:0:
388,60,157386,1,10,0:0:0:0:
372,148,157786,2,0,P|372:196|384:240,1,90,0|10,0:0|0:0,0:0:0:0:
440,304,158586,1,0,0:0:0:0:
352,324,158986,1,10,0:0:0:0:
264,320,159386,6,0,P|220:336|172:328,1,90,6|10,0:0|0:0,0:0:0:0:
96,296,160186,1,0,0:0:0:0:
164,240,160586,2,0,P|168:184|68:116,2,180,10|10|10,0:0|0:0|0:0,0:0:0:0:
178,330,162586,6,0,P|222:335|264:320,1,90,10|10,0:0|0:0,0:0:0:0:
308,240,163386,1,10,0:0:0:0:
348,160,163786,2,0,P|356:136|376:112,1,45,10|6,0:0|0:0,0:0:0:0:
256,192,165786,12,8,168986,0:0:0:0:
76,72,178586,6,0,B|121:38|169:97|143:139|143:139|118:182|166:241|211:207,1,270,6|10,0:0|0:0,0:0:0:0:
264,132,180186,2,0,P|316:111|361:117,1,90,10|10,0:0|0:0,0:0:0:0:
412,180,180986,2,0,P|444:184|476:184,2,45,10|10|10,0:0|0:0|0:0,0:0:0:0:
364,256,181786,6,0,B|316:268|304:316|304:316|260:296|216:320,1,180,10|10,0:0|0:0,0:0:0:0:
132,292,182986,2,0,L|108:192,1,90,10|10,0:0|0:0,0:0:0:0:
112,116,183786,1,10,0:0:0:0:
200,120,184186,2,0,L|256:124,2,45,10|8|10,0:0|0:0|0:0,0:0:0:0:
188,208,184986,6,0,B|230:244|229:294|229:294|267:315|302:278,1,180,6|10,0:0|0:0,0:0:0:0:
352,204,186186,2,0,P|400:184|440:188,2,90,10|10|10,0:0|0:0|0:0,0:0:0:0:
264,212,187386,2,0,P|236:212|216:208,2,45,10|8|10,0:0|0:0|0:0,0:0:0:0:
320,284,188186,6,0,P|348:320|476:312,1,180,10|10,0:0|0:0,0:0:0:0:
408,252,189386,1,10,0:0:0:0:
364,176,189786,5,4,0:0:0:0:
348,88,190186,1,10,0:0:0:0:
260,80,190586,1,8,0:0:0:0:
220,160,190986,1,10,0:0:0:0:
284,224,191386,6,0,P|296:264|264:348,1,135,2|8,0:0|0:0,0:0:0:0:
176,352,192386,2,0,P|144:340|108:340,1,45,8|8,0:0|0:0,0:0:0:0:
88,260,192986,6,0,L|56:112,2,135,4|8|8,0:0|0:0|0:0,0:0:0:0:
176,260,194586,2,0,P|216:236|304:236,1,135,4|8,0:0|0:0,0:0:0:0:
372,292,195586,2,8,P|404:304|428:304,1,45
476,240,196186,6,0,L|492:96,1,135,4|8,0:0|0:0,0:0:0:0:
416,52,197186,2,0,P|384:60|340:52,1,45,8|8,0:0|0:0,0:0:0:0:
288,92,197786,6,0,P|256:132|136:124,1,180,10|10,0:0|0:0,0:0:0:0:
60,80,198986,1,10,0:0:0:0:
64,168,199386,2,0,L|72:288,1,90,10|10,0:0|0:0,0:0:0:0:
116,336,200186,1,10,0:0:0:0:
204,356,200586,1,10,0:0:0:0:
284,316,200986,6,0,P|320:304|376:308,1,90,10|10,0:0|0:0,0:0:0:0:
456,276,201786,2,0,P|448:240|468:184,1,90,10|10,0:0|0:0,0:0:0:0:
420,112,202586,2,0,P|376:68|304:64,1,135,10|0,0:0|0:0,0:0:0:0:
224,100,203586,2,0,P|184:112|168:112,1,45,8|10,0:0|0:0,0:0:0:0:
116,172,204186,6,0,L|88:324,1,135,2|2,0:0|0:0,0:0:0:0:
224,332,205386,1,0,0:0:0:0:
312,344,205786,2,0,P|372:352|440:312,1,135,2|2,0:0|0:0,0:0:0:0:
428,184,206986,1,0,0:0:0:0:
344,156,207386,6,0,P|296:120|288:44,2,135,2|2|2,0:0|0:0|0:0,0:0:0:0:
428,184,208986,2,0,P|464:240|456:296,1,90,8|8,0:0|0:0,0:0:0:0:
408,332,209786,2,0,P|376:340|348:364,1,45,8|12,0:0|0:0,0:0:0:0:
232,344,210586,6,0,P|144:360|88:292,1,180,6|0,0:0|0:0,0:0:0:0:
120,212,211786,1,10,0:0:0:0:
120,124,212186,2,0,P|104:68|64:40,2,90,0|10|0,0:0|0:0|0:0,0:0:0:0:
200,168,213386,1,10,0:0:0:0:
288,164,213786,6,0,B|324:156|340:124|340:124|368:144|408:136,1,135,2|0,0:0|0:0,0:0:0:0:
436,220,214786,1,2,0:0:0:0:
368,276,215186,2,0,P|352:296|292:316,1,90,0|2,0:0|0:0,0:0:0:0:
208,280,215986,2,0,P|168:260|116:264,1,90,0|2,0:0|0:0,0:0:0:0:
256,192,216986,12,2,220186,0:0:0:0:
120,332,232986,6,0,P|164:304|176:224,1,135,4|0,0:0|0:0,0:0:0:0:
204,140,233986,2,0,P|256:120|300:124,1,90
356,180,234786,2,0,P|368:200|392:220,2,45,0|10|0,0:0|0:0|0:0,0:0:0:0:
376,92,235586,2,0,L|388:32,1,45,8|10,0:0|0:0,0:0:0:0:
296,48,236186,6,0,L|144:72,1,135,0|2,0:0|0:0,0:0:0:0:
104,140,237186,1,2,0:0:0:0:
152,216,237586,2,0,B|204:236|204:296|204:296|244:328|316:292,1,180,2|0,0:0|0:0,0:0:0:0:
360,272,238786,2,0,P|384:264|412:268,1,45,8|10,0:0|0:0,0:0:0:0:
464,200,239386,6,0,P|468:124|432:80,1,135,4|0,0:0|0:0,0:0:0:0:
344,60,240386,2,0,L|334:16,2,45,0|10|0,0:0|0:0|0:0,0:0:0:0:
344,148,241186,2,0,L|396:156,2,45,0|10|0,0:0|0:0|0:0,0:0:0:0:
224,208,242186,1,10,0:0:0:0:
136,192,242586,6,0,P|80:204|40:272,1,135,0|0,0:0|0:0,0:0:0:0:
128,280,243586,2,0,P|168:306|232:320,1,90,0|2,0:0|0:0,0:0:0:0:
292,284,244386,1,2,0:0:0:0:
380,256,244786,2,0,P|420:212|416:116,1,135,2|10,0:0|0:0,0:0:0:0:
380,60,245786,6,0,P|344:36|276:44,2,90,10|10|10,0:0|0:0|0:0,0:0:0:0:
316,120,246986,2,0,P|308:148|296:168,1,45,10|10,0:0|0:0,0:0:0:0:
239,75,248986,6,0,B|176:29|87:75|67:171|140:255|222:229|256:192|256:192|290:155|371:127|444:212|424:308|336:353|272:308,1,720,6|4,0:0|0:0,0:0:0:0:
184,312,252586,6,0,L|72:332,1,90,10|10,0:0|0:0,0:0:0:0:
48,252,253386,2,0,P|44:204|28:160,1,90,10|10,0:0|0:0,0:0:0:0:
44,76,254186,1,10,0:0:0:0:
116,128,254586,2,0,L|216:140,1,90,10|10,0:0|0:0,0:0:0:0:
288,104,255386,6,0,P|376:84|440:144,1,180,10|10,0:0|0:0,0:0:0:0:
396,220,256586,1,10,0:0:0:0:
336,284,256986,2,0,L|228:304,1,90,10|10,0:0|0:0,0:0:0:0:
164,268,257786,2,0,P|136:260|112:260,2,45,10|0|10,0:0|0:0|0:0,0:0:0:0:
236,212,258586,6,0,P|248:172|248:120,2,90,10|10|10,0:0|0:0|0:0,0:0:0:0:
156,256,259786,2,0,P|133:254|112:247,1,45,10|6,0:0|0:0,0:0:0:0:
72,168,260386,2,0,L|76:112,1,45,10|10,0:0|0:0,0:0:0:0:
152,80,260986,2,0,B|176:68|216:84|216:84|256:100|293:84,1,135,10|6,0:0|0:0,0:0:0:0:
256,192,261786,12,0,266586,0:0:0:0:
