osu file format v12

[General]
AudioFilename: Heart no Kakuritsu.mp3
AudioLeadIn: 1000
PreviewTime: 74539
Countdown: 0
SampleSet: Soft
StackLeniency: 0.7
Mode: 0
LetterboxInBreaks: 0

[Editor]
Bookmarks: 16,1163,8042,12437,13965,26386,38615,43583,44348,49889,50844,56959,59252,61545,62309,63074,68424,74539,75207,80653,85813
DistanceSpacing: 1.2
BeatDivisor: 4
GridSize: 4

[Metadata]
Title:Heart no Kakuritsu (TV Size)
TitleUnicode:ハートの確率 (TV Size)
Artist:blue drops
ArtistUnicode:blue drops
Creator:pkhg
Version:Insane
Source:Sora no Otoshimono: Forte
Tags:opening op Heaven's Lost Property そらのおとしもの DakeDekaane Yoshida Hitomi
BeatmapID:209430
BeatmapSetID:61762

[Difficulty]
HPDrainRate:7
CircleSize:4
OverallDifficulty:7
ApproachRate:8
SliderMultiplier:1.9
SliderTickRate:2

[Events]
//Background and Video events
Video,0,"Sora no Video.avi"
0,0,"BG.jpg",0,0
//Break Periods
//Storyboard Layer 0 (Background)
//Storyboard Layer 1 (Fail)
//Storyboard Layer 2 (Pass)
//Storyboard Layer 3 (Foreground)
//Storyboard Sound Samples
//Background Colour Transformations
3,100,163,162,255

[TimingPoints]
402,382.165605095541,4,2,1,70,1,0
497,-133.333333333333,4,2,1,70,0,0
8045,-100,4,2,2,70,0,0
12440,-100,4,2,0,70,0,0
13968,-100,4,2,2,70,0,0
16644,-100,4,1,0,70,0,0
17121,-100,4,2,2,70,0,0
26389,-133.333333333333,4,2,0,70,0,0
38618,-100,4,2,0,70,0,0
38809,-100,4,2,2,70,0,0
50847,-133.333333333333,4,2,0,70,0,0
56580,-133.333333333333,4,2,2,50,0,0
56866,-117.647058823529,4,2,0,70,0,0
57249,-117.647058823529,4,2,2,70,0,0
57440,-117.647058823529,4,2,0,70,0,0
58109,-117.647058823529,4,2,2,70,0,0
58300,-117.647058823529,4,2,0,70,0,0
58491,-105.263157894737,4,2,0,70,0,0
58777,-105.263157894737,4,2,2,70,0,0
59255,-105.263157894737,4,2,2,70,0,0
61930,-200,4,2,0,70,0,0
63077,-100,4,2,2,70,0,1
74924,-100,4,2,2,70,0,0
75306,-100,4,2,2,70,0,1
87917,-100,4,2,2,50,0,1
88300,-100,4,2,2,30,0,1
88682,-100,4,2,2,20,0,1
89064,-100,4,2,2,10,0,0

[Colours]
Combo1 : 255,255,0
Combo2 : 255,108,255
Combo3 : 45,132,227

[HitObjects]
48,116,1166,2,0,P|80:52|144:44,1,142.500005435944,2|0,0:0|0:0,0:0:0:0:
128,124,1739,1,0,0:0:0:0:
128,208,1930,2,0,B|172:204|196:172|196:172|252:220,1,142.500005435944,2|0,0:0|0:0,0:0:0:0:
188,276,2503,1,0,0:0:0:0:
188,276,2694,2,0,B|188:352,1,71.2500027179719,2|0,0:0|0:0,0:0:0:0:
320,236,3268,1,0,0:0:0:0:
388,288,3459,2,0,B|428:240|400:172|352:156,1,142.500005435944,2|0,0:0|0:0,0:0:0:0:
284,160,4032,1,0,0:0:0:0:
124,104,4223,6,0,B|196:116|196:116|220:80|264:68,1,142.500005435944,2|0,0:0|0:0,0:0:0:0:
168,40,4796,1,0,0:0:0:0:
84,168,4987,2,0,B|44:136|36:80|84:40,1,142.500005435944,2|0,0:0|0:0,0:0:0:0:
44,228,5561,2,0,B|57:178|107:153|161:177,1,142.500005435944,2|0,0:0|0:0,0:0:0:0:
120,252,6134,1,0,0:0:0:0:
120,252,6325,2,0,B|104:292|72:304|72:304|72:344|128:380,1,142.500005435944,2|0,0:0|0:0,0:0:0:0:
180,320,6898,2,0,B|212:276|204:232,1,71.2500027179719,2|0,0:0|0:0,0:0:0:0:
288,64,7280,5,0,0:0:0:0:
356,116,7472,1,0,0:0:0:0:
276,144,7663,1,2,0:0:0:0:
208,92,7854,1,0,0:0:0:0:
440,288,8045,6,0,B|372:236|284:300|288:352,1,190,6|8,0:0|0:0,0:0:0:0:
192,284,8618,1,0,0:0:0:0:
84,324,8809,2,0,B|64:272|92:228,1,95,8|0,0:0|0:0,0:0:0:0:
208,92,9191,2,0,B|228:144|200:188,1,95,8|0,0:0|0:0,0:0:0:0:
100,132,9573,1,8,0:0:0:0:
156,32,9765,2,0,B|196:4|248:20,1,95,0|8,0:0|0:0,0:0:0:0:
360,44,10147,5,0,0:0:0:0:
366,225,10338,1,8,0:0:0:0:
468,74,10529,1,0,0:0:0:0:
296,137,10720,1,8,0:0:0:0:
471,187,10911,1,0,0:0:0:0:
444,300,11102,2,0,B|432:356|328:376|284:320,1,190,8|8,0:0|0:0,0:0:0:0:
124,260,11675,2,0,B|168:224|224:260,1,95,0|8,0:0|0:0,0:0:0:0:
112,164,12058,2,0,B|68:200|12:164,1,95,0|8,0:0|0:0,0:0:0:0:
36,28,12440,6,0,B|64:112|64:112|108:72|168:116,1,190,6|6,0:0|0:0,0:0:0:0:
236,188,13013,1,6,0:0:0:0:
324,116,13204,1,0,0:0:0:0:
264,288,13395,1,4,0:0:0:0:
412,148,13586,1,6,0:0:0:0:
320,204,13777,1,0,0:0:0:0:
228,96,13968,6,0,B|172:44|172:44|100:52|104:128,1,190,6|0,0:0|0:0,0:0:0:0:
136,228,14542,2,0,B|192:212|204:164,1,95,8|0,0:0|0:0,0:0:0:0:
256,268,14924,1,0,0:0:0:0:
360,312,15115,1,0,0:0:0:0:
387,304,15210,1,0,0:0:0:0:
408,283,15306,1,8,0:0:0:0:
415,256,15401,1,0,0:0:0:0:
413,227,15497,1,0,0:0:0:0:
398,203,15593,1,0,0:0:0:0:
380,184,15688,6,0,B|352:160|360:116|360:116|292:92|252:156,1,190,0|8,0:0|0:0,0:0:0:0:
348,248,16261,1,0,0:0:0:0:
256,316,16452,2,0,B|224:352|168:344,1,95,2|0,0:0|0:0,0:0:0:0:
144,332,16740,1,0,0:0:0:0:
132,307,16835,1,0,0:0:0:0:
200,216,17026,5,0,0:0:0:0:
208,190,17121,1,0,0:0:0:0:
203,162,17217,2,0,B|168:108|100:132,1,95,2|0,0:0|0:0,0:0:0:0:
60,232,17599,2,0,B|116:244|140:192,1,95,8|0,0:0|0:0,0:0:0:0:
204,288,17981,2,0,B|248:312|248:312|280:312|292:276,1,95
360,364,18363,1,8,0:0:0:0:
404,260,18554,1,2,0:0:0:0:
292,284,18745,1,0,0:0:0:0:
284,64,18937,5,10,0:0:0:0:
324,172,19128,1,8,0:0:0:0:
400,84,19319,1,0,0:0:0:0:
284,64,19510,1,8,0:0:0:0:
255,64,19605,1,8,0:0:0:0:
229,76,19701,1,8,0:0:0:0:
120,104,19892,1,8,0:0:0:0:
136,216,20083,1,8,0:0:0:0:
159,234,20179,1,0,0:0:0:0:
185,242,20274,1,2,0:0:0:0:
256,332,20465,6,0,B|300:360|356:328,1,95,0|8,0:0|0:0,0:0:0:0:
316,180,20847,2,0,B|288:220|300:272,1,95,0|0,0:0|0:0,0:0:0:0:
412,240,21230,1,2,0:0:0:0:
404,128,21421,2,0,B|400:80|352:48,1,95,8|2,0:0|0:0,0:0:0:0:
184,84,21803,6,0,B|284:52|284:52|284:92|328:120,1,190,2|8,0:0|0:0,0:0:0:0:
376,224,22376,1,8,0:0:0:0:
374,252,22472,1,8,0:0:0:0:
360,276,22567,1,10,0:0:0:0:
248,292,22758,6,0,B|204:316|156:292,1,95,8|8,0:2|0:0,0:0:0:0:
204,188,23140,1,10,0:0:0:0:
204,216,23236,1,0,0:0:0:0:
204,244,23331,1,2,0:0:0:0:
128,160,23523,6,0,B|144:104|208:104,1,95,0|8,0:0|0:0,0:0:0:0:
308,76,23905,1,0,0:0:0:0:
440,264,24096,2,2,B|480:172|440:104,1,142.5
284,272,24669,5,0,0:0:0:0:
256,280,24765,1,0,0:0:0:0:
228,272,24860,1,12,0:0:0:0:
308,192,25051,1,2,0:0:0:0:
172,132,25242,1,2,0:0:0:0:
372,36,25433,1,14,0:0:0:0:
152,60,25816,6,10,B|100:72|92:136,2,95,10|2|10,0:0|0:0|0:0,0:0:0:0:
280,224,26389,6,0,B|160:124,1,142.500005435944,0|2,0:0|0:0,0:0:0:0:
120,204,26962,1,0,0:0:0:0:
136,288,27153,2,0,B|188:296|216:348,1,71.2500027179719,2|0,0:0|0:0,0:0:0:0:
128,368,27535,1,0,0:0:0:0:
344,360,27726,6,0,B|384:332|384:288,1,71.2500027179719,2|0,0:0|0:0,0:0:0:0:
340,144,28109,2,0,B|300:172|300:216,1,71.2500027179719
440,248,28491,2,0,B|401:217|359:230,1,71.2500027179719,2|0,0:0|0:0,0:0:0:0:
248,256,28873,2,0,B|286:286|328:273,1,71.2500027179719,2|0,0:0|0:0,0:0:0:0:
228,132,29255,6,0,B|188:136|168:96|168:96|100:144,1,142.500005435944,2|0,0:0|0:0,0:0:0:0:
240,48,29828,2,0,B|304:64|304:120,1,71.2500027179719
448,76,30210,2,2,B|416:104|360:88,1,71.2500027179719
332,160,30593,1,0,0:0:0:0:
204,232,30784,6,0,B|164:232|156:280,1,71.2500027179719,2|0,0:0|0:0,0:0:0:0:
308,232,31166,2,0,B|348:232|356:280,1,71.2500027179719,2|0,0:0|0:0,0:0:0:0:
200,344,31548,1,2,0:0:0:0:
312,344,31739,1,0,0:0:0:0:
256,184,31930,1,2,0:0:0:0:
256,284,32121,1,0,0:0:0:0:
320,136,32312,2,0,B|288:96|224:96|192:136,1,142.500005435944,2|0,0:0|0:0,0:0:0:0:
316,216,32886,6,0,B|280:220|256:184|256:184|232:220|196:216,1,142.500005435944,2|0,0:0|0:0,0:0:0:0:
304,364,33459,2,0,B|340:344|336:304,1,71.2500027179719,2|0,0:0|0:0,0:0:0:0:
175,305,33841,2,0,B|172:344|208:364,1,71.2500027179719,2|0,0:0|0:0,0:0:0:0:
256,292,34223,1,2,0:0:0:0:
340,296,34414,2,2,B|372:268|376:228,1,71.2500027179719,0|2,0:0|0:0,0:0:0:0:
292,224,34796,1,0,0:0:0:0:
172,88,34987,2,2,B|140:116|136:156,1,71.2500027179719
220,160,35369,1,0,0:0:0:0:
96,332,35561,6,0,B|176:296|176:296|188:340|232:348,1,142.500005435944,0|2,0:0|0:0,0:0:0:0:
308,240,36134,2,0,B|260:240|244:292,1,71.2500027179719,0|2,0:0|0:0,0:0:0:0:
376,208,36516,2,0,B|400:276|348:320|308:308,1,142.500005435944,2|0,0:0|0:0,0:0:0:0:
256,48,37280,5,6,0:0:0:0:
176,76,37472,1,4,0:0:0:0:
236,236,37854,1,2,0:0:0:0:
316,208,38046,1,4,0:0:0:0:
244,144,38236,2,0,B|180:167,2,35.625001358986,4|0|0,0:0|0:0|0:0,0:0:0:0:
265,134,38523,1,0,0:0:0:0:
286,125,38618,1,4,0:0:0:0:
448,168,38809,5,0,0:0:0:0:
408,272,39000,2,0,B|352:244|296:284,1,95,8|0,0:0|0:0,0:0:0:0:
224,340,39382,1,0,0:0:0:0:
168,240,39573,2,0,B|116:264|112:316,1,95,0|8,0:0|0:0,0:0:0:0:
188,156,39956,6,0,B|240:172|252:224,1,95
316,44,40338,2,0,B|328:104|292:132,1,95,0|8,0:0|0:0,0:0:0:0:
204,64,40720,1,0,0:0:0:0:
344,212,40911,1,0,0:0:0:0:
140,248,41102,2,0,B|156:212|192:225|208:184,2,95,0|8|0,0:0|0:0|0:0,0:0:0:0:
316,344,41675,6,0,B|212:292|212:292|196:324|152:332,1,190,0|8,0:0|0:0,0:0:0:0:
292,248,42249,1,0,0:0:0:0:
392,192,42440,2,0,B|372:144|320:136,1,95
216,180,42822,1,8,0:0:0:0:
48,288,43013,6,0,B|96:324|180:308,2,95
136,112,43586,2,0,B|116:204,1,95,8|0,0:0|0:0,0:0:0:0:
120,216,43873,1,0,0:0:0:0:
124,228,43968,1,0,0:0:0:0:
236,244,44159,1,0,0:0:0:0:
308,88,44351,6,0,B|252:72|212:116,1,95,12|0,0:0|0:0,0:0:0:0:
384,256,44733,2,0,B|356:152|356:152|316:184|264:152,1,190,4|8,0:0|0:0,0:0:0:0:
276,272,45306,1,0,0:0:0:0:
200,356,45497,2,0,B|152:320|164:248,2,95,0|0|8,0:0|0:0|0:0,0:0:0:0:
112,188,46070,1,0,0:0:0:0:
208,196,46261,1,0,0:0:0:0:
248,40,46452,6,0,B|200:48|200:48|176:76|188:116,1,95,0|8,0:0|0:0,0:0:0:0:
296,112,46835,2,0,B|344:80|332:24,1,95
448,192,47217,2,0,B|444:136|392:112,1,95,0|8,0:0|0:0,0:0:0:0:
340,212,47599,1,0,0:0:0:0:
248,360,47790,6,0,B|308:348|320:288|320:288|368:296|400:264,1,190,0|8,0:0|0:0,0:0:0:0:
232,272,48363,1,0,0:0:0:0:
120,252,48554,1,0,0:0:0:0:
192,164,48745,1,0,0:0:0:0:
224,264,48937,1,8,0:0:0:0:
112,244,49128,1,0,0:0:0:0:
104,236,49223,1,0,0:0:0:0:
96,228,49319,1,4,0:0:0:0:
96,116,49510,1,6,0:0:0:0:
212,348,49892,6,0,B|233:347|233:347|227:332|227:332|255:337|255:337|248:322|248:322|277:327|277:327|270:313|270:313|299:317|299:317|292:303|292:303|310:304|310:304|332:294,1,190,6|8,0:0|0:0,0:0:0:0:
336,288,50370,1,0,0:0:0:0:
356,268,50465,1,8,0:0:0:0:
370,242,50561,1,0,0:0:0:0:
374,214,50656,1,0,0:0:0:0:
364,186,50752,1,0,0:0:0:0:
348,164,50847,6,0,B|324:132|336:96|336:96|312:60|268:68,1,142.500005435944,2|0,0:0|0:0,0:0:0:0:
256,152,51421,1,0,0:0:0:0:
192,96,51612,2,0,B|156:72|112:88,1,71.2500027179719,2|0,0:0|0:0,0:0:0:0:
148,168,51994,1,0,0:0:0:0:
64,184,52185,2,0,B|76:236|120:248|120:248|120:324,1,142.500005435944,2|0,0:0|0:0,0:0:0:0:
316,232,52758,6,0,B|280:224|248:248,1,71.2500027179719,0|0,0:0|0:0,0:0:0:0:
372,172,53140,2,0,B|400:200|396:244,1,71.2500027179719,2|0,0:0|0:0,0:0:0:0:
292,156,53523,2,0,B|300:117|339:96,1,71.2500027179719,2|0,0:0|0:0,0:0:0:0:
144,36,53905,6,0,B|172:56|172:56|168:84|152:100|156:128|156:128|180:152,1,142.500005435944,2|0,0:0|0:0,0:0:0:0:
76,88,54478,1,0,0:0:0:0:
44,224,54669,2,0,B|84:212|100:160,1,71.2500027179719,2|0,0:0|0:0,0:0:0:0:
136,272,55051,1,2,0:0:0:0:
208,316,55242,2,0,B|228:276|212:240|212:240|224:204|288:200,1,142.500005435944,2|0,0:0|0:0,0:0:0:0:
300,280,55816,1,2,0:0:0:0:
380,304,56007,1,0,0:0:0:0:
308,272,56198,1,2,0:0:0:0:
388,296,56389,1,0,0:0:0:0:
396,160,56580,1,8,0:0:0:0:
388,180,56675,1,8,0:0:0:0:
380,204,56771,1,8,0:0:0:0:
328,124,56962,6,0,B|352:80|396:80|396:80|372:64|320:60,1,161.500003080368,2|8,0:0|0:0,0:0:0:0:
164,64,57535,2,0,B|252:56|252:56|232:96|260:148,1,161.500003080368,2|0,0:0|0:0,0:0:0:0:
156,148,58109,2,0,B|148:176|120:180,2,40.375000770092,10|0|0,0:0|0:0|0:0,0:0:0:0:
132,340,58491,6,0,B|148:268|148:268|80:272|52:216,1,180.49999518013,2|8,0:0|0:0,0:0:0:0:
148,168,59064,1,0,0:0:0:0:
236,108,59255,2,0,P|260:172|236:212,1,90.2499975900651,2|0,0:0|0:0,0:0:0:0:
276,296,59637,2,0,P|336:320|376:312,1,90.2499975900651,8|0,0:0|0:0,0:0:0:0:
464,288,60019,5,6,0:0:0:0:
464,180,60210,1,0,0:0:0:0:
372,240,60401,1,2,0:0:0:0:
464,288,60593,1,0,0:0:0:0:
464,180,60784,1,4,0:0:0:0:
360,144,60975,1,8,0:0:0:0:
352,136,61070,1,8,0:0:0:0:
344,128,61166,1,8,0:0:0:0:
256,64,61357,1,4,0:0:0:0:
80,192,61739,5,2,0:0:0:0:
120,60,61930,1,2,0:0:0:0:
232,248,62312,2,0,B|208:284|212:320|256:344|300:320|304:284|280:248,1,166.25,2|0,0:0|0:0,0:0:0:0:
288,176,63077,6,0,B|344:176|372:228|372:228|408:184,1,142.5,6|0,0:0|0:0,0:0:0:0:
400,192,63459,1,8,0:0:0:0:
356,88,63650,1,0,0:0:0:0:
196,144,63841,2,0,B|212:92|264:80,1,95
200,232,64223,2,0,B|136:232|120:176,1,95,8|0,0:0|0:0,0:0:0:0:
288,232,64605,2,0,B|288:288|248:308|248:308|304:340|304:340,1,142.5,2|0,0:0|0:0,0:0:0:0:
300,336,64987,1,8,0:0:0:0:
392,272,65179,1,0,0:0:0:0:
412,32,65370,6,0,B|420:92|356:128,1,95,2|0,0:0|0:0,0:0:0:0:
288,40,65752,1,8,0:0:0:0:
184,92,65943,1,0,0:0:0:0:
40,128,66134,2,0,B|44:176|76:200|76:200|56:260,1,142.5,2|0,0:0|0:0,0:0:0:0:
56,264,66516,1,8,0:0:0:0:
248,264,66707,2,0,P|200:248|156:257,1,95
312,192,67089,2,0,B|352:228|344:288,1,95,0|8,0:0|0:0,0:0:0:0:
204,180,67471,2,0,B|164:144|172:84,1,95,0|0,0:0|0:0,0:0:0:0:
272,108,67854,1,0,0:0:0:0:
380,60,68045,6,0,B|396:108|396:108|448:112|464:176,1,142.5,8|0,0:0|0:0,0:0:0:0:
464,172,68427,1,0,0:0:0:0:
468,180,68523,1,0,0:0:0:0:
472,188,68618,1,0,0:0:0:0:
460,300,68809,2,0,B|432:344|376:344,1,95
372,340,69096,1,8,0:0:0:0:
364,336,69191,2,0,B|316:356|273:326,1,95,6|0,0:0|0:0,0:0:0:0:
324,140,69573,2,0,B|360:180|336:236,1,95,8|0,0:0|0:0,0:0:0:0:
168,224,69956,1,0,0:0:0:0:
172,216,70051,1,0,0:0:0:0:
176,208,70147,1,0,0:0:0:0:
220,104,70338,6,0,B|168:80|120:120,1,95,8|0,0:0|0:0,0:0:0:0:
124,120,70624,1,0,0:0:0:0:
120,128,70720,1,2,0:0:0:0:
288,56,70911,2,0,P|304:108|288:156,2,95,0|8|0,0:0|0:0|0:0,0:0:0:0:
348,252,71484,1,2,0:0:0:0:
344,260,71580,1,0,0:0:0:0:
340,268,71675,1,0,0:0:0:0:
120,252,71866,2,0,P|164:268|208:248,1,95,8|0,0:0|0:0,0:0:0:0:
212,244,72153,1,0,0:0:0:0:
220,240,72249,2,0,P|262:221|306:237,1,95,8|0,0:0|0:0,0:0:0:0:
368,52,72631,6,0,P|348:100|308:112,1,95,8|0,0:0|0:0,0:0:0:0:
216,20,73013,1,8,0:0:0:0:
224,24,73109,1,0,0:0:0:0:
232,28,73204,1,0,0:0:0:0:
156,112,73395,1,8,0:0:0:0:
100,280,73586,6,0,B|128:208|128:208|72:192|72:136,1,142.5,4|0,0:0|0:0,0:0:0:0:
76,160,73968,1,2,0:0:0:0:
228,196,74159,2,0,P|280:200|304:232,1,95,4|2,2:0|0:0,0:0:0:0:
456,120,74542,2,0,P|404:116|380:84,1,95,6|2,0:0|0:0,0:0:0:0:
268,96,74924,1,6,0:0:0:0:
432,256,75115,1,2,0:0:0:0:
208,304,75306,6,0,B|124:328|124:328|136:288|112:256,1,142.5,6|0,0:0|0:0,0:0:0:0:
116,268,75688,1,8,0:0:0:0:
112,104,75879,2,0,P|156:128|164:172,1,95
320,160,76261,2,0,P|276:136|268:92,1,95,0|8,0:0|0:0,0:0:0:0:
388,84,76644,1,0,0:0:0:0:
384,224,76835,2,0,B|312:244|312:244|320:288|288:308,1,142.5,2|0,0:0|0:0,0:0:0:0:
288,312,77217,1,8,0:0:0:0:
176,316,77408,1,0,0:0:0:0:
144,208,77599,6,0,P|92:204|68:172,1,95,6|2,0:0|0:0,0:0:0:0:
224,76,77981,2,0,P|172:80|148:112,1,95,0|2,0:0|0:0,0:0:0:0:
244,176,78363,2,0,B|308:160|320:104|320:104|368:144,1,142.5,6|0,0:0|0:0,0:0:0:0:
348,132,78745,1,8,0:0:0:0:
448,284,78937,2,0,P|408:250|368:255,1,95,2|0,0:0|0:0,0:0:0:0:
216,312,79319,2,0,P|240:344|292:348,2,95,2|8|0,0:0|0:0|0:0,0:0:0:0:
220,200,79892,6,2,B|164:200|128:248|128:248|104:212,1,142.5,2|0,0:0|0:0,0:0:0:0:
104,212,80274,1,8,0:0:0:0:
164,116,80465,1,0,0:0:0:0:
28,128,80656,5,2,0:0:0:0:
44,124,80752,1,0,0:0:0:0:
56,120,80847,1,0,0:0:0:0:
128,48,81038,1,8,0:0:0:0:
224,96,81230,1,0,0:0:0:0:
240,92,81326,1,0,0:0:0:0:
252,88,81421,6,0,B|312:92|340:36|340:36|380:96,1,142.5,6|0,0:0|0:0,0:0:0:0:
364,72,81803,1,8,0:0:0:0:
400,248,81994,2,0,P|420:208|408:160,1,95,0|2,0:0|0:0,0:0:0:0:
220,224,82376,2,0,P|268:236|300:204,1,95,0|8,0:0|0:0,0:0:0:0:
224,96,82758,1,0,0:0:0:0:
100,84,82949,2,0,B|56:156|104:148|56:216,1,142.5,2|0,0:0|0:0,0:0:0:0:
52,224,83331,1,8,0:0:0:0:
132,308,83523,1,0,0:0:0:0:
292,316,83714,5,2,0:0:0:0:
396,272,83905,1,0,0:0:0:0:
308,200,84096,1,8,0:0:0:0:
292,316,84287,1,0,0:0:0:0:
280,120,84478,6,0,B|232:144|224:192|224:192|152:128,1,190,2|8,0:0|0:0,0:0:0:0:
204,28,85051,1,0,0:0:0:0:
100,76,85242,2,0,P|76:128|88:164,1,95,8|0,2:0|0:0,0:0:0:0:
152,252,85624,1,8,0:0:0:0:
280,120,85816,2,0,P|348:120|396:188,1,142.5,6|0,0:0|0:0,0:0:0:0:
396,180,86198,1,8,0:0:0:0:
360,328,86389,2,0,P|294:303|270:239,1,142.5,6|0,0:0|0:0,0:0:0:0:
272,232,86771,5,8,0:0:0:0:
280,120,86962,1,2,0:0:0:0:
140,32,87153,1,2,0:0:0:0:
124,196,87344,1,6,0:0:0:0:
256,192,87535,12,0,89064,0:0:0:0:
