osu file format v12

[General]
AudioFilename: Heart no Kakuritsu.mp3
AudioLeadIn: 1000
PreviewTime: 74539
Countdown: 0
SampleSet: Soft
StackLeniency: 0.7
Mode: 0
LetterboxInBreaks: 0

[Editor]
Bookmarks: 16,1163,8042,11099,24666,25813,26386,37277,38997,56959,60016,62309,63074,74539,75303,85717
DistanceSpacing: 1.2
BeatDivisor: 4
GridSize: 4

[Metadata]
Title:Heart no Kakuritsu (TV Size)
TitleUnicode:ハートの確率 (TV Size)
Artist:blue drops
ArtistUnicode:blue drops
Creator:pkhg
Version:Hard
Source:Sora no Otoshimono: Forte
Tags:opening op Heaven's Lost Property そらのおとしもの DakeDekaane Yoshida Hitomi
BeatmapID:209429
BeatmapSetID:61762

[Difficulty]
HPDrainRate:6
CircleSize:4
OverallDifficulty:6
ApproachRate:7
SliderMultiplier:1.7
SliderTickRate:2

[Events]
//Background and Video events
Video,0,"Sora no Video.avi"
0,0,"BG.jpg",0,0
//Break Periods
//Storyboard Layer 0 (Background)
//Storyboard Layer 1 (Fail)
//Storyboard Layer 2 (Pass)
//Storyboard Layer 3 (Foreground)
//Storyboard Sound Samples
//Background Colour Transformations
3,100,163,162,255

[TimingPoints]
402,382.165605095541,4,2,1,70,1,0
497,-133.333333333333,4,2,1,70,0,0
8045,-100,4,2,2,70,0,0
8714,-100,4,2,3,70,0,0
8905,-100,4,2,2,70,0,0
9096,-100,4,2,3,70,0,0
9287,-100,4,2,2,70,0,0
12153,-100,4,2,3,70,0,0
12344,-100,4,2,2,70,0,0
25433,-100,4,2,0,70,0,0
26389,-133.333333333333,4,2,0,70,0,0
38618,-100,4,2,0,70,0,0
39000,-100,4,2,2,70,0,0
50847,-133.333333333333,4,2,0,70,0,0
56771,-117.647058823529,4,2,0,70,0,0
58491,-105.263157894737,4,2,0,70,0,0
61930,-200,4,2,0,70,0,0
63077,-100,4,2,2,70,0,1
73491,-100,4,2,0,70,0,1
74924,-100,4,2,0,70,0,0
75210,-100,4,2,0,70,0,0
75306,-100,4,2,2,70,0,1
85720,-100,4,2,0,70,0,1
88395,-100,4,2,0,50,0,1
88682,-100,4,2,0,30,0,1
89064,-100,4,2,0,10,0,0

[Colours]
Combo1 : 255,255,0
Combo2 : 255,108,255
Combo3 : 45,132,227

[HitObjects]
88,88,1166,2,0,B|72:160|140:192,1,127.500004863739,2|2,0:0|0:0,2:0:0:0:
160,116,1739,1,0,2:0:0:0:
164,40,1930,2,2,B|224:48|216:88|276:96,1,127.500004863739,2|2,0:0|0:0,2:0:0:0:
348,76,2503,2,2,B|359:135|319:140|331:200,2,127.500004863739,2|2|2,0:0|0:0|0:0,2:0:0:0:
276,100,3459,1,0,2:0:0:0:
404,180,3841,1,2,2:0:0:0:
300,292,4223,6,0,B|288:244|256:252|224:244|212:292,1,127.500004863739,0|2,0:0|0:0,2:0:0:0:
136,304,4796,1,0,2:0:0:0:
196,352,4987,2,2,B|256:388|316:352,1,127.500004863739,2|2,0:0|0:0,2:0:0:0:
376,304,5561,1,0,2:0:0:0:
212,292,5943,2,0,B|224:244|256:252|288:244|300:292,1,127.500004863739,2|2,0:0|0:0,2:0:0:0:
200,176,6707,2,2,B|240:196|256:168|256:168|272:196|312:176,1,127.500004863739,2|2,0:0|0:0,2:0:0:0:
288,104,7280,6,0,B|256:92|225:103,2,63.7500024318696,2|0|2,0:0|0:0|0:0,2:0:0:0:
256,176,7854,1,0,2:0:0:0:
256,176,8045,2,0,B|228:260|132:280,1,170,4|8,2:0|0:0,2:0:0:0:
160,176,8618,2,0,B|188:260|284:280,2,170,2|2|2,2:0|2:0|2:0,2:2:0:0:
108,264,9573,1,8,2:0:0:0:
300,196,9956,1,8,2:0:0:0:
132,80,10338,5,10,2:0:0:0:
132,80,10529,1,0,2:0:0:0:
32,80,10720,1,10,2:0:0:0:
80,172,10911,1,0,2:0:0:0:
88,272,11102,2,0,B|136:275|136:275|183:224|183:224|236:226,2,170,8|8|8,2:0|0:0|2:0,2:0:0:0:
124,176,12058,2,0,B|160:212|160:212|155:281|155:281|190:314,1,170,2|4,2:0|2:0,2:0:0:0:
28,192,12822,5,4,2:0:0:0:
28,192,13013,1,6,2:0:0:0:
212,276,13395,2,0,B|300:276,1,85,10|8,0:0|0:0,2:0:0:0:
356,192,13777,1,0,2:0:0:0:
456,204,13968,2,0,B|452:104|364:76|308:104,1,170,4|0,0:0|0:0,2:0:0:0:
252,64,14542,6,0,B|80:88,1,170,8|0,0:0|0:0,2:0:0:0:
40,180,15115,1,0,2:0:0:0:
88,268,15306,2,0,B|128:244|136:200,1,85,8|0,0:0|0:0,2:0:0:0:
192,284,15688,2,0,B|348:368,1,170,2|10,0:0|0:0,2:0:0:0:
444,368,16261,1,0,2:0:0:0:
372,296,16452,2,0,B|216:212,1,170,2|10,0:0|0:0,2:0:0:0:
320,188,17026,1,0,2:0:0:0:
348,88,17217,6,0,B|296:72|268:100|240:128|176:104,1,170,2|10,0:0|0:0,2:0:0:0:
120,56,17790,2,0,B|52:228|52:228,1,170,2|2,0:0|0:0,2:0:0:0:
128,288,18363,1,8,2:0:0:0:
200,216,18554,1,0,2:0:0:0:
224,316,18745,2,0,B|264:344|328:320,2,85,2|0|8,0:0|0:0|0:0,0:0:0:0:
412,232,19510,6,0,B|472:260,2,42.5,2|0|2,0:0|0:0|0:0,2:0:0:0:
328,172,19892,1,10,2:0:0:0:
420,128,20083,2,0,B|452:88,2,42.5,0|0|0,0:0|0:0|0:0,2:0:0:0:
332,80,20465,5,0,2:0:0:0:
232,56,20656,1,8,2:0:0:0:
132,68,20847,1,0,2:0:0:0:
132,68,21038,2,0,B|60:136|96:224,1,170,0|8,0:0|2:0,2:0:0:0:
180,164,21612,1,0,2:0:0:0:
188,264,21803,2,0,B|212:340|300:228|332:304,1,170,2|8,2:0|2:0,2:0:0:0:
428,276,22376,1,0,2:0:0:0:
480,188,22567,2,0,B|424:172|408:100|352:80,1,170,2|8,2:0|2:0,2:0:0:0:
280,152,23140,1,0,0:0:0:0:
280,152,23331,6,0,B|240:116|248:68|248:68|204:48|152:88,1,170,2|8,0:0|0:0,0:0:0:0:
84,116,23905,1,0,0:0:0:0:
84,116,24096,2,0,B|40:160|56:240,1,127.5,2|2,0:0|0:0,0:0:0:0:
208,244,24669,2,2,B|144:240,2,42.5,2|2|4,0:0|0:0|0:0,0:0:0:0:
308,256,25051,2,4,B|392:260,2,85,6|2|6,0:0|0:0|0:0,0:0:0:0:
428,88,25816,6,0,B|408:148|336:144,1,85,2|0,0:0|0:0,0:0:0:0:
340,44,26198,1,0,0:0:0:0:
256,92,26389,2,0,B|196:80|144:112|136:148,1,127.500004863739,4|2,0:0|0:0,0:0:0:0:
256,236,27153,5,2,0:0:0:0:
212,296,27344,2,0,B|180:276|180:229|180:229|119:198,2,127.500004863739,0|2|0,0:0|0:0|0:0,0:0:0:0:
304,176,28491,2,0,B|335:195|335:242|335:242|396:273,2,127.500004863739,0|2|0,0:0|0:0|0:0,0:0:0:0:
312,100,29446,6,0,B|268:96|256:72|256:72|244:96|200:100,2,127.500004863739,0|2|2,0:0|0:0|0:0,0:0:0:0:
352,164,30401,2,0,B|388:180|412:236|388:288,1,127.500004863739,0|2,0:0|0:0,0:0:0:0:
118,274,31166,2,0,B|104:236|124:180|160:164,1,127.500004863739,0|2,0:0|0:0,0:0:0:0:
192,312,31930,2,0,B|324:312,1,127.500004863739,0|2,0:0|0:0,0:0:0:0:
396,312,32503,6,0,B|396:272|364:232|312:236,1,127.500004863739,0|2,2:0|0:0,0:0:0:0:
256,92,33268,1,0,0:0:0:0:
200,144,33459,2,0,B|236:180|256:164|276:180|312:144,2,127.500004863739,0|2|2,0:0|0:0|0:0,0:0:0:0:
200,236,34605,2,2,B|148:232|116:272|116:312,2,127.500004863739,0|2|2,0:0|0:0|0:0,0:0:0:0:
196,312,35561,6,0,B|232:340|256:320|280:340|316:312,2,127.500004863739,0|2|2,0:0|0:0|0:0,0:0:0:0:
212,236,36516,2,0,B|224:188|256:196|288:188|300:236,1,127.500004863739,0|2,0:0|0:0,2:0:0:0:
320,84,37280,1,4,0:0:0:0:
304,160,37472,2,0,B|272:148|256:120|256:120|240:148|208:160,1,127.500004863739
192,84,38045,1,4,0:0:0:0:
132,132,38236,2,0,B|108:156,4,31.8750012159348,4|0|2|0|0,0:0|0:0|0:0|0:0|0:0,0:0:0:0:
172,336,39000,6,0,B|356:320,1,170,10|0,0:0|0:0,0:0:0:0:
440,296,39573,2,0,B|424:236|368:220,1,85,0|10,0:0|0:0,0:0:0:0:
288,240,39956,2,0,B|284:172|340:112|424:128,1,170
392,228,40529,1,10,0:0:0:0:
332,308,40720,2,0,B|256:348|192:280|216:216,1,170
232,140,41293,2,0,B|168:136|140:176,1,85,10|0,0:0|0:0,0:0:0:0:
240,64,41675,6,0,B|320:80|328:176|264:209,1,170,0|10,0:0|0:0,0:0:0:0:
196,244,42249,1,0,0:0:0:0:
236,336,42440,2,0,B|316:368|404:344,1,170,0|10,0:0|0:0,0:0:0:0:
488,288,43013,2,0,B|440:260|472:212|508:160|460:136,1,170
376,196,43586,1,10,0:0:0:0:
312,116,43777,2,0,B|276:156|276:192|276:192|244:200|216:248,1,170
312,284,44351,2,0,B|284:336|236:344,1,85,4|0,0:0|0:0,0:0:0:0:
148,348,44733,6,0,B|56:344|24:256|28:236,1,170,4|10,0:0|0:0,0:0:0:0:
132,244,45306,1,0,0:0:0:0:
228,208,45497,2,0,B|212:156|168:148,1,85
72,148,45879,1,10,0:0:0:0:
72,148,46070,2,0,B|72:84|136:32|204:56,1,170
256,124,46644,1,10,0:0:0:0:
256,124,46835,2,0,B|292:88|340:88,1,85
340,252,47217,2,0,B|344:208|324:168,1,85,0|10,0:0|0:0,0:0:0:0:
220,348,47599,6,0,B|264:340|280:304|280:304|312:344|368:328,1,170,4|0,0:0|0:0,0:0:0:0:
464,352,48172,1,10,0:0:0:0:
456,252,48363,1,0,0:0:0:0:
444,152,48554,2,0,B|428:96|368:88,1,85
340,184,48937,2,0,B|300:172|284:124,1,85,8|0,0:0|0:0,0:0:0:0:
256,28,49319,1,4,0:0:0:0:
256,28,49510,1,4,0:0:0:0:
104,164,49892,6,4,B|56:176|52:228,2,85,4|4|4,0:0|0:0|0:0,0:0:0:0:
148,256,50465,1,8,0:0:0:0:
155,266,50561,1,0,0:0:0:0:
163,277,50656,1,8,0:0:0:0:
171,286,50752,1,0,0:0:0:0:
177,295,50847,6,8,P|216:344|280:352,1,127.500004863739,8|0,0:0|0:0,0:0:0:0:
256,280,51421,1,8,0:0:0:0:
448,220,51803,1,0,0:0:0:0:
460,144,51994,1,2,0:0:0:0:
424,76,52185,2,2,B|384:48|352:60|336:80|336:80|320:100|288:112|252:88,1,191.250007295609,0|2,0:0|0:0,0:0:0:0:
100,80,53140,1,0,0:0:0:0:
24,64,53331,2,2,B|12:136|80:168|112:156,1,127.500004863739
156,120,53905,6,2,B|180:156|168:188|151:208|151:208|131:224|119:256|144:296,1,191.250007295609,2|2,0:0|0:0,0:0:0:0:
180,364,54669,2,2,B|216:348|240:296|208:256,1,127.500004863739
244,324,55242,2,0,B|294:304|298:247|268:214,1,127.500004863739,0|2,0:0|0:0,0:0:0:0:
300,148,55816,6,0,B|320:112|312:76,1,63.7500024318696,2|0,0:0|0:0,0:0:0:0:
256,40,56198,2,0,B|236:76|244:112,1,63.7500024318696,2|0,0:0|0:0,0:0:0:0:
224,176,56580,2,2,B|192:212,2,31.8750012159348
272,248,56962,6,0,B|332:296|332:296|336:336|296:352,1,144.500002756119,2|0,0:0|0:0,0:0:0:0:
216,336,57535,2,0,B|156:288|156:288|152:248|192:232,1,144.500002756119,2|0,0:0|0:0,0:0:0:0:
256,180,58109,1,0,0:0:0:0:
256,92,58300,1,0,0:0:0:0:
340,140,58491,6,0,B|379:139|406:169|406:169|365:201|371:243,1,161.499995687485,2|0,0:0|0:0,0:0:0:0:
480,344,59064,2,0,B|440:344|413:314|413:314|454:282|448:240,1,161.499995687485,2|0,0:0|0:0,0:0:0:0:
460,144,59637,2,2,B|476:128|476:104,2,40.3749989218712
380,92,60019,5,4,0:0:0:0:
256,240,60401,1,0,0:0:0:0:
132,92,60784,1,4,0:0:0:0:
208,152,60975,1,0,0:0:0:0:
304,152,61166,1,0,0:0:0:0:
380,92,61357,1,4,0:0:0:0:
256,240,61739,5,2,0:0:0:0:
256,240,61930,1,4,0:0:0:0:
172,296,62312,5,2,0:0:0:0:
148,292,62503,1,2,0:0:0:0:
124,280,62694,1,2,0:0:0:0:
108,260,62886,1,2,0:0:0:0:
100,240,63077,6,0,B|100:152|172:92,1,170,6|8,0:0|0:0,0:0:0:0:
289,206,63650,2,0,B|216:160|216:160|176:192|184:232,1,170
256,304,64223,1,8,0:0:0:0:
348,344,64414,2,0,B|416:352|448:320|448:320|408:240,1,170
448,164,64987,2,0,B|400:144|368:172|368:172|292:120,1,170,8|2,0:0|0:0,0:0:0:0:
256,32,65561,5,0,0:0:0:0:
156,52,65752,1,8,0:0:0:0:
88,128,65943,1,0,0:0:0:0:
88,128,66134,2,0,B|96:200|48:232|48:232|64:276|116:280,1,170,2|8,0:0|0:0,0:0:0:0:
256,152,66707,2,0,B|168:160|168:160|168:212|140:248,1,170
248,240,67280,1,8,0:0:0:0:
380,328,67472,2,0,B|308:284|308:284|340:240|304:192,1,170
388,136,68045,2,0,B|440:116|440:116|500:152|484:212,1,170,8|2,0:0|0:0,0:0:0:0:
384,232,68618,5,0,0:0:0:0:
384,232,68809,2,0,B|308:280,1,85,8|0,0:0|0:0,0:0:0:0:
176,168,69191,2,0,B|256:224|256:224|228:252|236:296,1,170,6|8,0:0|0:0,0:0:0:0:
140,256,69765,2,0,B|60:200|60:200|88:172|80:128,1,170
0,144,70338,1,8,0:0:0:0:
176,168,70529,2,0,B|128:200|128:260|168:304|224:296,1,170
296,204,71102,2,0,B|208:228,1,85,8|0,0:0|0:0,0:0:0:0:
372,204,71484,6,0,B|368:152|320:132,1,85,2|0,0:0|0:0,0:0:0:0:
372,280,71866,2,0,B|424:276|443:228,1,85,8|0,0:0|0:0,0:0:0:0:
436,132,72249,2,0,P|388:64|304:64,1,170,2|8,0:0|0:0,0:0:0:0:
276,160,72822,1,0,0:0:0:0:
188,212,73013,2,0,P|246:267|328:253,1,170,2|8,0:0|0:0,0:0:0:0:
276,160,73586,1,6,0:0:0:0:
60,116,73968,5,0,0:0:0:0:
160,108,74159,2,0,B|220:112|228:188,1,85,4|0,0:0|0:0,0:0:0:0:
192,256,74542,2,0,B|132:252|124:176,1,85,4|0,0:0|0:0,0:0:0:0:
222,157,74924,2,0,B|282:161|290:237,1,85,4|0,0:0|0:0,0:0:0:0:
440,188,75306,6,0,B|356:212|356:212|352:260|308:276,1,170,6|8,0:0|0:0,0:0:0:0:
220,324,75879,2,0,B|180:364|96:364|64:324,1,170
140,256,76452,1,8,0:0:0:0:
64,184,76644,2,0,B|104:144|188:144|220:184,1,170,0|0,0:0|0:0,0:0:0:0:
272,268,77217,2,0,B|312:296|368:276,1,85,8|0,0:0|0:0,0:0:0:0:
332,180,77599,2,0,B|380:173|407:120,1,85,2|0,0:0|0:0,0:0:0:0:
312,84,77981,2,0,B|326:37|289:-9,1,85,8|0,0:0|0:0,0:0:0:0:
84,68,78363,6,0,B|108:28|160:56|212:92|240:52,1,170,6|8,0:0|0:0,0:0:0:0:
128,132,78937,2,0,B|92:160|52:140|52:140|20:172|52:232,1,170
148,228,79510,1,8,0:0:0:0:
84,308,79701,2,0,B|120:352|200:344|232:288,1,170
320,336,80274,6,0,P|360:324|388:288,1,85,8|0,0:0|0:0,0:0:0:0:
484,264,80656,2,0,P|460:216|428:196,1,85,2|0,0:0|0:0,0:0:0:0:
332,196,81038,1,8,0:0:0:0:
328,92,81230,1,0,0:0:0:0:
208,176,81421,2,0,B|204:116|288:64|336:96,1,170,2|8,0:0|0:0,0:0:0:0:
260,252,81994,2,0,B|216:168|140:176|100:204,1,170,2|0,0:0|0:0,0:0:0:0:
240,340,82567,1,8,0:0:0:0:
240,340,82758,2,0,B|244:272|308:228|396:244,1,170,2|0,0:0|0:0,0:0:0:0:
344,140,83331,6,0,B|332:92|284:88,1,85,8|0,0:0|0:0,0:0:0:0:
192,132,83714,2,0,B|204:180|252:184,1,85,2|0,0:0|0:0,0:0:0:0:
336,240,84096,1,8,0:0:0:0:
336,240,84287,1,0,0:0:0:0:
332,340,84478,6,0,B|280:344|256:312|256:312|232:344|180:340,1,170,2|8,0:0|0:0,0:0:0:0:
160,240,85051,2,0,B|160:192|200:168,1,85,0|8,0:0|0:0,0:0:0:0:
313,168,85433,2,0,B|352:192|352:240,1,85,0|8,0:0|0:0,0:0:0:0:
256,272,85816,2,0,B|256:84,1,170,6|0,0:0|0:0,0:0:0:0:
256,102,86389,1,6,0:0:0:0:
164,284,86771,5,6,0:0:0:0:
204,376,86962,1,2,0:0:0:0:
308,376,87153,1,2,0:0:0:0:
348,284,87344,1,6,0:0:0:0:
256,192,87535,12,0,89064,0:0:0:0:
