osu file format v9

[General]
AudioFilename: 01 - Heart no Kakuritsu ~TV size~.mp3
AudioLeadIn: 1015
PreviewTime: 61454
Countdown: 0
SampleSet: Soft
StackLeniency: 0.7
Mode: 0
LetterboxInBreaks: 1

[Editor]
DistanceSpacing: 1
BeatDivisor: 4
GridSize: 8

[Metadata]
Title:Heart no Kakuritsu (TV Size)
Artist:blue drops
Creator:doomed151
Version:Normal
Source:Sora no Otoshimono: Forte
Tags:op opening Xeno ertyukjh010 Jagang

[Difficulty]
HPDrainRate:5
CircleSize:4
OverallDifficulty:5
ApproachRate:6
SliderMultiplier:1
SliderTickRate:1

[Events]
//Background and Video events
0,0,"soraoto.jpg"
Video,0,"heart_no_kakuritsu_x264.avi"
//Break Periods
//Storyboard Layer 0 (Background)
//Storyboard Layer 1 (Fail)
//Storyboard Layer 2 (Pass)
//Storyboard Layer 3 (Foreground)
//Storyboard Sound Samples
//Background Colour Transformations
3,100,163,162,255

[TimingPoints]
-294,382.165605095541,4,2,0,70,1,0
-294,-200,4,2,0,70,0,0
7348,-100,4,2,0,70,0,0
62380,-100,4,2,0,70,0,1
87603,-100,4,2,0,70,0,0

[Colours]
Combo1 : 50,50,50
Combo2 : 0,244,233
Combo3 : 4,4,187
Combo4 : 240,5,5

[HitObjects]
256,86,1234,22,2,B|368:86,1,100.000000596046
432,86,2380,1,0
432,160,2762,2,2,B|320:160,1,100.000000596046
256,160,3909,1,0
256,234,4291,22,2,B|144:234,1,100.000000596046
80,234,5438,1,0
80,308,5820,2,2,B|192:308,1,100.000000596046
254,308,6966,1,0
353,308,7348,22,0,B|416:208|352:112,1,200.000001192092
286,48,8495,1,2
186,48,8877,1,2
56,200,9641,6,0,B|56:296|152:296,1,150.000000894069,0|0
160,248,10406,2,4,B|237:248|237:312,1,100.000000596046,4|4
336,288,11170,5,0
336,288,11361,1,2
336,240,11552,1,0
336,240,11743,2,6,B|400:240|400:176,1,100,6|2
400,128,12317,1,4
256,192,12890,12,4,14992
160,288,15374,5,0
256,288,15756,2,0,B|464:288,1,200,0|4
456,190,16903,1,0
456,90,17285,1,0
356,90,17667,1,0
256,90,18049,6,0,B|56:90,1,200.000001192092
56,190,19196,1,0
56,289,19578,1,4
155,289,19960,1,0
254,289,20342,1,0
353,289,20724,5,0
402,289,20915,1,0
448,288,21106,2,0,B|448:88,1,200.000001192092
347,88,22253,1,0
247,88,22635,1,4
136,256,23399,6,0,B|136:176,2,75
136,256,24164,1,4
112,48,25692,5,4
32,104,26075,2,2,B|32:208,1,100.000000596046
102,274,26839,1,0
172,344,27221,1,0
242,273,27603,2,2,B|242:169,1,100.000000596046
242,72,28368,1,0
341,72,28750,1,0
411,142,29132,6,2,B|411:254,1,100.000000596046
311,242,29896,1,0
240,312,30278,2,0,B|128:312|24:200|136:72|248:72,1,400.000002384184,4|4
343,72,32189,6,2,B|447:72,1,100.000000596046
443,172,32954,1,0
343,172,33336,1,0
343,271,33718,2,2,B|239:271,1,100.000000596046
243,171,34482,1,0
243,270,34864,1,0
172,340,35247,2,0,B|68:340,1,100.000000596046,2|2
320,296,36584,6,0,B|320:240,1,50.000000298023,0|0
470,246,37348,2,0,B|470:302,1,50.000000298023,0|0
470,196,37922,1,4
392,128,38304,6,2,B|285:128,1,100.000000596046
185,25,39259,1,0
185,124,39641,2,0,B|185:236,2,100.000000596046
84,124,40788,1,2
84,273,41361,5,0
184,272,41743,2,0,B|144:200|192:112,1,150.000000894069
255,56,42699,2,0,B|304:152|247:256,1,200.000001192092
145,353,44036,5,4
245,353,44419,2,2,B|349:353,1,100.000000596046
345,353,44992,1,0
415,282,45374,1,0
472,200,45756,2,2,B|473:98,1,100.000000596046
392,48,46520,1,0
288,48,46903,2,0,B|400:128|168:240|304:320,1,300.000001788138
165,281,48431,6,2,B|165:225,2,50.000000298023,2|2|2
64,281,49196,2,4,B|24:208|88:144,1,150.000000894069,2|4
160,64,50151,6,2,B|264:32|360:64,1,200.000001192092
440,120,51298,1,8
448,216,51680,2,2,B|351:255|247:215,1,200.000001192092
152,312,53208,22,2,B|48:312,2,100
152,211,54355,1,8
80,136,54737,2,2,B|80:88|120:40|177:38,1,150
360,192,56266,6,0,B|280:208|208:192,2,150,2|0|4
288,128,57794,2,0,B|368:112|440:128,2,150,2|0|4
217,37,59323,38,0,B|217:141,2,100.000000596046,0|0|2
317,37,60469,1,0
317,37,60661,2,0,B|317:125|421:125,1,150.000000894069,2|4
376,264,61616,6,0,B|440:272|448:344,2,100.000000596046,0|0|4
305,193,62762,1,8
205,193,63145,1,0
134,263,63527,2,0,B|70:271|62:343,2,100.000000596046,8|0|8
136,120,64673,22,0,B|72:112|64:40,2,100.000000596046,0|8|0
207,191,65820,1,8
307,191,66202,1,0
378,121,66584,2,0,B|442:113|450:41,2,100.000000596046,8|0|8
368,236,67731,6,0,B|248:236,1,100.000000596046,0|8
184,184,68495,2,0,B|184:288,4,100.000000596046,4|8|0|8|4
184,83,70406,6,0,B|120:83|104:147,1,100.000000596046,8|0
184,208,71170,2,0,B|248:208|264:272,1,100.000000596046,8|4
331,331,71934,1,8
431,331,72317,1,0
431,231,72699,2,0,B|416:256|384:256,1,50,8|4
216,64,73845,6,0,B|112:64,2,100,0|0|0
145,134,74992,1,8
215,204,75374,1,0
144,274,75756,2,0,B|32:274,2,100.000000596046,8|0|8
244,274,76903,6,0,B|343:274,2,100,0|8|0
314,203,78049,1,8
384,132,78431,1,0
313,61,78813,2,0,B|201:61,2,100.000000596046,8|0|8
313,161,79960,6,0,B|225:73|225:273|137:145,1,200.000001192092,4|0
148,260,81106,1,8
248,260,81489,1,0
248,160,81871,1,8
148,160,82253,1,0
328,80,83017,6,0,B|432:80,2,100.000000596046,0|8|4
227,80,84164,1,8
152,152,84546,2,0,B|152:208,3,50.000000298023,0|0|0|4
251,202,85501,1,0
251,202,85692,1,0
321,272,86075,1,0
321,272,86266,1,0
256,192,86648,12,4,87603
