osu file format v9

[General]
AudioFilename: 01 - Heart no Kakuritsu ~TV size~.mp3
AudioLeadIn: 1533
PreviewTime: 61454
Countdown: 0
SampleSet: Soft
StackLeniency: 0.7
Mode: 0
LetterboxInBreaks: 1

[Editor]
DistanceSpacing: 0.5
BeatDivisor: 2
GridSize: 8

[Metadata]
Title:Heart no Kakuritsu (TV Size)
Artist:blue drops
Creator:doomed151
Version:Easy
Source:Sora no Otoshimono: Forte
Tags:op opening Xeno ertyukjh010 Jagang

[Difficulty]
HPDrainRate:3
CircleSize:3
OverallDifficulty:3
ApproachRate:3
SliderMultiplier:1
SliderTickRate:1

[Events]
//Background and Video events
0,0,"soraoto.jpg"
Video,0,"heart_no_kakuritsu_x264.avi"
//Break Periods
2,15192,24252
//Storyboard Layer 0 (Background)
//Storyboard Layer 1 (Fail)
//Storyboard Layer 2 (Pass)
//Storyboard Layer 3 (Foreground)
//Storyboard Sound Samples
//Background Colour Transformations
3,100,163,162,255

[TimingPoints]
-294,382.165605095541,4,2,0,75,1,0
88,-133.333333333333,4,2,0,75,0,0
7349,-100,4,2,0,75,0,0
62381,-100,4,2,0,75,0,1
87604,-100,4,2,0,75,0,0

[Colours]
Combo1 : 50,50,50
Combo2 : 0,244,233
Combo3 : 4,4,187
Combo4 : 240,5,5

[HitObjects]
64,96,470,2,0,B|224:96,3,149.999995529652
112,184,3527,2,0,B|264:184,3,149.999995529652
216,288,6584,5,0
416,288,7348,1,4
336,104,8113,1,0
136,104,8877,1,4
208,288,9641,5,0
408,288,10406,1,4
336,104,11170,2,0,B|136:104,1,200.000001192092
256,192,12890,12,4,14992
422,81,25692,5,4
351,151,26457,1,0
280,80,27221,1,0
209,150,27985,1,0
138,79,28750,2,0,B|53:130|63:215|96:304|311:304,1,400.000002384184
400,307,31043,2,0,B|454:295|486:253,2,100.000000596046
318,248,32571,5,0
282,212,32954,1,0
246,176,33336,1,0
280,88,34100,1,0
315,123,34482,1,0
350,158,34864,2,0,B|443:258|392:344|247:342,1,300.000001788138
152,344,36775,5,2
108,261,37540,1,2
82,217,37922,1,4
57,173,38304,1,0
77,127,38686,2,0,B|144:48|256:56,1,200.000001192092
321,139,40215,1,0
356,174,40597,1,0
391,209,40979,1,0
302,294,41743,6,0,B|392:345,2,100.000000596046
211,251,43272,1,0
112,248,44036,1,4
88,199,44419,1,0
71,151,44801,2,0,B|139:74|259:66,1,200.000001192092
346,74,46329,1,0
310,109,46712,1,0
274,144,47094,1,4
178,172,47858,1,0
120,44,48622,6,0,B|29:108|28:245|122:302,1,300.000001788138,0|4
163,317,50151,6,0,B|372:299,1,200.000001192092
400,216,51489,2,0,B|128:240,1,250
96,152,53208,6,0,B|96:49,2,100.000000596046
128,224,54546,2,0,B|226:267|327:222,1,200.000001192092,0|4
240,128,56266,6,0,B|396:87,1,150.000000894069,0|4
306,53,57794,2,0,B|143:97,1,150.000000894069,0|4
37,70,59323,5,0
85,157,60087,1,0
93,206,60469,1,0
118,246,60852,1,0
159,273,61234,1,4
269,172,62380,5,0
291,74,63145,2,0,B|252:38|194:30,2,100.000000596046,8|0|8
390,59,64673,5,8
460,129,65438,1,8
389,199,66202,1,8
459,269,66966,1,8
388,339,67731,6,0,B|274:348|200:263,1,200.000001192092,8|8
115,232,69259,1,8
178,154,70024,1,8
248,82,70788,6,0,B|301:95|335:152,2,100.000000596046,0|0|8
192,165,72317,1,8
227,200,72699,1,0
262,235,73081,1,8
351,189,73845,6,0,B|413:180|431:129,2,100.000000596046,0|0|8
255,217,75374,1,8
159,246,76138,1,8
126,151,76903,6,0,B|88:112|113:56,2,100,0|0|8
176,237,78431,1,8
238,314,79196,1,8
323,261,79960,6,0,B|377:189|280:116|334:60,1,200.000001192092,0|8
417,111,81489,1,8
458,201,82253,1,8
408,287,83017,6,0,B|304:322|209:272,1,200.000001192092,0|8
159,190,84546,5,0
194,154,84928,1,0
229,118,85310,1,4
256,192,86266,12,4,87603
