osu file format v12

[General]
AudioFilename: sora no otoshimono.mp3
AudioLeadIn: 2000
PreviewTime: 61434
Countdown: 0
SampleSet: Soft
StackLeniency: 0.7
Mode: 0
LetterboxInBreaks: 0

[Editor]
DistanceSpacing: 1
BeatDivisor: 4
GridSize: 4

[Metadata]
Title:Heart no Kakuritsu (TV Size)
TitleUnicode:ハートの確率 (TV Size)
Artist:blue drops
ArtistUnicode:blue drops
Creator:Xinely
Version:Normal
Source:Sora no Otoshimono: Forte
Tags:opening
BeatmapID:216223
BeatmapSetID:76865

[Difficulty]
HPDrainRate:4
CircleSize:3
OverallDifficulty:4
ApproachRate:5
SliderMultiplier:1
SliderTickRate:2

[Events]
//Background and Video events
0,0,"BG.jpg",0,0
Video,0,"video.avi"
//Break Periods
//Storyboard Layer 0 (Background)
//Storyboard Layer 1 (Fail)
//Storyboard Layer 2 (Pass)
//Storyboard Layer 3 (Foreground)
//Storyboard Sound Samples
//Background Colour Transformations
3,100,163,162,255

[TimingPoints]
-476,382.165605095541,4,2,2,50,1,0
7167,-100,4,2,2,65,0,1
7262,-100,4,2,2,65,0,0
9842,-100,4,2,1,65,0,0
9938,-100,4,2,2,65,0,0
10606,-100,4,2,1,65,0,0
10702,-100,4,2,2,65,0,0
15957,-100,4,2,1,65,0,0
16052,-100,4,2,2,65,0,0
20543,-100,4,2,1,65,0,0
20638,-100,4,2,2,65,0,0
22836,-100,4,2,1,65,0,0
22931,-100,4,2,2,65,0,0
25893,-100,4,2,2,55,0,0
38887,-100,4,2,1,55,0,0
38982,-100,4,2,2,55,0,0
41944,-100,4,2,1,55,0,0
42039,-100,4,2,2,55,0,0
42708,-100,4,2,1,55,0,0
42804,-100,4,2,2,55,0,0
47294,-100,4,2,1,55,0,0
47390,-100,4,2,2,55,0,0
50352,-100,4,2,1,55,0,0
50447,-100,4,2,2,55,0,0
53409,-100,4,2,1,55,0,0
53504,-100,4,2,2,55,0,0
54173,-100,4,2,1,55,0,0
54269,-100,4,2,2,55,0,0
62199,-100,4,2,2,80,0,1
64874,-100,4,2,1,80,0,1
64969,-100,4,2,2,80,0,1
67740,-100,4,2,1,80,0,1
68027,-100,4,2,2,80,0,1
70988,-100,4,2,1,80,0,1
71084,-100,4,2,2,80,0,1
72517,-100,4,2,1,80,0,1
72613,-100,4,2,2,70,0,1
73664,-100,4,2,2,70,0,0
74428,-100,4,2,2,80,0,1
80160,-100,4,2,1,80,0,1
80256,-100,4,2,2,80,0,1
83218,-100,4,2,1,80,0,1
83313,-100,4,2,2,80,0,1
83982,-100,4,2,1,80,0,1
84078,-100,4,2,2,80,0,1
86275,-100,4,2,1,80,0,1
86466,-100,4,2,2,80,0,1
87422,-100,4,2,2,80,0,0

[Colours]
Combo1 : 255,128,255
Combo2 : 5,240,5
Combo3 : 5,5,240
Combo4 : 128,255,255

[HitObjects]
16,352,288,2,0,B|44:318|104:322|104:322|76:276|100:222,1,200,2|2,0:0|0:0,0:0:0:0:
132,128,1434,2,0,L|176:92,1,50,0|2,0:0|0:0,0:0:0:0:
252,40,2007,1,0,0:0:0:0:
332,96,2389,1,2,0:0:0:0:
388,340,3345,6,0,P|444:316|426:197,1,200,2|2,0:0|0:0,0:0:0:0:
400,100,4491,2,0,L|363:133,1,50,0|2,0:0|0:0,0:0:0:0:
284,72,5065,1,0,0:0:0:0:
196,24,5447,2,0,L|116:84,1,100,2|0,0:0|0:0,0:0:0:0:
40,212,6402,2,0,P|56:272|136:288,1,150,0|0,0:0|0:0,0:0:0:0:
180,268,7166,5,6,0:0:0:0:
264,324,7549,1,8,0:0:0:0:
344,268,7931,1,2,0:0:0:0:
428,324,8313,2,0,B|464:292|464:176|396:136,1,200,8|8,0:0|0:0,0:0:0:0:
324,88,9459,6,0,P|232:56|120:92,2,200,2|2|2,0:0|0:0|0:0,0:0:0:0:
372,176,11370,1,8,0:0:0:0:
340,216,11561,2,2,B|296:264|296:264|200:280,1,150,6|12,0:0|0:0,0:0:0:0:
120,236,12517,1,2,0:0:0:0:
120,188,12708,2,0,L|120:128,2,50,0|8|4,0:0|0:0|0:0,0:0:0:0:
256,192,13281,12,2,14810,0:0:0:0:
352,160,15574,6,0,P|300:80|196:44,1,200,2|6,0:0|0:0,0:0:0:0:
104,36,16721,5,8,0:0:0:0:
48,120,17103,1,2,0:0:0:0:
100,208,17485,2,0,P|152:288|256:332,1,200,8|8,0:0|0:0,0:0:0:0:
344,324,18631,2,0,P|380:300|404:248,1,100,2|8,0:0|0:0,0:0:0:0:
496,216,19396,6,0,P|484:176|444:136,1,100,6|8,0:0|0:0,0:0:0:0:
352,100,20160,2,0,B|280:132|280:132|212:100|156:148,1,200,2|2,0:0|0:0,0:0:0:0:
64,148,21307,2,0,P|80:200|124:232,1,100,8|2,0:0|0:0,0:0:0:0:
152,320,22071,1,8,0:0:0:0:
248,300,22453,6,0,B|312:296|312:296|384:336|436:284,1,200,6|2,0:0|0:0,0:0:0:0:
476,192,23600,1,8,0:0:0:0:
388,140,23982,2,0,P|336:132|272:144,2,100,6|12|2,0:0|0:0|0:0,0:0:0:0:
392,240,25128,2,0,P|364:284|320:304,1,100,8|6,0:0|0:0,0:0:0:0:
272,216,25893,5,8,0:0:0:0:
232,308,26275,2,0,L|176:308,1,50,2|0,0:0|0:0,0:0:0:0:
96,356,26848,2,0,P|80:308|96:256,1,100,2|0,0:0|0:0,0:0:0:0:
28,184,27612,1,2,0:0:0:0:
92,108,27995,1,0,0:0:0:0:
164,40,28377,6,0,B|220:56|220:56|224:96|280:124,1,150,2|2,0:0|0:0,0:0:0:0:
356,184,29332,2,0,L|296:224,1,50,2|0,0:0|0:0,0:0:0:0:
220,244,29905,2,0,P|172:264|116:236,1,100,2|0,0:0|0:0,0:0:0:0:
44,196,30670,1,2,0:0:0:0:
108,120,31052,1,0,0:0:0:0:
192,68,31434,6,0,P|260:40|324:76,1,150,2|2,0:0|0:0,0:0:0:0:
292,172,32389,2,0,L|352:184,1,50,2|0,0:0|0:0,0:0:0:0:
420,120,32963,2,0,P|448:160|448:215,1,100,2|0,0:0|0:0,0:0:0:0:
436,308,33727,2,0,P|384:324|320:304,1,100,2|0,0:0|0:0,0:0:0:0:
252,264,34491,6,0,P|176:280|104:263,1,150,2|2,0:0|0:0,0:0:0:0:
48,184,35447,2,0,P|122:167|158:107,1,150,2|0,0:0|0:0,0:0:0:0:
244,56,36402,2,0,L|244:156,1,100,6|0,0:0|0:0,0:0:0:0:
344,148,37166,2,0,L|404:176,1,50,6|6,0:0|0:0,0:0:0:0:
440,256,37740,5,4,0:0:0:0:
368,324,38122,1,8,0:0:0:0:
268,324,38504,2,0,P|192:340|114:323,1,150,2|0,0:0|0:0,0:0:0:0:
20,300,39459,2,0,P|48:256|104:232,1,100,2|8,0:0|0:0,0:0:0:0:
188,244,40224,1,2,0:0:0:0:
128,160,40606,6,0,B|152:116|212:128|212:128|260:80,1,150,2|8,0:0|0:0,0:0:0:0:
344,120,41561,2,0,B|380:176|448:152|448:152|496:228,2,200,2|2|2,0:0|0:0|0:0,0:0:0:0:
244,108,43472,2,0,B|164:120|164:120|100:84|44:132,1,200,12|8,0:0|0:0,0:0:0:0:
32,224,44619,5,2,0:0:0:0:
124,260,45001,2,0,L|184:288,1,50,8|0,0:0|0:0,0:0:0:0:
252,336,45574,1,2,2:0:0:0:
344,300,45956,2,0,L|460:268,1,100,2|0,0:0|0:0,0:0:0:0:
424,176,46721,6,0,B|372:84|252:84|200:132,1,250,2|2,0:0|0:0,0:0:0:0:
124,72,48058,1,8,0:0:0:0:
36,124,48440,2,0,L|120:204,1,100,6|8,0:0|0:0,0:0:0:0:
152,216,49014,2,0,P|200:176|248:92,1,150,6|8,0:0|0:0,0:0:0:0:
344,80,49969,6,0,P|416:112|472:224,1,200,6|2,0:0|0:0,0:0:0:0:
460,264,50924,1,0,0:0:0:0:
364,292,51307,2,0,P|292:316|204:332,1,150,6|8,0:0|0:0,0:0:0:0:
120,344,52262,2,0,L|48:244,1,100,2|8,0:0|0:0,0:0:0:0:
56,164,53026,6,0,P|148:96|224:116,2,200,6|2|2,0:0|0:0|0:0,0:0:0:0:
116,244,54937,2,0,L|220:244,1,100,8|2,0:0|0:0,0:0:0:0:
316,240,55702,1,8,0:0:0:0:
348,144,56084,6,0,P|348:68|289:66,1,150,6|4,0:0|0:0,0:0:0:0:
200,112,57039,2,2,L|152:148,1,50
72,188,57612,2,0,P|72:264|132:264,1,150,6|4,0:0|0:0,0:0:0:0:
228,244,58568,2,2,L|276:224,1,50
268,124,59141,6,0,B|240:88|200:104|164:68,2,100,6|8|2,0:0|0:0|0:0,0:0:0:0:
348,60,60287,2,0,L|372:116,1,50,8|4,0:0|0:0,0:0:0:0:
451,161,60861,2,0,P|459:193|459:229,1,50,6|6,0:0|0:0,0:0:0:0:
400,290,61434,1,2,0:0:0:0:
304,316,61816,2,0,L|208:260,1,100,0|4,0:0|0:0,0:0:0:0:
128,220,62580,6,0,P|80:148|132:48,2,200,8|8|8,0:0|0:0|0:0,0:0:0:0:
180,136,64491,2,0,P|236:76|348:80,1,200,2|2,0:0|0:0,0:0:0:0:
364,180,65638,6,0,L|324:232,1,50,8|0,0:0|0:0,0:0:0:0:
272,300,66211,1,2,0:0:0:0:
180,264,66593,1,2,0:0:0:0:
88,224,66975,1,0,0:0:0:0:
32,84,67549,2,0,B|96:48|96:48|148:88|228:60,1,200,2|6,0:0|0:0,0:0:0:0:
316,68,68695,5,8,0:0:0:0:
416,72,69077,2,0,P|464:96|496:144,1,100,2|8,0:0|0:0,0:0:0:0:
492,232,69842,2,0,P|448:268|384:280,1,100,2|8,0:0|0:0,0:0:0:0:
312,308,70606,2,0,P|208:280|112:312,1,200,2|2,0:0|0:0,0:0:0:0:
64,224,71752,5,8,0:0:0:0:
108,136,72135,2,0,P|193:161|300:132,1,200,2|2,0:0|0:0,0:0:0:0:
328,228,73281,1,8,0:0:0:0:
308,328,73663,2,0,P|248:344|204:308,1,100,2|8,0:0|0:0,0:0:0:0:
124,292,74428,5,4,0:0:0:0:
68,212,74810,2,0,L|88:160,1,50,8|0,0:0|0:0,0:0:0:0:
156,96,75383,1,2,0:0:0:0:
252,64,75765,1,8,0:0:0:0:
352,44,76147,2,0,L|352:108,1,50,2|8,0:0|0:0,0:0:0:0:
332,192,76721,2,0,B|284:204|284:204|220:192,1,100,2|8,0:0|0:0,0:0:0:0:
144,240,77485,5,2,0:0:0:0:
52,196,77867,2,0,L|68:136,1,50,8|0,0:0|0:0,0:0:0:0:
140,80,78440,2,2,P|192:68|248:80,2,100
124,128,79396,1,8,0:0:0:0:
108,228,79778,2,0,B|74:267|89:311|128:334|167:319,1,150,2|0,0:0|0:0,0:0:0:0:
212,304,80542,5,6,0:0:0:0:
312,304,80924,2,0,P|332:256|388:216,1,100,8|2,0:0|0:0,0:0:0:0:
452,280,81689,2,0,P|468:236|444:172,1,100,8|2,0:0|0:0,0:0:0:0:
384,112,82453,1,8,0:0:0:0:
288,80,82835,6,0,B|172:48|128:160,2,200,2|2|2,0:0|0:0|0:0,0:0:0:0:
360,148,84746,2,0,P|404:236|328:252,1,200,8|8,0:0|0:0,0:0:0:0:
252,320,85893,6,0,P|184:320|152:236,1,150,2|4,0:0|0:0,0:0:0:0:
156,152,86848,2,0,L|96:152,1,50,0|8,0:0|0:0,0:0:0:0:
56,148,87230,2,0,L|56:88,1,50,0|6,0:0|0:0,0:0:0:0:
