osu file format v12

[General]
AudioFilename: sora no otoshimono.mp3
AudioLeadIn: 2000
PreviewTime: 61434
Countdown: 0
SampleSet: Soft
StackLeniency: 0.7
Mode: 0
LetterboxInBreaks: 0

[Editor]
DistanceSpacing: 1.1
BeatDivisor: 4
GridSize: 4

[Metadata]
Title:Heart no Kakuritsu (TV Size)
TitleUnicode:ハートの確率 (TV Size)
Artist:blue drops
ArtistUnicode:blue drops
Creator:Xinely
Version:Hard
Source:Sora no Otoshimono: Forte
Tags:opening
BeatmapID:216222
BeatmapSetID:76865

[Difficulty]
HPDrainRate:5
CircleSize:4
OverallDifficulty:6
ApproachRate:7
SliderMultiplier:1.4
SliderTickRate:2

[Events]
//Background and Video events
0,0,"BG.jpg",0,0
Video,0,"video.avi"
//Break Periods
//Storyboard Layer 0 (Background)
//Storyboard Layer 1 (Fail)
//Storyboard Layer 2 (Pass)
//Storyboard Layer 3 (Foreground)
//Storyboard Sound Samples
//Background Colour Transformations
3,100,163,162,255

[TimingPoints]
-476,382.165605095541,4,2,2,50,1,0
288,-133.333333333333,4,2,2,50,0,0
7167,-100,4,2,2,55,0,1
7262,-100,4,2,2,55,0,0
15192,-100,4,2,2,60,0,0
19014,-100,4,2,1,60,0,0
19109,-100,4,2,2,60,0,0
19778,-100,4,2,1,60,0,0
19874,-100,4,2,2,60,0,0
25893,-100,4,2,2,55,0,0
48823,-100,4,2,1,55,0,0
48918,-100,4,2,2,55,0,0
53409,-100,4,2,1,55,0,0
53504,-100,4,2,2,55,0,0
62199,-100,4,2,2,70,0,1
63345,-100,4,2,1,70,0,1
63441,-100,4,2,2,70,0,1
67167,-100,4,2,1,70,0,1
67262,-100,4,2,2,70,0,1
69460,-100,4,2,1,70,0,1
69555,-100,4,2,2,70,0,1
73664,-100,4,2,2,70,0,0
74428,-100,4,2,2,70,0,1
75574,-100,4,2,1,70,0,1
75670,-100,4,2,2,70,0,1
78632,-100,4,2,1,70,0,1
78727,-100,4,2,2,70,0,1
80160,-100,4,2,1,70,0,1
80256,-100,4,2,2,70,0,1
87422,-100,4,2,2,70,0,0

[Colours]
Combo1 : 255,128,255
Combo2 : 5,240,5
Combo3 : 5,5,240
Combo4 : 128,255,255

[HitObjects]
40,48,288,6,0,B|112:48|112:48|192:112,1,157.500006008148,2|0,0:0|0:0,0:0:0:0:
224,140,1052,1,2,0:0:0:0:
336,172,1434,2,0,L|280:220,1,52.5000020027161,0|2,0:0|0:0,0:0:0:0:
260,316,2007,2,0,P|208:296|168:252,1,105,0|0,0:0|0:0,0:0:0:0:
212,220,2580,2,0,P|241:248|312:272,1,105.000004005432,2|0,0:0|0:0,0:0:0:0:
412,308,3345,2,0,B|464:280|464:280|488:248|456:196|416:232,1,157.500006008148,2|0,0:0|0:0,0:0:0:0:
365,226,4109,5,2,0:0:0:0:
368,112,4491,2,0,L|296:84,1,52.5000020027161,0|2,0:0|0:0,0:0:0:0:
204,72,5065,5,2,0:0:0:0:
164,104,5447,1,2,0:0:0:0:
120,136,5829,1,0,0:0:0:0:
52,296,6402,6,0,P|100:312|168:304,1,105.000004005432,2|0,0:0|0:0,0:0:0:0:
208,296,6975,2,0,L|264:264,1,52.5000020027161,0|4,0:0|0:0,0:0:0:0:
292,124,7549,2,0,B|232:116|232:116|200:84|136:100,2,140,8|2|8,0:0|0:0|0:0,0:0:0:0:
368,128,8504,1,0,0:0:0:0:
368,204,8695,2,0,P|392:272|368:344,1,140,2|8,0:0|0:0,0:0:0:0:
220,316,9459,2,0,L|88:244,1,140,2|8,0:0|0:0,0:0:0:0:
48,188,10033,1,0,0:0:0:0:
104,136,10224,6,0,L|240:84,1,140,2|8,0:0|0:0,0:0:0:0:
388,72,10988,2,0,L|464:136,1,70,2|0,0:0|0:0,0:0:0:0:
486,178,11370,1,8,0:0:0:0:
433,233,11561,2,2,P|401:285|233:197,1,280,6|0,0:0|0:0,0:0:0:0:
284,164,12517,2,0,P|304:132|300:96,1,70,2|0,0:0|0:0,0:0:0:0:
248,48,12899,1,0,0:0:0:0:
248,48,13090,1,4,0:0:0:0:
256,192,13281,12,2,14810,0:0:0:0:
211,101,15192,6,0,P|160:80|80:96,2,140,8|2|8,0:0|0:0|0:0,0:0:0:0:
268,156,16147,1,0,0:0:0:0:
212,208,16338,6,0,P|260:248|364:256,1,140,6|8,0:0|0:0,0:0:0:0:
488,284,17103,1,2,0:0:0:0:
488,208,17294,2,0,P|500:168|488:132,1,70,0|8,0:0|0:0,0:0:0:0:
460,72,17676,2,0,P|428:56|376:60,1,70,0|2,0:0|0:0,0:0:0:0:
244,24,18249,1,8,0:0:0:0:
196,172,18631,2,0,B|132:168|84:188|44:212|20:272,1,210,2|0,0:0|0:0,0:0:0:0:
60,332,19396,6,0,B|124:336|172:316|212:292|233:238,1,210,6|0,0:0|0:0,0:0:0:0:
284,180,20160,1,2,0:0:0:0:
284,181,20351,2,0,P|276:141|288:89,2,70,0|8|0,0:0|0:0|0:0,0:0:0:0:
332,240,20924,2,0,P|284:296|208:324,1,140,2|8,0:0|0:0,0:0:0:0:
152,292,21498,1,0,0:0:0:0:
80,260,21689,2,0,P|16:244|52:172,1,140,2|8,0:0|0:0,0:0:0:0:
40,108,22262,1,0,0:0:0:0:
56,32,22453,6,0,B|112:64|144:12|208:60,1,140,6|8,0:0|0:0,0:0:0:0:
344,72,23217,2,0,B|368:112|368:112|396:112|440:136,2,105,2|8|0,0:0|0:0|0:0,0:0:0:0:
276,36,23982,2,0,P|236:40|192:60,1,70,6|0,0:0|0:0,0:0:0:0:
196,128,24364,2,0,L|196:204,1,70,12|0,0:0|0:0,0:0:0:0:
348,188,24937,2,0,B|408:180|448:240|436:312|372:336,1,210,2|6,0:0|0:0,0:0:0:0:
228,300,25893,6,0,L|144:260,1,70,8|0,0:0|0:0,0:0:0:0:
92,244,26275,2,0,L|112:156,1,70,2|0,0:0|0:0,0:0:0:0:
52,32,26848,1,2,0:0:0:0:
232,40,27230,1,0,0:0:0:0:
232,220,27612,1,2,0:0:0:0:
384,124,27995,1,0,0:0:0:0:
420,272,28377,2,0,P|344:312|224:292,1,210,2|8,0:0|0:0,0:0:0:0:
76,256,29332,6,0,L|168:212,1,70,2|0,0:0|0:0,0:0:0:0:
48,104,29905,2,0,P|120:100|184:148,1,140,2|0,0:0|0:0,0:0:0:0:
236,88,30479,1,0,0:0:0:0:
288,32,30670,2,0,B|340:24|384:76|344:136,1,140,2|0,0:0|0:0,0:0:0:0:
408,176,31243,1,0,0:0:0:0:
456,236,31434,6,0,B|376:284|312:192|232:276,1,210,2|8,0:0|0:0,0:0:0:0:
160,136,32389,2,0,L|84:172,1,70,2|0,0:0|0:0,0:0:0:0:
20,296,32963,2,0,P|76:316|160:304,1,140,2|0,0:0|0:0,0:0:0:0:
232,308,33536,1,0,0:0:0:0:
308,312,33727,2,0,P|368:276|408:192,1,140,2|0,0:0|0:0,0:0:0:0:
404,64,34491,6,0,B|344:92|288:52|288:52|184:92,1,210,2|8,0:0|0:0,0:0:0:0:
64,140,35447,2,0,P|100:136|156:156,1,70,2|0,0:0|0:0,0:0:0:0:
188,196,35829,1,8,0:0:0:0:
240,252,36020,2,0,B|276:272|308:256|308:256|344:272|384:252,2,140,2|4|0,0:0|0:0|0:0,0:0:0:0:
176,112,37166,2,0,L|240:140,1,70,6|6,0:0|0:0,0:0:0:0:
388,96,37740,5,4,0:0:0:0:
464,232,38122,2,0,P|432:252|388:264,1,70,8|0,0:0|0:0,0:0:0:0:
324,272,38504,2,0,P|292:264|248:272,1,70,2|0,0:0|0:0,0:0:0:0:
180,292,38887,1,8,0:0:0:0:
104,276,39077,5,2,0:0:0:0:
32,140,39459,1,0,0:0:0:0:
176,88,39842,1,2,0:0:0:0:
248,224,40224,1,0,0:0:0:0:
316,88,40606,6,0,P|384:64|432:120,1,140,2|0,0:0|0:0,0:0:0:0:
448,180,41179,2,0,L|384:228,1,70,8|0,0:0|0:0,0:0:0:0:
328,268,41561,2,0,P|256:256|164:288,1,140,2|8,0:0|0:0,0:0:0:0:
116,276,42135,1,0,0:0:0:0:
20,156,42517,2,0,L|168:156,1,140,2|0,0:0|0:0,0:0:0:0:
236,136,43090,1,0,0:0:0:0:
300,96,43281,2,0,P|372:120|360:188,1,140,2|0,0:0|0:0,0:0:0:0:
348,248,43854,5,4,0:0:0:0:
192,252,44237,2,0,P|120:280|48:272,2,140,8|2|8,0:0|0:0|0:0,0:0:0:0:
264,228,45192,1,0,0:0:0:0:
340,232,45383,2,0,L|416:232,1,70,2|0,0:0|0:0,0:0:0:0:
484,208,45765,1,8,0:0:0:0:
509,134,45956,2,0,P|436:144|379:79,1,140,2|0,0:0|0:0,0:0:0:0:
316,72,46530,1,8,0:0:0:0:
324,148,46721,6,0,L|446:69,1,140,2|2,0:0|0:0,0:0:0:0:
442,73,47294,2,0,P|462:100|494:116,2,70,8|0|2,0:0|0:0|0:0,0:0:0:0:
380,28,47867,1,0,0:0:0:0:
364,104,48059,1,8,0:0:0:0:
380,180,48249,2,0,L|310:180,1,70,0|6,0:0|0:0,0:0:0:0:
264,116,48631,2,0,P|232:176|268:248,1,140,0|4,0:0|0:0,0:0:0:0:
328,272,49205,1,2,0:0:0:0:
328,272,49396,2,0,L|260:348,1,70,0|8,0:0|0:0,0:0:0:0:
132,348,49969,6,0,L|20:262,1,140,6|8,0:0|0:0,0:0:0:0:
16,188,50542,1,0,0:0:0:0:
52,120,50733,1,8,0:0:0:0:
124,88,50925,2,0,L|191:67,1,70,2|0,0:0|0:0,0:0:0:0:
268,52,51307,2,0,L|320:100,1,70,4|2,0:0|0:0,0:0:0:0:
372,156,51689,1,0,0:0:0:0:
424,212,51880,2,0,P|448:272|400:332,2,140,8|2|8,0:0|0:0|0:0,0:0:0:0:
288,288,53026,6,0,P|208:336|96:284,1,210,6|0,0:0|0:0,0:0:0:0:
64,232,53791,2,0,L|16:164,1,70,2|0,0:0|0:0,0:0:0:0:
48,100,54173,1,8,0:0:0:0:
120,124,54364,1,4,0:0:0:0:
192,152,54555,2,0,L|276:188,1,70,2|0,0:0|0:0,0:0:0:0:
332,200,54937,2,0,P|388:164|476:184,2,140,8|2|8,0:0|0:0|0:0,0:0:0:0:
296,268,55893,6,0,L|224:232,1,70,0|4,0:0|0:0,0:0:0:0:
168,200,56275,1,0,0:0:0:0:
168,200,56466,2,0,L|104:248,1,70,0|4,0:0|0:0,0:0:0:0:
240,328,57039,2,2,L|320:328,1,70
444,252,57612,1,6,0:0:0:0:
444,252,57803,2,0,L|352:252,1,70,0|8,0:0|0:0,0:0:0:0:
296,256,58186,1,4,0:0:0:0:
144,252,58568,2,2,P|104:244|80:224,1,70
52,72,59141,6,0,P|120:72|204:104,1,140,6|8,0:0|0:0,0:0:0:0:
264,80,59714,1,0,0:0:0:0:
340,76,59905,2,0,L|404:144,1,70,2|0,0:0|0:0,0:0:0:0:
440,184,60287,2,0,L|368:240,1,70,8|4,0:0|0:0,0:0:0:0:
240,280,60861,1,4,0:0:0:0:
164,260,61052,1,4,0:0:0:0:
44,164,61434,2,0,P|96:128|176:108,1,140,2|0,0:0|0:0,0:0:0:0:
224,52,62007,2,0,L|304:88,1,70,0|4,0:0|0:0,0:0:0:0:
440,96,62580,5,8,0:0:0:0:
448,172,62772,2,0,P|408:232|332:252,2,140,2|0|0,0:0|0:0|0:0,0:0:0:0:
380,136,63727,1,2,0:0:0:0:
312,104,63918,2,0,L|252:144,1,70,0|8,0:0|0:0,0:0:0:0:
336,272,64491,2,0,L|405:260,2,70,2|0|8,0:0|0:0|0:0,0:0:0:0:
260,284,65065,2,0,P|228:260|172:256,1,70,0|2,0:0|0:0,0:0:0:0:
48,288,65638,6,0,L|48:208,1,70,8|0,0:0|0:0,0:0:0:0:
48,140,66020,1,2,0:0:0:0:
100,84,66211,2,0,L|172:104,1,70,0|8,0:0|0:0,0:0:0:0:
312,88,66593,2,0,L|240:104,1,70,0|2,0:0|0:0,0:0:0:0:
204,168,66975,2,0,P|196:228|108:236,1,140,0|0,0:0|0:0,0:0:0:0:
60,212,67549,2,0,P|28:184|24:136,1,70,2|8,0:0|0:0,0:0:0:0:
32,84,67931,1,8,0:0:0:0:
108,100,68122,1,0,0:0:0:0:
184,84,68313,6,0,B|232:56|232:56|340:76,1,140,6|8,0:0|0:0,0:0:0:0:
384,104,68886,2,0,P|452:152|456:224,2,140,2|2|0,0:0|0:0|0:0,0:0:0:0:
320,148,69842,1,2,0:0:0:0:
256,192,70033,2,0,L|168:244,1,70,0|8,0:0|0:0,0:0:0:0:
56,160,70606,2,0,P|104:112|180:76,1,140,2|8,0:0|0:0,0:0:0:0:
244,76,71179,1,0,0:0:0:0:
320,76,71370,6,0,P|383:108|431:156,1,140,2|8,0:0|0:0,0:0:0:0:
452,232,71944,1,0,0:0:0:0:
396,284,72135,1,2,0:0:0:0:
320,292,72326,2,0,L|240:272,1,70,0|8,0:0|0:0,0:0:0:0:
176,264,72708,2,2,P|72:272|68:172,1,210,4|8,0:0|0:0,0:0:0:0:
100,40,73663,2,0,P|140:44|184:84,1,70,2|0,0:0|0:0,0:0:0:0:
116,116,74045,2,0,P|128:148|180:180,1,70,8|0,0:0|0:0,0:0:0:0:
224,136,74428,5,4,0:0:0:0:
368,84,74810,2,0,L|440:132,1,70,8|0,0:0|0:0,0:0:0:0:
456,192,75192,1,2,0:0:0:0:
428,264,75383,2,0,P|364:308|296:308,1,140,0|2,0:0|0:0,0:0:0:0:
228,300,75956,1,0,0:0:0:0:
160,268,76147,2,0,L|96:216,1,70,0|8,0:0|0:0,0:0:0:0:
40,64,76721,2,0,P|76:104|116:108,1,70,2|0,0:0|0:0,0:0:0:0:
128,40,77103,2,0,P|164:40|208:60,1,70,8|0,0:0|0:0,0:0:0:0:
264,88,77485,5,6,0:0:0:0:
416,88,77867,2,0,L|352:148,1,70,8|0,0:0|0:0,0:0:0:0:
308,188,78249,1,2,0:0:0:0:
300,264,78440,2,0,P|216:288|160:252,1,140
100,236,79014,1,2,0:0:0:0:
24,244,79205,2,0,P|8:200|6:177,1,70,0|8,0:0|0:0,0:0:0:0:
80,40,79778,2,0,P|94:148|166:132,1,210,2|0,0:0|0:0,0:0:0:0:
232,88,80542,5,4,0:0:0:0:
384,120,80924,2,0,B|417:121|449:105|449:105|461:133|501:153,2,140,8|2|8,0:0|0:0|0:0,0:0:0:0:
308,128,81879,1,0,0:0:0:0:
232,144,82070,2,0,P|164:168|92:144,1,140,2|8,0:0|0:0,0:0:0:0:
220,316,82835,2,0,P|172:264|80:260,1,140,2|8,0:0|0:0,0:0:0:0:
36,220,83409,1,0,0:0:0:0:
28,144,83600,6,0,P|84:108|160:112,1,140,2|8,0:0|0:0,0:0:0:0:
300,56,84364,2,0,L|376:120,1,70,2|0,0:0|0:0,0:0:0:0:
404,160,84746,1,8,0:0:0:0:
412,236,84937,2,2,P|380:288|212:200,1,280,6|0,0:0|0:0,0:0:0:0:
212,148,85893,6,0,P|244:140|284:104,2,70,2|0|8,0:0|0:0|0:0,0:0:0:0:
144,112,86466,2,0,P|108:124|76:176,1,70,4|0,0:0|0:0,0:0:0:0:
152,188,86848,2,0,P|120:220|112:242,1,70,0|12,0:0|0:0,0:0:0:0:
188,252,87230,2,0,P|186:288|226:336,1,70,0|4,0:0|0:0,0:0:0:0:
