osu file format v12

[General]
AudioFilename: sora no otoshimono.mp3
AudioLeadIn: 2000
PreviewTime: 61434
Countdown: 0
SampleSet: Soft
StackLeniency: 0.7
Mode: 0
LetterboxInBreaks: 0

[Editor]
DistanceSpacing: 0.9
BeatDivisor: 4
GridSize: 4

[Metadata]
Title:Heart no Kakuritsu (TV Size)
TitleUnicode:ハートの確率 (TV Size)
Artist:blue drops
ArtistUnicode:blue drops
Creator:Xinely
Version:Easy
Source:Sora no Otoshimono: Forte
Tags:opening
BeatmapID:216221
BeatmapSetID:76865

[Difficulty]
HPDrainRate:2
CircleSize:3
OverallDifficulty:2
ApproachRate:3
SliderMultiplier:0.7
SliderTickRate:2

[Events]
//Background and Video events
0,0,"BG.jpg",0,0
Video,0,"video.avi"
//Break Periods
//Storyboard Layer 0 (Background)
//Storyboard Layer 1 (Fail)
//Storyboard Layer 2 (Pass)
//Storyboard Layer 3 (Foreground)
//Storyboard Sound Samples
//Background Colour Transformations
3,100,163,162,255

[TimingPoints]
-476,382.165605095541,4,2,2,50,1,0
7167,-100,4,2,1,65,0,1
7262,-100,4,2,2,65,0,0
9842,-100,4,2,1,65,0,0
9938,-100,4,2,2,65,0,0
10606,-100,4,2,1,65,0,0
10702,-100,4,2,2,65,0,0
15957,-100,4,2,1,65,0,0
16052,-100,4,2,2,65,0,0
18250,-100,4,2,1,65,0,0
18345,-100,4,2,2,65,0,0
20543,-100,4,2,1,65,0,0
20638,-100,4,2,2,65,0,0
22071,-100,4,2,1,65,0,0
22167,-100,4,2,2,65,0,0
23600,-100,4,2,1,65,0,0
23695,-100,4,2,2,65,0,0
24364,-100,4,2,1,65,0,0
24460,-100,4,2,2,65,0,0
25893,-100,4,2,2,55,0,0
41180,-100,4,2,1,55,0,0
41275,-100,4,2,2,55,0,0
41944,-100,4,2,1,55,0,0
42039,-100,4,2,2,55,0,0
43473,-100,4,2,1,55,0,0
43568,-100,4,2,2,55,0,0
50352,-100,4,2,1,55,0,0
50447,-100,4,2,2,55,0,0
51880,-100,4,2,1,55,0,0
51976,-100,4,2,2,55,0,0
53409,-100,4,2,1,55,0,0
53504,-100,4,2,2,55,0,0
54938,-100,4,2,1,55,0,0
55033,-100,4,2,2,55,0,0
60670,-100,4,2,1,55,0,0
60766,-100,4,2,2,55,0,0
62199,-100,4,2,2,80,0,1
65638,-100,4,2,1,80,0,1
65734,-100,4,2,2,80,0,1
67740,-100,4,2,1,80,0,1
68027,-100,4,2,2,80,0,1
70988,-100,4,2,1,80,0,1
71084,-100,4,2,2,80,0,1
71753,-100,4,2,1,80,0,1
71848,-100,4,2,2,80,0,1
73281,-100,4,2,1,80,0,1
73377,-100,4,2,2,70,0,1
73664,-100,4,2,2,70,0,0
74428,-100,4,2,2,80,0,1
74810,-100,4,2,1,80,0,1
74906,-100,4,2,2,80,0,1
77103,-100,4,2,1,80,0,1
77199,-100,4,2,2,80,0,1
80160,-100,4,2,1,80,0,1
80256,-100,4,2,2,80,0,1
81689,-100,4,2,1,80,0,1
81785,-100,4,2,2,80,0,1
83218,-100,4,2,1,80,0,1
83313,-100,4,2,2,80,0,1
87422,-100,4,2,2,80,0,0

[Colours]
Combo1 : 255,128,255
Combo2 : 5,240,5
Combo3 : 5,5,240
Combo4 : 128,255,255

[HitObjects]
176,84,288,2,0,B|136:120|128:172|164:224,1,140,2|2,0:0|0:0,0:0:0:0:
236,308,1816,2,0,B|276:272|284:220|256:156,1,140,8|2,0:0|0:0,0:0:0:0:
176,84,3345,6,0,P|240:48|312:56,1,140,8|2,0:0|0:0,0:0:0:0:
364,68,4491,1,0,0:0:0:0:
412,108,4873,2,0,P|438:178|418:242,1,140,8|2,0:0|0:0,0:0:0:0:
296,224,6402,6,0,P|320:156|288:100,1,140,2|6,0:0|0:0,0:0:0:0:
224,100,7549,1,8,0:0:0:0:
160,104,7931,2,0,P|136:172|168:228,1,140,2|8,0:0|0:0,0:0:0:0:
112,340,9459,6,0,P|176:344|260:336,2,140,2|2|2,0:0|0:0|0:0,0:0:0:0:
116,276,11370,2,0,P|144:216|211:162,1,140,8|8,0:0|0:0,0:0:0:0:
284,124,12708,2,0,L|320:112,2,35,0|0|4,0:0|0:0|0:0,0:0:0:0:
256,192,13281,12,2,14810,0:0:0:0:
72,292,15574,6,0,P|48:208|100:160,1,140,2|6,0:0|0:0,0:0:0:0:
180,100,17103,6,0,L|268:100,1,70,2|8,0:0|0:0,0:0:0:0:
312,100,17867,2,0,P|344:160|320:228,1,140,2|2,0:0|0:0,0:0:0:0:
224,308,19396,5,6,0:0:0:0:
100,308,20160,2,0,P|56:260|100:116,1,210,2|8,0:0|0:0,0:0:0:0:
128,84,21689,2,0,P|208:56|260:100,1,140,2|6,0:0|0:0,0:0:0:0:
292,200,23217,6,0,B|212:200|184:280,2,140,2|6|2,0:0|0:0|0:0,0:0:0:0:
416,212,25510,5,4,0:0:0:0:
416,148,25893,2,0,P|372:120|300:108,1,105,8|2,0:0|0:0,0:0:0:0:
260,108,26848,2,0,L|108:156,1,140,2|2,0:0|0:0,0:0:0:0:
72,184,27995,1,0,0:0:0:0:
72,248,28377,6,0,P|148:296|248:296,1,175,2|2,0:0|0:0,0:0:0:0:
324,316,29905,2,0,P|376:276|456:292,2,140,2|2|2,0:0|0:0|0:0,0:0:0:0:
272,236,32007,6,0,P|304:192|364:168,1,105,0|2,0:0|0:0,0:0:0:0:
392,124,32963,2,0,P|336:80|260:88,1,140,2|2,0:0|0:0,0:0:0:0:
212,108,34109,1,0,0:0:0:0:
152,132,34491,6,0,P|88:204|152:284,1,210,2|2,0:0|0:0,0:0:0:0:
204,308,36020,2,0,L|276:336,2,70,0|4|0,0:0|0:0|0:0,0:0:0:0:
200,244,37166,2,0,L|292:176,1,105,4|4,0:0|0:0,0:0:0:0:
336,144,38122,5,2,0:0:0:0:
240,60,38886,1,8,0:0:0:0:
120,112,39651,2,0,B|84:152|80:212,1,105,2|2,0:0|0:0,0:0:0:0:
96,268,40606,6,0,P|124:312|264:320,2,175,2|0|2,0:0|0:0|0:0,0:0:0:0:
104,204,42899,2,0,P|180:160|256:220,1,175,2|4,0:0|0:0,0:0:0:0:
256,264,44237,5,2,0:0:0:0:
372,208,45001,1,8,0:0:0:0:
476,140,45765,2,0,P|456:92|400:56,1,105,8|2,0:0|0:0,0:0:0:0:
352,68,46721,6,0,L|248:116,1,105,2|8,0:0|0:0,0:0:0:0:
200,140,47676,1,2,0:0:0:0:
248,256,48440,2,0,L|360:228,1,105,4|4,0:0|0:0,0:0:0:0:
416,92,49969,6,0,P|328:124|192:116,1,210,6|8,0:0|0:0,0:0:0:0:
144,120,51498,2,0,P|76:128|32:188,1,140,2|2,0:0|0:0,0:0:0:0:
84,296,53026,6,0,P|199:298|256:276,1,175,6|8,0:0|0:0,0:0:0:0:
316,260,54364,2,0,P|360:312|464:280,1,175,2|2,0:0|0:0,0:0:0:0:
472,168,56084,6,0,L|384:64,1,105,4|4,0:0|0:0,0:0:0:0:
316,220,57612,2,0,L|383:300,1,105,4|4,0:0|0:0,0:0:0:0:
228,308,59141,6,0,L|164:336,1,70,4|8,0:0|0:0,0:0:0:0:
104,320,59905,1,2,0:0:0:0:
28,264,60479,2,0,P|26:223|68:176,1,105,8|4,0:0|0:0,0:0:0:0:
124,200,61434,2,0,P|152:220|188:216,1,70,2|0,0:0|0:0,0:0:0:0:
248,212,62198,5,6,0:0:0:0:
312,208,62580,2,0,P|380:164|396:88,2,140,8|8|8,0:0|0:0|0:0,0:0:0:0:
272,160,64491,1,2,0:0:0:0:
252,100,64873,1,8,0:0:0:0:
224,44,65256,6,0,P|164:48|120:76,1,105,2|0,0:0|0:0,0:0:0:0:
112,132,66211,2,0,L|92:208,2,70,2|2|8,0:0|0:0|0:0,0:0:0:0:
208,128,67549,2,0,P|260:84|336:72,1,140,2|4,0:0|0:0,0:0:0:0:
384,100,68695,5,8,0:0:0:0:
436,136,69077,2,0,L|400:204,1,70,2|8,0:0|0:0,0:0:0:0:
372,252,69842,1,2,0:0:0:0:
256,300,70606,6,0,P|180:328|124:268,2,140,2|2|2,0:0|0:0|0:0,0:0:0:0:
296,252,72517,1,8,0:0:0:0:
336,204,72899,2,0,P|400:148|384:88,1,140,0|2,0:0|0:0,0:0:0:0:
332,84,74045,1,0,0:0:0:0:
272,96,74428,6,0,P|192:64|92:76,1,175,6|0,0:0|0:0,0:0:0:0:
44,76,75765,1,2,0:0:0:0:
132,208,76721,2,0,P|96:264|136:324,1,140,2|6,0:0|0:0,0:0:0:0:
192,328,77867,6,0,P|240:340|296:320,1,105,8|2,0:0|0:0,0:0:0:0:
340,284,78823,2,2,P|376:264|396:236,1,70
464,180,79778,2,0,P|428:156|320:128,1,140,2|4,0:0|0:0,0:0:0:0:
272,124,80924,5,8,0:0:0:0:
208,128,81307,2,0,P|115:155|79:179,1,140,2|2,0:0|0:0,0:0:0:0:
188,244,82835,2,0,P|248:264|324:244,1,140,2|2,0:0|0:0,0:0:0:0:
320,120,84364,2,0,P|372:112|412:64,2,105,2|4|4,0:0|0:0|0:0,0:0:0:0:
256,192,86084,12,4,87422,0:0:0:0:
