osu file format v12

[General]
AudioFilename: Heart no Kakuritsu.mp3
AudioLeadIn: 1000
PreviewTime: 61521
Countdown: 0
SampleSet: Soft
StackLeniency: 0.7
Mode: 0
LetterboxInBreaks: 1
WidescreenStoryboard: 0

[Editor]
DistanceSpacing: 1
BeatDivisor: 4
GridSize: 4

[Metadata]
Title:Heart no Kakuritsu (TV Size)
TitleUnicode:Heart no Kakuritsu (TV Size)
Artist:blue drops
ArtistUnicode:blue drops
Creator:LaceWingfield
Version:Insane
Source:Sora no Otoshimono: Forte
Tags:Naryuga Cilvery opening
BeatmapID:288739
BeatmapSetID:50396

[Difficulty]
HPDrainRate:8
CircleSize:4
OverallDifficulty:7
ApproachRate:8
SliderMultiplier:1.8
SliderTickRate:2

[Events]
//Background and Video events
Video,0,"Video.avi"
0,0,"sora no otoshimono forte.jpg",0,0
//Break Periods
//Storyboard Layer 0 (Background)
//Storyboard Layer 1 (Fail)
//Storyboard Layer 2 (Pass)
//Storyboard Layer 3 (Foreground)
//Storyboard Sound Samples
//Background Colour Transformations
3,100,163,162,255

[TimingPoints]
-294,382.165605095541,4,2,0,75,1,0
470,-133.333333333333,4,2,0,75,0,0
6393,-111.111111111111,4,2,2,75,0,0
7349,-111.111111111111,4,2,2,85,0,0
25693,-111.111111111111,4,2,1,75,0,0
26170,-111.111111111111,4,2,2,75,0,0
26362,-111.111111111111,4,2,1,75,0,0
27317,-111.111111111111,4,2,2,75,0,0
27508,-111.111111111111,4,2,1,75,0,0
27890,-111.111111111111,4,2,2,75,0,0
28081,-111.111111111111,4,2,1,75,0,0
28846,-111.111111111111,4,2,2,75,0,0
29037,-111.111111111111,4,2,1,75,0,0
31330,-111.111111111111,4,2,2,75,0,0
31521,-111.111111111111,4,2,1,75,0,0
33241,-111.111111111111,4,2,2,75,0,0
33432,-111.111111111111,4,2,1,75,0,0
34005,-111.111111111111,4,2,2,75,0,0
34196,-111.111111111111,4,2,1,75,0,0
35342,-111.111111111111,4,2,2,75,0,0
35534,-111.111111111111,4,2,1,75,0,0
36107,-111.111111111111,4,2,2,75,0,0
36298,-111.111111111111,4,2,1,75,0,0
38304,-111.111111111111,4,2,2,85,0,0
61616,-111.111111111111,4,2,2,50,0,0
62381,-100,4,2,2,85,0,1
73846,-111.111111111111,4,2,2,50,0,0
74610,-100,4,2,2,85,0,1
87604,-100,4,2,2,75,0,0

[Colours]
Combo1 : 255,255,0
Combo2 : 255,128,192
Combo3 : 170,170,255
Combo4 : 200,0,200

[HitObjects]
84,192,471,1,2,0:0:0:0:
92,124,661,1,0,0:0:0:0:
148,84,852,1,0,0:0:0:0:
200,124,1043,1,0,0:0:0:0:
216,188,1234,2,0,B|288:216|376:184,1,134.999995976687,2|0,0:0|0:0,0:0:0:0:
392,136,1807,5,0,0:0:0:0:
424,196,1998,1,8,0:0:0:0:
384,252,2190,1,0,0:0:0:0:
256,296,2572,2,0,B|256:372,1,67.4999979883433,0|2,0:0|0:0,0:0:0:0:
132,308,3145,1,0,0:0:0:0:
52,200,3527,5,8,0:0:0:0:
104,156,3718,1,0,0:0:0:0:
100,88,3909,1,0,0:0:0:0:
156,48,4100,1,0,0:0:0:0:
200,100,4291,6,0,B|264:148|344:88,1,134.999995976687,2|0,0:0|0:0,0:0:0:0:
376,56,4865,2,0,B|464:56|464:168,1,134.999995976687,8|0,0:0|0:0,0:0:0:0:
460,208,5438,2,0,B|472:296|360:308,1,134.999995976687,0|2,0:0|0:0,0:0:0:0:
328,272,6011,1,0,0:0:0:0:
320,204,6202,1,0,0:0:0:0:
216,80,6584,5,8,0:0:0:0:
136,220,6776,1,0,0:0:0:0:
136,220,6871,1,0,0:0:0:0:
136,220,6967,2,0,B|56:288,1,80.9999961376192,8|0,0:0|0:0,0:0:0:0:
264,200,7349,6,0,B|312:276|416:276,1,161.999992275238,4|8,0:0|0:0,0:0:0:0:
416,196,7922,2,0,B|460:172|444:120,1,80.9999975280763,0|8,0:0|0:0,0:0:0:0:
404,64,8304,1,0,0:0:0:0:
356,132,8495,1,8,0:0:0:0:
328,56,8686,1,0,0:0:0:0:
328,56,8782,1,0,0:0:0:0:
328,56,8877,2,0,B|288:84|236:60,1,80.9999961376192,8|0,0:0|0:0,0:0:0:0:
168,92,9260,2,0,B|140:132|160:172,1,80.9999961376192,8|0,0:0|0:0,0:0:0:0:
84,200,9642,5,8,0:0:0:0:
180,332,9833,1,0,0:0:0:0:
340,332,10024,1,8,0:0:0:0:
436,200,10215,1,0,0:0:0:0:
256,44,10406,2,0,B|296:76|296:136,1,80.9999961376192,8|0,0:0|0:0,0:0:0:0:
328,212,10788,1,8,0:0:0:0:
224,188,10979,5,0,0:0:0:0:
224,188,11075,1,0,0:0:0:0:
224,188,11170,2,0,B|184:156|184:100,1,80.9999961376192,8|0,0:0|0:0,0:0:0:0:
292,308,11553,1,8,0:0:0:0:
172,284,11744,2,0,B|80:272|32:364,1,161.999992275238,8|0,0:0|0:0,0:0:0:0:
92,200,12317,2,0,B|12:168|4:64,1,161.999992275238,2|0,0:0|0:0,0:0:0:0:
124,100,12890,5,0,0:0:0:0:
124,100,12985,1,0,0:0:0:0:
124,100,13081,2,0,B|168:132|220:92,1,80.9999961376192,0|4,0:0|0:0,0:0:0:0:
260,52,13463,1,0,0:0:0:0:
284,172,13655,1,0,0:0:0:0:
284,172,13750,1,0,0:0:0:0:
284,172,13846,6,0,B|388:180|380:308,1,161.999992275238,8|0,0:0|0:0,0:0:0:0:
328,344,14419,2,0,B|288:372|240:340,1,80.9999961376192,0|8,0:0|0:0,0:0:0:0:
136,236,14801,1,0,0:0:0:0:
200,80,14992,2,0,B|108:64|56:152,1,161.999992275238,0|8,0:0|0:0,0:0:0:0:
260,188,15565,1,0,0:0:0:0:
328,88,15756,2,0,B|352:52|400:44,1,80.9999961376192,0|0,0:0|0:0,0:0:0:0:
384,248,16139,2,0,B|364:296|304:300,1,80.9999961376192,8|0,0:0|0:0,0:0:0:0:
292,320,16425,1,0,0:0:0:0:
260,344,16521,6,0,B|172:360|116:272,1,161.999992275238,4|8,0:0|0:0,0:0:0:0:
56,232,17094,1,0,0:0:0:0:
128,196,17285,1,0,0:0:0:0:
60,152,17476,2,0,B|48:96|104:72,1,80.9999975280763,0|8,0:0|0:0,0:0:0:0:
164,48,17858,2,0,B|212:32|260:64,1,80.9999961376192,0|8,0:0|0:0,0:0:0:0:
320,80,18241,1,0,0:0:0:0:
236,228,18432,1,8,0:0:0:0:
396,212,18814,5,8,0:0:0:0:
396,212,18909,1,0,0:0:0:0:
396,212,19005,1,0,0:0:0:0:
332,312,19196,1,8,0:0:0:0:
332,312,19291,1,0,0:0:0:0:
332,312,19387,1,0,0:0:0:0:
300,112,19578,6,8,B|248:40|148:52,1,161.999992275238,4|8,0:0|0:0,0:0:0:0:
188,128,20151,1,0,0:0:0:0:
108,120,20342,1,0,0:0:0:0:
144,216,20534,1,0,0:0:0:0:
144,216,20629,1,0,0:0:0:0:
144,216,20725,1,8,0:0:0:0:
184,316,20916,1,0,0:0:0:0:
296,284,21107,2,0,B|372:240|464:276,1,161.999992275238,0|8,0:0|0:0,0:0:0:0:
396,164,21680,1,0,0:0:0:0:
448,52,21871,2,0,B|372:96|280:60,1,161.999992275238,0|8,0:0|0:0,0:0:0:0:
208,172,22444,5,0,0:0:0:0:
208,172,22540,1,0,0:0:0:0:
208,172,22635,2,0,B|120:208,1,80.9999961376192,4|0,0:0|0:0,0:0:0:0:
312,244,23018,1,8,0:0:0:0:
372,128,23209,1,0,0:0:0:0:
248,56,23400,2,0,B|316:12|408:40,1,161.999992275238,2|8,0:0|0:0,0:0:0:0:
448,104,23973,1,0,0:0:0:0:
432,184,24164,5,8,0:0:0:0:
352,324,24355,1,0,0:0:0:0:
192,324,24546,1,0,0:0:0:0:
104,188,24737,1,0,0:0:0:0:
104,188,24833,1,0,0:0:0:0:
104,188,24928,1,0,0:0:0:0:
256,192,25120,1,8,0:0:0:0:
256,192,25215,1,0,0:0:0:0:
256,192,25311,1,0,0:0:0:0:
352,100,25502,1,0,0:0:0:0:
352,100,25693,1,4,0:0:0:0:
256,64,25884,5,0,0:0:0:0:
156,72,26075,2,0,B|60:76|32:160,1,161.999992275238,0|8,0:0|0:0,0:0:0:0:
60,236,26648,1,0,0:0:0:0:
60,236,26839,2,0,B|124:296,1,80.9999961376192
168,180,27221,2,0,B|244:128|348:184,1,161.999992275238
248,268,27795,2,0,B|232:352|136:372,1,161.999992275238,0|8,0:0|0:0,0:0:0:0:
376,220,28368,5,0,0:0:0:0:
444,120,28559,1,0,0:0:0:0:
324,116,28750,2,0,B|252:64|156:68,1,161.999992275238,4|8,0:0|0:0,0:0:0:0:
100,32,29323,5,0,0:0:0:0:
112,112,29514,1,0,0:0:0:0:
36,80,29705,1,0,0:0:0:0:
44,160,29897,1,8,0:0:0:0:
44,160,30088,2,0,B|56:212|120:232,1,80.9999961376192,0|0,0:0|0:0,0:0:0:0:
200,168,30470,2,0,B|236:136|288:144,1,80.9999975280763,0|8,0:0|0:0,0:0:0:0:
368,64,30853,1,0,0:0:0:0:
368,64,30948,1,0,0:0:0:0:
368,64,31044,1,0,0:0:0:0:
368,224,31234,2,0,B|356:320|256:324,1,161.999995056153,0|0,0:0|0:0,0:0:0:0:
152,260,31807,5,4,0:0:0:0:
244,128,31999,1,0,0:0:0:0:
244,128,32094,1,0,0:0:0:0:
244,128,32190,2,0,B|216:80|156:88,1,80.9999975280763,0|0,0:0|0:0,0:0:0:0:
72,152,32572,1,0,0:0:0:0:
76,232,32763,1,0,0:0:0:0:
144,188,32954,1,8,0:0:0:0:
220,208,33145,6,0,B|272:276|376:276,1,161.999992275238,0|0,0:0|0:0,0:0:0:0:
352,156,33718,1,8,0:0:0:0:
460,104,33909,2,0,B|408:36|304:36,1,161.999992275238,0|0,0:0|0:0,0:0:0:0:
260,92,34483,2,0,B|176:92,1,80.9999961376192,8|0,0:0|0:0,0:0:0:0:
180,92,34769,1,0,0:0:0:0:
180,92,34865,1,4,0:0:0:0:
124,196,35056,5,0,0:0:0:0:
40,128,35247,2,0,B|-4:252|100:288,1,161.999995056153,8|0,0:0|0:0,0:0:0:0:
196,268,35820,1,0,0:0:0:0:
196,268,36011,2,0,B|172:360|80:360,1,161.999992275238,8|0,0:0|0:0,0:0:0:0:
232,168,36584,5,0,0:0:0:0:
232,168,36679,1,0,0:0:0:0:
232,168,36776,1,0,0:0:0:0:
312,76,36967,2,0,B|356:48|416:84,1,80.9999961376192,0|8,0:0|0:0,0:0:0:0:
372,192,37349,1,0,0:0:0:0:
372,192,37444,1,0,0:0:0:0:
372,192,37540,1,0,0:0:0:0:
292,284,37731,2,0,B|264:328|212:304,1,80.9999961376192,0|4,0:0|0:0,0:0:0:0:
64,336,38304,5,0,0:0:0:0:
112,268,38495,2,0,B|192:236|192:140,1,161.999992275238
72,120,39069,1,8,0:0:0:0:
164,40,39260,2,0,B|252:16|332:48,1,161.999992275238
392,144,39833,1,8,0:0:0:0:
356,260,40025,1,0,0:0:0:0:
356,260,40120,1,0,0:0:0:0:
356,260,40215,2,0,B|344:312|288:328,1,80.9999961376192,0|0,0:0|0:0,0:0:0:0:
248,216,40597,1,8,0:0:0:0:
292,104,40788,1,0,0:0:0:0:
292,104,40884,1,0,0:0:0:0:
292,104,40979,6,0,B|232:36|128:48,1,161.999992275238,4|8,0:0|0:0,0:0:0:0:
124,168,41553,2,0,B|84:200|108:264,2,80.9999961376192,0|0|0,0:0|0:0|0:0,0:0:0:0:
240,208,42125,1,8,0:0:0:0:
360,180,42317,2,0,B|360:72|472:72,1,161.999992275238
484,152,42890,1,8,0:0:0:0:
448,268,43081,2,0,B|424:360|328:352,1,161.999992275238
288,352,43559,1,0,0:0:0:0:
264,320,43655,1,8,0:0:0:0:
344,228,43846,2,0,B|344:136,1,80.9999961376192,0|4,0:0|0:0,0:0:0:0:
204,68,44419,5,8,0:0:0:0:
140,140,44610,1,0,0:0:0:0:
204,212,44801,2,0,B|172:260|116:268,2,80.9999961376192,0|0|8,0:0|0:0|0:0,0:0:0:0:
272,140,45374,2,0,B|332:72|432:100,1,161.999992275238
412,176,45948,1,8,0:0:0:0:
288,280,46139,2,0,B|228:348|128:320,1,161.999992275238
24,280,46712,1,8,0:0:0:0:
108,188,46903,2,0,B|136:152|188:148,1,80.9999961376192,0|4,0:0|0:0,0:0:0:0:
252,56,47285,1,0,0:0:0:0:
308,116,47476,5,8,0:0:0:0:
364,176,47667,1,0,0:0:0:0:
280,196,47858,2,0,B|216:248,2,80.9999961376192,0|0|8,0:0|0:0|0:0,0:0:0:0:
384,92,48432,2,0,B|448:36,2,80.9999961376192,0|8|0,0:0|0:0|0:0,0:0:0:0:
448,148,49005,1,0,0:0:0:0:
448,148,49100,1,0,0:0:0:0:
448,148,49196,1,8,0:0:0:0:
432,228,49387,2,0,B|400:312|292:316,1,161.999992275238,0|8,0:0|0:0,0:0:0:0:
248,256,49960,1,8,0:0:0:0:
248,256,50056,1,0,0:0:0:0:
248,256,50151,6,0,B|160:256|124:168,1,161.999992275238,4|8,0:0|0:0,0:0:0:0:
192,120,50725,1,0,0:0:0:0:
60,212,50916,1,0,0:0:0:0:
60,212,51107,2,8,B|24:132|96:80|144:100,1,161.999995056153,0|8,0:0|0:0,0:0:0:0:
240,184,51680,1,0,0:0:0:0:
332,72,51871,5,2,0:0:0:0:
332,72,51967,1,0,0:0:0:0:
332,72,52062,2,0,B|380:56|424:92,1,80.9999961376192,8|0,0:0|0:0,0:0:0:0:
456,144,52444,2,0,B|476:192|452:232,1,80.9999961376192,2|0,0:0|0:0,0:0:0:0:
340,252,52827,1,8,0:0:0:0:
448,304,53017,1,0,0:0:0:0:
448,304,53113,1,0,0:0:0:0:
448,304,53209,6,0,B|384:364|284:340,1,161.999992275238,4|8,0:0|0:0,0:0:0:0:
224,248,53782,2,0,B|128:248,1,80.9999961376192
60,160,54164,1,0,0:0:0:0:
176,128,54355,1,8,0:0:0:0:
88,44,54546,2,0,B|128:20|192:32,1,80.9999961376192
280,72,54928,2,0,B|364:72,1,80.9999961376192,0|8,0:0|0:0,0:0:0:0:
404,140,55311,1,0,0:0:0:0:
424,176,55406,1,0,0:0:0:0:
432,216,55502,1,0,0:0:0:0:
420,256,55597,1,0,0:0:0:0:
408,296,55693,1,0,0:0:0:0:
308,360,55884,2,0,B|264:332|216:364,1,80.9999961376192,8|0,0:0|0:0,0:0:0:0:
268,252,56266,5,12,0:0:0:0:
200,152,56457,1,0,0:0:0:0:
136,252,56648,1,0,0:0:0:0:
68,152,56839,1,8,0:0:0:0:
136,52,57030,1,0,0:0:0:0:
256,60,57221,1,0,0:0:0:0:
296,60,57317,1,0,0:0:0:0:
336,60,57412,1,8,0:0:0:0:
376,60,57508,1,0,0:0:0:0:
416,60,57603,1,0,0:0:0:0:
456,132,57795,6,0,B|488:224,2,80.9999961376192,12|0|0,0:0|0:0|0:0,0:0:0:0:
404,240,58368,2,0,B|368:324,2,80.9999961376192,8|0|0,0:0|0:0|0:0,0:0:0:0:
308,164,58941,1,8,0:0:0:0:
292,284,59133,1,0,0:0:0:0:
292,284,59228,1,0,0:0:0:0:
292,284,59323,6,0,B|260:360|152:356,1,161.999992275238,4|8,0:0|0:0,0:0:0:0:
120,240,59897,2,0,B|212:240,2,80.9999961376192,0|0|0,0:0|0:0|0:0,0:0:0:0:
40,324,60470,1,8,0:0:0:0:
8,208,60661,2,0,B|28:108|136:108,1,161.999995056153,4|8,0:0|0:0,0:0:0:0:
204,196,61234,6,0,B|276:240|276:240,1,80.9999961376192,8|0,0:0|0:0,0:0:0:0:
304,164,61616,1,2,0:0:0:0:
392,76,61807,1,0,0:0:0:0:
480,164,61998,1,2,0:0:0:0:
396,272,62190,1,2,0:0:0:0:
396,272,62285,1,0,0:0:0:0:
396,272,62381,6,0,B|340:344|232:340,1,180,12|8,0:0|0:0,0:0:0:0:
264,256,62954,1,0,0:0:0:0:
204,188,63145,1,0,0:0:0:0:
172,272,63336,2,0,B|96:332|96:332,1,90,0|8,0:0|0:0,0:0:0:0:
284,164,63718,1,0,0:0:0:0:
224,104,63909,2,0,B|244:40|356:52|356:128,1,180,0|8,0:0|0:0,0:0:0:0:
356,120,64483,1,0,0:0:0:0:
260,256,64674,6,0,B|304:340,1,90,0|0,0:0|0:0,0:0:0:0:
380,292,65056,1,8,0:0:0:0:
376,184,65247,1,0,0:0:0:0:
376,184,65342,1,0,0:0:0:0:
376,184,65438,2,0,B|372:76|252:64,1,180,4|8,0:0|0:0,0:0:0:0:
500,268,66011,2,0,B|456:236|416:280,1,90,0|0,0:0|0:0,0:0:0:0:
372,352,66393,1,0,0:0:0:0:
272,264,66584,2,0,B|212:348|96:308,1,180,8|0,0:0|0:0,0:0:0:0:
180,196,67158,2,0,B|104:100|200:36,1,180,2|0,0:0|0:0,0:0:0:0:
260,100,67731,5,8,0:0:0:0:
260,100,67827,1,0,0:0:0:0:
260,100,67922,1,0,0:0:0:0:
368,184,68113,1,8,0:0:0:0:
404,316,68305,1,0,0:0:0:0:
404,316,68400,1,0,0:0:0:0:
404,316,68495,6,0,B|312:360|236:296,1,180,4|8,0:0|0:0,0:0:0:0:
164,180,69069,2,0,B|84:240,2,90
168,92,69642,1,8,0:0:0:0:
292,148,69833,1,0,0:0:0:0:
232,256,70024,2,0,B|320:256,1,90,2|0,0:0|0:0,0:0:0:0:
468,92,70406,2,0,B|364:92,1,90,8|0,0:0|0:0,0:0:0:0:
424,220,70788,5,0,0:0:0:0:
424,220,70884,1,0,0:0:0:0:
424,220,70979,1,0,0:0:0:0:
392,352,71170,1,8,0:0:0:0:
264,308,71362,1,0,0:0:0:0:
296,176,71553,2,0,B|248:88|148:76,1,180,4|8,0:0|0:0,0:0:0:0:
168,212,72126,2,0,B|72:212,2,90
264,308,72699,1,8,0:0:0:0:
372,232,72890,2,0,B|472:192|448:72,1,180,2|0,0:0|0:0,0:0:0:0:
276,136,73463,6,0,B|192:80|192:80,1,90,2|0,0:0|0:0,0:0:0:0:
168,204,73846,1,8,0:0:0:0:
96,300,74037,1,0,0:0:0:0:
216,308,74228,1,8,0:0:0:0:
276,204,74418,1,0,0:0:0:0:
276,204,74514,1,0,0:0:0:0:
276,204,74610,6,0,B|340:292|448:252,1,180,4|8,0:0|0:0,0:0:0:0:
360,144,75183,2,0,B|340:88|292:80,1,90
228,132,75565,2,0,B|196:176|140:176,1,90,0|8,0:0|0:0,0:0:0:0:
248,272,75948,1,0,0:0:0:0:
352,252,76139,2,0,B|400:348|512:336,1,180,2|8,0:0|0:0,0:0:0:0:
476,248,76712,1,0,0:0:0:0:
408,132,76903,2,0,B|456:132|488:88,2,90,0|0|8,0:0|0:0|0:0,0:0:0:0:
328,172,77476,1,0,0:0:0:0:
248,132,77667,6,0,B|180:48|56:88,1,180,4|8,0:0|0:0,0:0:0:0:
140,204,78241,2,0,B|80:300|176:372,1,180,0|0,0:0|0:0,0:0:0:0:
256,264,78814,1,8,0:0:0:0:
376,200,79005,2,0,B|424:184|480:232,1,90
348,92,79387,1,0,0:0:0:0:
216,124,79578,1,8,0:0:0:0:
96,64,79769,1,0,0:0:0:0:
96,200,79961,5,8,0:0:0:0:
96,200,80056,1,0,0:0:0:0:
96,200,80152,1,0,0:0:0:0:
136,376,80342,1,8,0:0:0:0:
16,312,80534,1,0,0:0:0:0:
16,312,80630,1,0,0:0:0:0:
16,312,80725,6,0,B|72:248|144:332|208:236,1,180,4|8,0:0|0:0,0:0:0:0:
200,132,81298,2,0,B|256:68|328:152|392:56,1,180,0|0,0:0|0:0,0:0:0:0:
420,208,81871,1,8,0:0:0:0:
292,256,82062,2,0,B|292:348,1,90,2|0,0:0|0:0,0:0:0:0:
428,344,82444,1,0,0:0:0:0:
428,344,82540,1,0,0:0:0:0:
428,344,82635,1,8,0:0:0:0:
420,208,82827,1,0,0:0:0:0:
460,80,83018,5,0,0:0:0:0:
328,48,83209,1,2,0:0:0:0:
192,48,83400,1,8,0:0:0:0:
60,76,83591,1,0,0:0:0:0:
148,180,83782,2,0,B|84:276|160:356,1,180,4|8,0:0|0:0,0:0:0:0:
204,272,84355,1,0,0:0:0:0:
204,272,84451,1,0,0:0:0:0:
204,272,84546,2,0,B|316:272,1,90
360,212,84928,5,0,0:0:0:0:
372,76,85120,1,2,0:0:0:0:
164,156,85502,1,0,0:0:0:0:
76,156,85693,1,2,0:0:0:0:
116,240,85884,2,0,B|48:304,1,90,0|2,0:0|0:0,0:0:0:0:
256,192,86266,12,4,87604,0:0:0:0:
