osu file format v12

[General]
AudioFilename: Heart no Kakuritsu.mp3
AudioLeadIn: 1000
PreviewTime: 61521
Countdown: 0
SampleSet: Soft
StackLeniency: 0.7
Mode: 0
LetterboxInBreaks: 1
WidescreenStoryboard: 0

[Editor]
DistanceSpacing: 1
BeatDivisor: 2
GridSize: 4

[Metadata]
Title:Heart no Kakuritsu (TV Size)
TitleUnicode:
Artist:blue drops
ArtistUnicode:
Creator:LaceWingfield
Version:Easy
Source:Sora no Otoshimono: Forte
Tags:Naryuga Cilvery opening
BeatmapID:154896
BeatmapSetID:50396

[Difficulty]
HPDrainRate:2
CircleSize:3
OverallDifficulty:2
ApproachRate:3
SliderMultiplier:0.8
SliderTickRate:1

[Events]
//Background and Video events
Video,0,"Video.avi"
0,0,"sora no otoshimono forte.jpg",0,0
//Break Periods
2,16721,24253
//Storyboard Layer 0 (Background)
//Storyboard Layer 1 (Fail)
//Storyboard Layer 2 (Pass)
//Storyboard Layer 3 (Foreground)
//Storyboard Sound Samples
//Background Colour Transformations
3,100,163,162,255

[TimingPoints]
-294,382.165605095541,4,2,0,75,1,0
470,-100,4,2,0,75,0,0
6393,-100,4,2,2,75,0,0
7540,-100,4,2,1,75,0,0
7922,-100,4,2,2,75,0,0
9069,-100,4,2,1,75,0,0
9451,-100,4,2,2,75,0,0
11553,-100,4,2,1,75,0,0
11744,-100,4,2,2,75,0,0
25693,-100,4,2,1,75,0,0
26266,-100,4,2,2,75,0,0
26648,-100,4,2,1,75,0,0
29705,-100,4,2,2,75,0,0
30088,-100,4,2,1,75,0,0
31998,-100,4,2,2,75,0,0
32381,-100,4,2,1,75,0,0
33909,-100,4,2,2,75,0,0
34291,-100,4,2,1,75,0,0
35820,-100,4,2,2,75,0,0
36202,-100,4,2,1,75,0,0
38113,-100,4,2,2,75,0,0
41170,-100,4,2,1,75,0,0
41553,-100,4,2,2,75,0,0
42699,-100,4,2,1,75,0,0
43081,-100,4,2,2,75,0,0
44992,-100,4,2,1,75,0,0
45374,-100,4,2,2,75,0,0
46521,-100,4,2,1,75,0,0
46903,-100,4,2,2,75,0,0
50336,-100,4,2,1,75,0,0
50725,-100,4,2,2,75,0,0
51871,-100,4,2,1,75,0,0
52253,-100,4,2,2,75,0,0
53400,-100,4,2,1,75,0,0
53782,-100,4,2,2,75,0,0
54928,-100,4,2,1,75,0,0
55311,-100,4,2,2,75,0,0
56648,-100,4,2,1,75,0,0
56839,-100,4,2,2,75,0,0
58177,-100,4,2,1,75,0,0
58368,-100,4,2,2,75,0,0
59514,-100,4,2,1,75,0,0
60470,-100,4,2,2,75,0,0
61043,-100,4,2,1,75,0,0
61425,-100,4,2,2,75,0,0
62381,-100,4,2,2,75,0,1
62572,-100,4,2,1,75,0,1
62954,-100,4,2,2,75,0,1
64865,-100,4,2,1,75,0,1
65247,-100,4,2,2,75,0,1
66393,-100,4,2,1,75,0,1
66776,-100,4,2,2,75,0,1
67922,-100,4,2,1,75,0,1
68304,-100,4,2,2,75,0,1
69451,-100,4,2,1,75,0,1
71362,-100,4,2,2,75,0,1
73272,-100,4,2,1,75,0,1
73655,-100,4,2,2,75,0,1
73846,-111.111111111111,4,2,2,75,0,0
74610,-100,4,2,1,75,0,1
75183,-100,4,2,2,75,0,1
77858,-100,4,2,1,75,0,1
78241,-100,4,2,2,75,0,1
80916,-100,4,2,1,75,0,1
81298,-100,4,2,2,75,0,1
83973,-100,4,2,1,75,0,1
84355,-100,4,2,2,75,0,1
87604,-100,4,2,2,75,0,0

[Colours]
Combo1 : 255,255,0
Combo2 : 255,128,192
Combo3 : 170,170,255
Combo4 : 200,0,200

[HitObjects]
88,220,470,1,2,0:0:0:0:
148,76,1234,2,0,B|208:24|328:104|384:48,1,240,2|0,0:0|0:0,0:0:0:0:
456,72,2763,1,2,0:0:0:0:
356,184,3527,5,8,0:0:0:0:
468,296,4291,2,0,B|420:368|320:356,1,160,2|8,0:0|0:0,0:0:0:0:
284,292,5438,2,0,B|184:292,2,80
304,216,6584,5,0,0:0:0:0:
344,148,6967,1,8,0:0:0:0:
276,108,7349,2,0,B|220:44|124:56,1,160,4|0,0:0|0:0,0:0:0:0:
48,192,8877,2,0,B|4:280|84:360,1,160,2|0,0:0|0:0,0:0:0:0:
196,240,10406,5,2,0:0:0:0:
344,304,11170,2,0,B|396:352|484:312,1,120,8|4,0:0|0:0,0:0:0:0:
324,176,12699,1,2,0:0:0:0:
256,192,13272,12,4,16521,0:0:0:0:
116,228,25693,5,4,0:0:0:0:
168,280,26075,2,0,B|236:336|336:316,1,160,0|8,0:0|0:0,0:0:0:0:
368,256,27221,2,0,B|464:256,1,80,0|8,0:0|0:0,0:0:0:0:
472,180,27986,1,0,0:0:0:0:
436,108,28368,2,0,B|344:108,1,80,8|4,0:0|0:0,0:0:0:0:
196,88,29514,6,0,B|116:56|24:88,1,160,2|8,0:0|0:0,0:0:0:0:
148,208,31043,1,0,0:0:0:0:
72,328,31807,2,0,B|152:360|240:336,1,160,4|8,0:0|0:0,0:0:0:0:
284,280,32954,1,0,0:0:0:0:
344,224,33336,1,8,0:0:0:0:
288,164,33718,2,0,B|316:80|428:76,1,160
444,152,34865,5,4,0:0:0:0:
396,304,35629,2,0,B|348:368|248:360,1,160,2|0,0:0|0:0,0:0:0:0:
220,288,36776,2,0,B|140:288,1,71.9999965667726
68,252,37540,1,0,0:0:0:0:
68,168,37922,1,4,0:0:0:0:
192,68,38686,37,0,0:0:0:0:
232,140,39069,2,0,B|332:140,1,80,8|0,0:0|0:0,0:0:0:0:
364,200,39833,1,8,0:0:0:0:
336,276,40215,2,0,B|240:276,1,80,0|8,0:0|0:0,0:0:0:0:
196,328,40979,6,0,B|140:384|48:368,1,160,4|0,0:0|0:0,0:0:0:0:
24,292,42126,1,8,0:0:0:0:
44,216,42508,2,0,B|72:132|180:124,1,160,0|0,0:0|0:0,0:0:0:0:
192,52,43655,1,8,0:0:0:0:
248,108,44037,1,4,0:0:0:0:
336,240,44801,6,0,B|416:200|496:248,1,160,2|0,0:0|0:0,0:0:0:0:
432,300,45948,1,8,0:0:0:0:
484,360,46330,2,0,B|420:400|328:372,1,160,0|4,0:0|0:0,0:0:0:0:
276,312,47476,22,0,B|172:312,1,80,8|0,0:0|0:0,0:0:0:0:
140,256,48241,1,8,0:0:0:0:
100,188,48623,1,4,0:0:0:0:
168,144,49005,2,0,B|172:48|284:52,1,160,8|0,0:0|0:0,0:0:0:0:
332,108,50151,6,0,B|372:188|464:192,1,160,4|0,0:0|0:0,0:0:0:0:
460,272,51298,1,8,0:0:0:0:
396,320,51680,2,0,B|324:368|232:340,1,160,0|2,0:0|0:0,0:0:0:0:
92,280,53209,38,0,B|52:200|96:120,1,160,4|0,0:0|0:0,0:0:0:0:
172,120,54355,1,8,0:0:0:0:
236,168,54737,2,0,B|320:208|400:164,1,160,0|4,0:0|0:0,0:0:0:0:
444,320,56266,6,0,B|316:320,1,120,8|4,0:0|0:0,0:0:0:0:
128,288,57795,2,0,B|56:192,1,120,8|4,0:0|0:0,0:0:0:0:
112,88,58941,1,8,0:0:0:0:
168,144,59323,6,0,B|252:172|336:140,1,160,4|0,0:0|0:0,0:0:0:0:
376,80,60470,1,8,0:0:0:0:
448,112,60852,2,0,B|484:192|436:272,1,160,2|0,0:0|0:0,0:0:0:0:
360,260,61998,1,2,0:0:0:0:
312,324,62381,6,0,B|244:364|148:336,1,160,4|0,0:0|0:0,0:0:0:0:
100,280,63527,1,8,0:0:0:0:
140,208,63909,1,2,0:0:0:0:
68,172,64291,1,8,0:0:0:0:
44,96,64674,6,0,B|100:32|200:36,1,160,0|4,0:0|0:0,0:0:0:0:
256,76,65820,1,8,0:0:0:0:
312,132,66202,2,0,B|392:168|472:120,1,160,0|2,0:0|0:0,0:0:0:0:
480,284,67731,6,0,B|404:240|316:284,1,160,8|4,0:0|0:0,0:0:0:0:
260,324,68877,1,8,0:0:0:0:
196,276,69260,2,0,B|120:312|32:280,1,160,0|2,0:0|0:0,0:0:0:0:
48,132,70788,6,0,B|128:92|212:132,1,160,2|4,0:0|0:0,0:0:0:0:
264,180,71935,1,8,0:0:0:0:
336,144,72317,2,0,B|428:144,1,80,0|8,0:0|0:0,0:0:0:0:
436,228,73081,2,0,B|436:324|324:324,1,160,2|0,0:0|0:0,0:0:0:0:
176,344,74610,6,0,B|176:248|280:248,1,160,4|0,0:0|0:0,0:0:0:0:
340,196,75756,1,8,0:0:0:0:
344,116,76139,2,0,B|268:72,1,80,0|8,0:0|0:0,0:0:0:0:
196,80,76903,2,0,B|120:124,1,80,0|8,0:0|0:0,0:0:0:0:
60,172,77667,6,0,B|60:256|156:288,1,160,4|0,0:0|0:0,0:0:0:0:
232,308,78814,1,8,0:0:0:0:
304,348,79196,1,0,0:0:0:0:
364,296,79578,1,8,0:0:0:0:
348,216,79960,5,2,0:0:0:0:
412,168,80342,1,8,0:0:0:0:
476,116,80725,2,0,B|416:56|320:56,1,160,4|2,0:0|0:0,0:0:0:0:
280,128,81871,2,0,B|192:128,1,80,8|2,0:0|0:0,0:0:0:0:
48,76,83018,5,2,0:0:0:0:
108,224,83782,2,0,B|152:308|248:308,1,160,4|0,0:0|0:0,0:0:0:0:
296,256,84928,1,10,0:0:0:0:
312,336,85311,1,2,0:0:0:0:
256,192,86075,12,4,87604,0:0:0:0:
