osu file format v10

[General]
AudioFilename: sora no otoshimono.mp3
AudioLeadIn: 2000
PreviewTime: 61285
Countdown: 0
SampleSet: Soft
StackLeniency: 0.7
Mode: 0
LetterboxInBreaks: 0

[Editor]
DistanceSpacing: 0.8
BeatDivisor: 4
GridSize: 4

[Metadata]
Title:Heart no Kakuritsu (TV Size)
TitleUnicode:Heart no Kakuritsu (TV Size)
Artist:blue drops
ArtistUnicode:blue drops
Creator:Darksonic
Version:Normal
Source:Sora no Otoshimono: Forte
Tags:opening sekai-nyan verdisphena
BeatmapID:181537
BeatmapSetID:60524

[Difficulty]
HPDrainRate:3
CircleSize:4
OverallDifficulty:4
ApproachRate:4
SliderMultiplier:1.2
SliderTickRate:2

[Events]
//Background and Video events
Video,575,"Sora no Otoshimono Forte Opening.avi"
0,0,"BG.jpeg"
//Break Periods
//Storyboard Layer 0 (Background)
//Storyboard Layer 1 (Fail)
//Storyboard Layer 2 (Pass)
//Storyboard Layer 3 (Foreground)
//Storyboard Sound Samples
//Background Colour Transformations
3,100,163,162,255

[TimingPoints]
288,382.165605095541,4,2,0,60,1,0
288,-133.333333333333,4,2,0,60,0,0
7166,-100,4,2,0,70,0,0
11944,-100,4,1,0,60,0,0
13090,-100,4,2,1,70,0,0
37166,-100,4,1,0,65,0,0
37740,-100,4,2,1,70,0,0
48249,-100,4,1,0,65,0,0
49969,-100,4,2,1,70,0,0
61434,-100,4,2,0,25,0,0
61816,-100,4,2,0,50,0,0
62198,-100,4,2,1,75,0,1
72708,-100,4,2,0,70,0,1
73663,-100,4,2,0,70,0,0
74428,-100,4,2,1,75,0,1
85319,-100,4,1,0,70,0,1
85510,-100,4,2,0,75,0,1
85893,-100,4,1,0,70,0,1
86084,-100,4,2,0,75,0,1
87421,-100,4,2,0,70,0,0

[Colours]
Combo1 : 255,111,111
Combo2 : 255,255,128
Combo3 : 21,180,255
Combo4 : 255,164,119

[HitObjects]
217,104,288,2,0,B|231:80|280:80|295:104,2,90.0000034332276,2|0|2,0:0|0:0|0:0,0:0:0
152,168,1434,2,0,B|152:213,1,45.0000017166138,0|2,0:0|0:0,0:0:0
217,280,2007,2,0,B|232:304|280:303|295:280,1,90.0000034332276
324,244,2580,1,2,0:0:0
320,64,3345,6,0,B|372:56|402:90,2,90.0000034332276,0|0|2,0:0|0:0|0:0,0:0:0
280,144,4491,2,0,B|235:144,1,45.0000017166138,0|2,0:0|0:0,0:0:0
192,64,5065,2,0,B|140:56|109:90,2,90.0000034332276,2|2|2,0:0|0:0|0:0,0:0:0
256,184,6402,2,0,B|256:274,2,90.0000034332276,0|2|4,0:0|0:0|0:0,0:0:0
256,88,7549,5,2,0:0:0
304,172,7931,2,0,B|323:231|304:290,1,120,0|2,0:0|0:0,0:0:0
208,290,8695,2,0,B|189:231|208:172,1,120,0|2,0:0|0:0,0:0:0
197,76,9459,2,0,B|256:57|315:76,2,120,2|2|2,0:0|0:0|0:0,0:0:0
256,152,10606,5,2,0:0:0
196,224,10988,1,0,0:0:0
184,320,11370,2,0,B|244:320,1,60,0|4,0:0|0:0,0:0:0
292,236,11944,2,0,B|352:236,1,60
400,152,12517,2,0,B|460:152,1,60
400,76,13090,6,0,B|316:20|232:76,1,180,4|10,0:0|0:0,0:0:0
260,168,14045,2,0,B|315:130|371:168,1,120,0|8,0:0|0:0,0:0:0
316,248,14810,1,0,0:0:0
372,328,15192,2,0,B|316:365|260:328,1,120,8|2,0:0|0:0,0:0:0
180,276,15956,1,8,0:0:0
100,332,16338,6,0,B|62:276|100:220,1,120,6|8,0:0|0:0,0:0:0
180,276,17103,2,0,B|217:220|180:164,1,120,0|10,0:0|0:0,0:0:0
256,104,17867,1,2,0:0:0
332,163,18249,2,0,B|294:220|332:276,1,120,8|2,0:0|0:0,0:0:0
411,219,19014,2,0,B|449:276|412:332,1,120,8|6,0:0|0:0,0:0:0
316,332,19778,5,8,0:0:0
308,236,20160,2,0,B|256:183|204:236,1,120,0|10,0:0|0:0,0:0:0
196,332,20924,1,2,0:0:0
112,284,21307,2,0,B|100:220|34:199,2,120,8|2|8,0:0|0:0|0:0,0:3:0
196,240,22453,5,4,0:0:0
256,164,22835,1,8,0:0:0
316,240,23217,2,0,B|340:284|388:286,2,90,2|2|2,0:0|0:0|0:0,0:0:0
316,192,23982,2,2,B|304:132|256:121|208:132|196:192,1,180,6|0,0:0|0:0,0:0:0
212,288,24937,2,2,B|248:328|256:366|256:366|264:328|300:288,1,180,2|4,0:0|0:0,0:0:0
388,252,25893,5,2,0:0:0
464,192,26275,1,0,0:0:0
388,132,26657,1,2,0:0:0
312,192,27039,2,0,B|192:192,1,120,0|2,0:0|0:0,0:0:0
116,136,27803,2,0,B|78:193|115:249,2,120,0|2|2,0:0|0:0|0:0,0:0:0
188,72,28950,5,2,0:0:0
256,140,29332,1,0,0:0:0
324,72,29714,1,2,0:0:0
392,140,30096,2,0,B|384:212|312:216,1,120,0|2,0:0|0:0,0:0:0
256,140,30861,2,0,B|186:143|178:215,2,120,0|2|2,0:0|0:0|0:0,0:0:0
324,72,32007,5,2,0:0:0
420,88,32389,2,0,B|406:153|340:167,1,120,0|2,0:0|0:0,0:0:0
304,256,33154,1,0,0:0:0
256,340,33536,1,2,0:0:0
208,256,33918,1,0,0:0:0
171,167,34300,2,0,B|105:153|92:88,1,120,2|2,0:0|0:0,0:0:0
176,40,35065,6,0,B|242:53|255:119,1,120,2|0,0:0|0:0,0:0:0
208,200,35829,2,0,B|208:260,1,60
304,260,36402,6,0,B|304:200,1,60,8|4,0:0|0:0,0:0:0
256,64,37166,2,0,B|256:124,1,60
256,220,37740,1,4,0:0:0
312,296,38122,6,0,B|256:333|199:296,1,120,8|0,0:0|0:0,0:0:0
256,220,38886,1,8,0:0:0
160,204,39268,2,0,B|173:137|239:124,1,120,0|8,0:0|0:0,0:0:0
296,48,40033,2,0,B|356:77|351:145,2,120,0|10|2,0:0|0:0|0:0,0:0:0
256,136,41179,5,8,0:0:0
216,48,41561,2,0,B|155:77|160:145,1,120,0|8,0:0|0:0,0:0:0
160,238,42326,2,0,B|155:306|216:336,1,120,0|8,0:0|0:0,0:0:0
256,248,43090,1,0,0:0:0
296,336,43472,2,0,B|356:306|351:238,1,120,14|2,0:0|0:0,0:0:0
256,248,44237,6,0,B|256:128,1,120,8|0,0:0|0:0,0:0:0
256,32,45001,1,8,0:0:0
328,96,45383,2,0,B|364:120|364:120|368:156|413:175,2,120,0|8|0,0:0|0:0|0:0,0:0:0
256,32,46530,1,10,0:0:0
183,96,46912,2,0,B|148:120|148:120|144:156|98:175,1,120,2|8,0:0|0:0,0:0:0
36,248,47676,6,0,B|36:308,1,60
120,352,48249,2,0,B|120:292,2,60
211,322,49014,2,0,B|232:285|215:235|215:235|266:252|302:230,1,180
324,136,49969,6,0,B|308:72|204:72|188:136,1,180,6|0,0:0|0:0,0:0:0
120,68,50924,1,0,0:0:0
120,164,51307,2,0,B|136:228|240:228|256:164,1,180,6|2,0:0|0:0,0:0:0
200,88,52262,2,0,B|256:50|312:88,1,120,2|2,0:0|0:0,0:0:0
368,164,53026,6,0,B|312:202|256:164,1,120,4|8,0:0|0:0,0:0:0
200,88,53791,1,0,0:0:0
140,164,54173,2,0,B|140:228,1,60,8|4,0:0|0:0,0:0:0
208,292,54746,2,0,B|208:232,1,60,2|10,0:0|0:0,0:0:0
220,136,55319,2,0,B|256:88|256:88|292:136,1,120,2|2,0:0|0:0,0:0:0
304,232,56084,6,2,B|360:232|360:232|344:300|408:336,2,180,6|2|0,0:0|0:0|0:0,0:0:0
208,232,57612,2,0,B|152:232|152:232|168:300|104:336,2,180,6|2|0,0:0|0:0|0:0,0:0:0
200,136,59141,6,0,B|256:173|312:136,1,120,4|0,0:0|0:0,0:0:0
340,44,59905,2,0,B|256:-11|172:44,1,180,0|4,0:0|0:0,0:0:0
256,92,60861,2,0,B|256:168,1,60,0|4,0:0|0:0,0:0:0
220,240,61434,6,0,B|156:216|164:144,2,120,2|2|6,0:0|0:0|0:0,0:0:0
256,328,62580,1,8,0:0:0
292,240,62963,2,0,B|356:216|348:144,2,120,0|8|0,0:0|0:0|0:0,0:0:0
256,152,64109,1,8,0:0:0
220,64,64491,6,0,B|156:88|164:160,2,120,2|10|2,0:0|0:0|0:0,0:0:0
256,152,65638,2,0,B|256:212,1,60,2|2,0:0|0:0,0:0:0
296,300,66211,2,0,B|360:276|352:204,2,120,2|2|2,0:0|0:0|0:0,0:0:0
248,300,67166,1,8,0:0:0
164,256,67549,6,0,B|104:232|49:267,2,120,2|10|6,0:0|0:0|0:0,0:0:0
256,224,68695,2,0,B|256:156,1,60,8|0,0:0|0:0,0:0:0
348,128,69268,2,0,B|408:152|462:116,2,120,2|2|0,0:0|0:0|0:0,0:0:0
320,88,70224,1,8,0:0:0
256,160,70606,1,0,0:0:0
192,88,70988,1,8,0:0:0
256,160,71370,6,0,B|312:184|312:184|312:243,1,120,0|8,0:0|0:0,0:0:0
236,300,72135,2,0,B|268:354|356:354|388:300,1,180,0|4,0:0|0:0,0:0:0
412,208,73090,2,0,B|345:203|315:263,1,120,0|4,0:0|0:0,0:0:0
248,196,73854,1,0,0:0:0
228,152,74045,6,0,B|294:156|324:96,1,120,0|4,0:0|0:0,0:0:0
236,56,74810,1,8,0:0:0
160,116,75192,2,0,B|93:111|63:171,1,120,0|8,0:0|0:0,0:0:0
40,264,75956,2,0,B|106:268|136:208,1,120,0|8,0:0|0:0,0:0:0
224,164,76721,6,0,B|290:159|320:219,2,120,2|10|2,0:0|0:0|0:0,0:0:0
236,260,77867,2,0,B|236:320,1,60,2|2,0:0|0:0,0:0:0
328,300,78440,1,2,0:0:0
392,372,78823,2,0,B|440:320|415:261,1,120,2|2,0:0|0:0,0:0:0
388,220,79396,1,8,0:0:0
312,160,79778,6,0,B|352:108|419:126,2,120,2|10|6,0:0|0:0|0:0,0:0:0
256,236,80924,1,8,0:0:0
200,160,81307,2,0,B|160:108|92:126,2,120,0|8|0,0:0|0:0|0:0,0:0:0
256,236,82453,1,8,0:0:0
200,316,82835,6,0,B|256:354|312:316,2,120,2|10|2,0:0|0:0|0:0,0:0:0
208,220,83982,1,8,0:0:0
304,220,84364,1,0,0:0:0
360,144,84746,6,0,B|304:121,1,60,8|4,0:3|0:0,0:0:0
207,121,85319,2,0,B|152:144,1,60,0|4,0:3|0:0,0:3:0
228,204,85893,2,0,B|256:184|284:204,1,60,0|4,0:0|0:0,0:0:0
340,284,86466,2,0,B|256:341|172:284,1,180,4|2,0:0|0:0,0:0:0
96,224,87421,1,6,0:0:0
