osu file format v10

[General]
AudioFilename: sora no otoshimono.mp3
AudioLeadIn: 2000
PreviewTime: 61285
Countdown: 0
SampleSet: Soft
StackLeniency: 0.7
Mode: 0
LetterboxInBreaks: 0

[Editor]
DistanceSpacing: 1
BeatDivisor: 4
GridSize: 4

[Metadata]
Title:Heart no Kakuritsu (TV Size)
TitleUnicode:Heart no Kakuritsu (TV Size)
Artist:blue drops
ArtistUnicode:blue drops
Creator:Darksonic
Version:Insane
Source:Sora no Otoshimono: Forte
Tags:opening sekai-nyan verdisphena
BeatmapID:180925
BeatmapSetID:60524

[Difficulty]
HPDrainRate:7
CircleSize:4
OverallDifficulty:7
ApproachRate:8
SliderMultiplier:1.8
SliderTickRate:2

[Events]
//Background and Video events
Video,575,"Sora no Otoshimono Forte Opening.avi"
0,0,"BG.jpeg"
//Break Periods
//Storyboard Layer 0 (Background)
//Storyboard Layer 1 (Fail)
//Storyboard Layer 2 (Pass)
//Storyboard Layer 3 (Foreground)
//Storyboard Sound Samples
//Background Colour Transformations
3,100,163,162,255

[TimingPoints]
288,382.165605095541,4,2,0,60,1,0
1434,-133.333333333333,4,2,0,60,0,0
7166,-100,4,2,0,70,0,0
11561,-100,4,1,0,65,0,0
13090,-100,4,2,1,70,0,0
36784,-100,4,2,0,70,0,0
37166,-100,4,1,0,65,0,0
38122,-100,4,2,1,70,0,0
49396,-100,4,1,0,65,0,0
49969,-100,4,2,1,70,0,0
59523,-100,4,1,0,65,0,0
60479,-100,4,2,0,70,0,0
61434,-100,4,2,0,25,0,0
61625,-100,4,2,0,40,0,0
61816,-100,4,2,0,55,0,0
62007,-100,4,2,0,70,0,0
62198,-100,4,2,1,75,0,1
72708,-100,4,2,1,70,0,1
73663,-100,4,2,1,70,0,0
73854,-100,4,1,0,70,0,0
74428,-100,4,2,1,75,0,1
85319,-100,4,1,0,70,0,1
85510,-100,4,2,0,75,0,1
85893,-100,4,1,0,70,0,1
86084,-100,4,2,0,75,0,1
87421,-100,4,2,0,70,0,0

[Colours]
Combo1 : 255,111,111
Combo2 : 255,255,128
Combo3 : 21,180,255
Combo4 : 255,164,119

[HitObjects]
176,192,288,1,2,0:0:0
200,128,479,1,0,0:0:0
256,88,670,1,0,0:0:0
312,128,861,1,2,0:0:0
336,192,1052,1,2,0:0:0
176,192,1434,6,0,B|108:192,1,67.5000025749208
336,192,2007,2,0,B|471:192,1,135.000005149842
471,192,2580,1,2,0:0:0
360,272,2963,1,0,0:0:0
256,184,3345,5,0,0:0:0
193,212,3536,1,0,0:0:0
126,201,3727,1,0,0:0:0
114,133,3918,1,2,0:0:0
143,70,4109,1,2,0:0:0
256,184,4491,6,0,B|256:116,1,67.5000025749208
220,248,5065,2,0,B|256:305|256:305|292:248,2,135.000005149842,2|2|2,0:0|0:0|0:0,0:0:0
288,130,6402,5,2,0:0:0
406,199,6593,1,0,0:0:0
338,316,6784,1,2,0:0:0
220,248,6975,1,0,0:0:0
288,130,7166,6,0,B|209:90|112:110,1,180,4|2,0:0|0:0,0:0:0
96,200,7740,2,0,B|175:240|271:220,1,180
288,130,8313,1,2,0:0:0
340,56,8504,2,0,B|412:112|412:112|412:200,1,180
380,284,9077,1,2,0:0:0
304,336,9268,1,0,0:0:0
256,208,9459,5,2,0:0:0
152,120,9651,1,0,0:0:0
256,36,9842,1,2,0:0:0
360,120,10033,1,0,0:0:0
256,208,10224,6,0,B|208:228|184:276|208:324|256:344,1,180,2|2,0:0|0:0,0:0:0
372,276,10797,2,0,B|282:276,1,90,0|2,0:0|0:0,0:0:0
160,336,11179,1,0,0:0:0
104,212,11370,1,2,0:0:0
104,76,11561,1,4,0:0:0
408,76,11944,5,0,0:0:0
408,212,12135,2,0,B|392:264|342:261,1,90,0|0,0:0|0:0,0:0:0
104,76,12517,5,0,0:0:0
104,212,12708,2,0,B|119:264|169:261,1,90,0|0,0:0|0:0,0:0:0
300,136,13090,6,0,B|268:96|256:58|256:58|244:96|212:136,1,180,4|0,0:0|0:0,0:0:0
170,215,13663,2,0,B|255:263|341:215,1,180,10|0,0:0|0:0,0:0:0
300,136,14237,2,0,B|256:151|212:136,1,90,0|8,0:0|0:0,0:0:0
170,215,14619,1,0,0:0:0
342,214,14810,2,0,B|444:208|479:116,1,180,2|8,0:0|0:0,0:0:0
428,40,15383,1,0,0:0:0
364,104,15574,2,0,B|473:247,1,180,2|8,0:0|0:0,0:0:0
348,300,16147,1,8,0:0:0
224,356,16338,6,0,B|115:213,1,180,6|8,0:0|0:0,0:0:0
180,152,16912,1,0,0:0:0
212,68,17103,1,0,0:0:0
300,68,17294,5,2,0:0:0
356,192,17485,1,10,0:0:0
300,316,17676,1,2,0:0:0
184,248,17867,2,0,B|92:208|96:104,1,180,0|8,0:0|0:0,0:0:0
232,120,18440,1,0,0:0:0
184,248,18631,5,2,0:0:0
184,248,18727,1,0,0:0:0
184,248,18823,1,0,0:0:0
256,360,19014,1,8,0:0:0
328,248,19205,1,2,0:0:0
328,248,19300,1,0,0:0:0
328,248,19396,1,6,0:0:0
256,132,19587,6,0,B|256:222,1,90,0|8,0:0|0:0,0:0:0
208,300,19969,2,0,B|172:328|123:324,1,90
304,300,20351,2,0,B|340:328|388:324,2,90,2|8|2,0:0|0:0|0:0,0:0:0
200,212,20924,2,0,B|280:212|280:212|288:160|341:140,1,180,2|8,0:0|0:0,0:0:0
368,228,21498,1,0,0:0:0
452,192,21689,2,0,B|480:240|452:312|375:324,1,180,2|10,0:0|0:0,0:0:0
256,264,22262,5,8,0:0:0
256,264,22358,1,0,0:0:0
256,264,22453,1,4,0:0:0
136,326,22644,2,0,B|98:319|84:283|98:259,1,90,0|10,0:0|0:0,0:0:0
144,184,23026,1,0,0:0:0
272,140,23217,6,0,B|268:67|188:47,2,135,2|2|2,0:0|0:0|0:0,0:0:0
272,176,23886,1,2,0:0:0
272,212,23982,1,6,0:0:0
444,268,24173,1,4,0:0:0
404,92,24364,1,4,0:0:0
272,212,24555,1,4,0:0:0
272,212,24937,2,2,B|187:251|79:144|119:59,1,270,2|4,0:0|0:0,0:0:0
256,52,25702,6,0,B|256:142,1,90,0|2,0:0|0:0,0:0:0
332,192,26084,1,0,0:0:0
296,276,26275,2,0,B|256:312|216:276,1,90
180,192,26657,1,2,0:0:0
216,108,26848,6,0,B|256:72|296:108,1,90,2|0,0:0|0:0,0:0:0
384,208,27230,2,0,B|344:244|304:208,1,90,2|0,0:0|0:0,0:0:0
128,208,27612,2,0,B|168:244|208:208,1,90,2|0,0:0|0:0,0:0:0
256,332,27995,1,2,0:0:0
256,332,28186,1,0,0:0:0
256,332,28377,2,0,B|256:152,1,180,2|0,0:0|0:0,0:0:0
192,88,28950,6,0,B|152:112|152:112|152:155,1,90,2|0,0:0|0:0,0:0:0
320,88,29332,2,0,B|360:112|360:112|360:155,1,90
360,244,29714,1,2,0:0:0
208,340,29905,6,0,B|208:288|160:260,1,90,2|0,0:0|0:0,0:0:0
304,340,30287,2,0,B|304:288|352:260,1,90,2|0,0:0|0:0,0:0:0
172,176,30670,2,0,B|150:128|94:123,1,90,2|0,0:0|0:0,0:0:0
340,176,31052,2,0,B|361:128|417:123,1,90,2|0,0:0|0:0,0:0:0
256,32,31434,2,2,B|256:212,1,180,2|0,0:0|0:0,0:0:0
172,176,32007,5,2,0:0:0
184,264,32198,1,0,0:0:0
216,348,32389,2,0,B|256:327|256:327|296:348,1,90
328,264,32772,1,2,0:0:0
340,176,32963,6,0,B|368:88,1,90,2|0,0:0|0:0,0:0:0
172,176,33345,2,0,B|144:90,1,90,2|0,0:0|0:0,0:0:0
328,264,33727,2,0,B|416:240,1,90,2|0,0:0|0:0,0:0:0
184,264,34109,2,0,B|96:240,1,90,2|0,0:0|0:0,0:0:0
176,80,34491,6,0,B|215:126|297:126|336:80,1,180,2|0,0:0|0:0,0:0:0
256,36,35065,2,0,B|256:216,1,180,2|0,0:0|0:0,0:0:0
296,296,35638,2,0,B|282:318|230:318|216:296,1,90,0|2,0:0|0:0,0:0:0
148,236,36020,1,0,0:0:0
148,236,36211,1,0,0:0:0
256,156,36402,5,8,0:0:0
256,156,36593,1,4,0:0:0
364,236,36784,1,0,0:0:0
364,236,36975,1,0,0:0:0
256,156,37166,1,0,0:0:0
224,168,37262,1,0,0:0:0
200,196,37358,1,0,0:0:0
184,228,37453,1,0,0:0:0
176,264,37549,2,0,B|176:312,2,45,0|0|4,0:0|0:0|0:0,0:0:0
340,344,38122,6,0,B|384:332|412:292,1,90,8|0,0:0|0:0,0:0:0
464,220,38504,1,0,0:0:0
448,132,38695,1,0,0:0:0
388,64,38886,1,8,0:0:0
256,40,39077,6,0,B|212:52|184:92,1,90,2|0,0:0|0:0,0:0:0
144,220,39459,2,0,B|188:208|216:168,1,90,2|8,0:0|0:0,0:0:0
368,220,39842,2,0,B|324:208|296:168,1,90,2|0,0:0|0:0,0:0:0
256,40,40224,2,0,B|300:52|328:92,1,90,2|8,0:0|0:0,0:0:0
368,220,40606,2,0,B|312:291|312:291|268:272|225:291,1,180,2|0,0:0|0:0,0:0:0
132,192,41179,6,0,B|152:140|199:140,1,90,8|0,0:0|0:0,0:0:0
256,72,41561,1,0,0:0:0
312,140,41752,2,0,B|360:140|380:192,1,90,0|8,0:0|0:0,0:0:0
376,328,42135,6,0,B|328:328|308:276,1,90,2|0,0:0|0:0,0:0:0
135,144,42517,2,0,B|183:144|203:196,1,90,2|8,0:0|0:0,0:0:0
136,328,42899,2,0,B|183:328|203:276,1,90,2|0,0:0|0:0,0:0:0
376,144,43281,2,0,B|329:144|309:196,1,90,2|12,0:0|0:0,0:0:0
135,144,43663,2,0,B|191:73|191:73|235:92|278:73,1,180,2|0,0:0|0:0,0:0:0
360,36,44237,5,8,0:0:0
436,88,44428,1,0,0:0:0
460,176,44619,2,0,B|464:224|417:250,1,90
340,296,45001,1,8,0:0:0
160,300,45192,6,0,B|172:252|216:232,1,90,2|0,0:0|0:0,0:0:0
84,200,45574,2,0,B|118:164|166:169,1,90,2|8,0:0|0:0,0:0:0
256,72,45956,2,0,B|256:162,1,90,2|0,0:0|0:0,0:0:0
428,200,46338,2,0,B|393:164|345:169,1,90,2|8,0:0|0:0,0:0:0
352,300,46721,2,0,B|340:252|296:232,1,90,2|0,0:0|0:0,0:0:0
256,152,47103,1,0,0:0:0
216,232,47294,6,0,B|172:252|160:300,1,90,10|0,0:0|0:0,0:0:0
112,224,47676,2,0,B|68:204|56:156,1,90,2|2,0:0|0:0,0:0:0
144,144,48058,1,8,0:0:0
256,68,48249,5,8,0:0:0
416,152,48440,1,8,0:0:0
302,291,48631,1,8,0:0:0
301,291,49014,2,0,B|415:152,1,180,0|0,0:0|0:0,0:0:0
440,116,49491,1,0,0:0:0
436,72,49587,1,0,0:0:0
400,48,49682,1,0,0:0:0
356,40,49778,1,0,0:0:0
316,60,49873,1,0,0:0:0
288,96,49969,6,0,B|240:76|192:96|192:96|192:177,1,180,4|8,0:0|0:0,0:0:0
192,268,50542,1,0,0:0:0
256,332,50733,1,0,0:0:0
320,268,50924,2,0,B|352:232|396:224,2,90,0|8|4,0:0|0:0|0:0,0:0:0
256,204,51498,1,0,0:0:0
192,268,51689,6,0,B|160:232|115:224,2,90,2|10|2,0:0|0:0|0:0,0:0:0
320,268,52262,2,0,B|352:232|396:224,2,90,2|2|10,0:0|0:0|0:0,0:0:0
256,332,52835,1,0,0:0:0
192,268,53026,6,0,B|117:221|121:113,1,180,4|8,0:0|0:0,0:0:0
121,112,53600,1,0,0:0:0
252,156,53791,1,2,0:0:0
319,273,53982,1,2,0:0:0
437,205,54173,1,10,0:0:0
369,88,54364,2,0,B|328:68|282:68,1,90,6|0,0:0|0:0,0:0:0
176,152,54746,6,0,B|130:155|90:178,2,90,2|10|2,0:0|0:0|0:0,0:0:0
336,232,55319,2,0,B|381:228|421:205,2,90,2|2|10,0:0|0:0|0:0,0:0:0
256,72,55893,1,0,0:0:0
176,232,56084,6,0,B|92:180|96:80,1,180,6|8,0:0|0:0,0:0:0
336,152,56657,2,0,B|420:204|416:304,1,180,6|0,0:0|0:0,0:0:0
176,232,57230,1,8,0:0:0
336,152,57421,1,0,0:0:0
296,280,57612,6,0,B|244:364|144:360,1,180,4|8,0:0|0:0,0:0:0
216,120,58186,2,0,B|268:36|368:40,1,180,6|0,0:0|0:0,0:0:0
296,280,58759,1,8,0:0:0
216,120,58950,1,0,0:0:0
396,112,59141,6,0,B|281:183,1,135,4|0,0:0|0:0,0:0:0
252,204,59523,1,0,0:0:0
220,224,59619,1,0,0:0:0
196,252,59714,1,0,0:0:0
184,288,59810,1,0,0:0:0
196,320,59905,1,0,0:0:0
220,348,60001,1,0,0:0:0
256,356,60096,1,0,0:0:0
292,348,60192,1,0,0:0:0
316,320,60287,1,0,0:0:0
328,288,60383,1,0,0:0:0
316,252,60479,5,4,0:0:0
188,116,60861,1,4,0:0:0
324,116,61052,1,4,0:0:0
256,280,61434,5,2,0:0:0
360,192,61625,1,2,0:0:0
256,104,61816,1,2,0:0:0
152,192,62007,1,2,0:0:0
256,280,62198,6,0,B|304:272|341:300,1,90,4|0,0:0|0:0,0:0:0
256,192,62580,1,8,0:0:0
256,104,62772,2,0,B|208:112|170:83,1,90
66,171,63154,2,0,B|114:163|152:192,1,90,0|8,0:0|0:0,0:0:0
172,324,63536,2,0,B|172:272|200:236|256:209|312:236|340:272|340:324,1,270,0|8,0:0|0:0,0:0:0
400,256,64300,1,0,0:0:0
256,320,64491,5,2,0:0:0
156,228,64682,1,2,0:0:0
284,188,64873,1,10,0:0:0
256,320,65065,1,2,0:0:0
156,228,65256,6,0,B|184:180|163:142,1,90
356,228,65638,2,0,B|328:180|348:142,1,90,8|0,0:0|0:0,0:0:0
256,44,66020,1,0,0:0:0
392,48,66211,6,0,B|440:68|446:114,1,90,2|8,0:0|0:0,0:0:0
312,124,66593,2,0,B|343:165|326:208,1,90,2|0,0:0|0:0,0:0:0
192,196,66975,2,0,B|198:247|162:276,1,90,2|8,0:0|0:0,0:0:0
100,212,67358,1,0,0:0:0
320,196,67549,6,0,B|313:247|349:276,2,90,2|2|10,0:0|0:0|0:0,0:0:0
412,212,68122,1,2,0:0:0
341,48,68313,6,0,B|283:48|283:48|227:84|227:84|171:84,1,180,4|8,0:0|0:0,0:0:0
160,172,68886,2,0,B|200:204|189:252,1,90
352,172,69268,2,0,B|312:204|322:252,1,90,0|8,0:0|0:0,0:0:0
212,108,69651,2,0,B|248:140|256:185|256:185|264:140|300:108,1,180
432,144,70224,2,0,B|436:244|346:290,1,180,8|2,0:0|0:0,0:0:0
300,164,70797,5,2,0:0:0
256,36,70988,1,10,0:0:0
212,164,71179,1,2,0:0:0
165,290,71370,2,0,B|76:244|79:144,2,180,0|8|0,0:0|0:0|0:0,0:0:0
212,164,72326,1,0,0:0:0
256,292,72517,1,8,0:0:0
300,164,72708,6,0,B|283:118|306:68|356:45|401:62,1,180,4|0,0:0|0:0,0:0:0
390,152,73281,1,8,0:0:0
481,141,73472,2,0,B|497:186|474:236|424:259|379:242,1,180,4|0,0:0|0:0,0:0:0
378,241,73950,1,0,0:0:0
378,241,74045,1,0,0:0:0
378,241,74141,1,0,0:0:0
378,241,74237,1,0,0:0:0
134,241,74428,6,0,B|132:192|177:166,1,90,4|0,0:0|0:0,0:0:0
256,56,74810,1,8,0:0:0
378,241,75001,2,0,B|380:192|335:166,1,90
256,56,75383,2,0,B|256:146,1,90,0|8,0:0|0:0,0:0:0
216,276,75765,6,0,B|170:293|120:270|96:219|114:175,1,180,0|0,0:0|0:0,0:0:0
201,188,76338,2,0,B|70:318,1,180,8|2,0:0|0:0,0:0:0
204,348,76912,5,2,0:0:0
320,280,77103,1,10,0:0:0
368,140,77294,1,2,0:0:0
316,16,77485,6,0,B|256:83|256:83|196:16,1,180,0|8,0:0|0:0,0:3:0
144,140,78058,2,0,B|164:180|214:191,1,90
368,140,78440,2,0,B|348:180|297:191,1,90,0|8,0:0|0:0,0:0:0
196,368,78823,2,0,B|256:301|256:301|316:368,1,180,0|0,0:0|0:0,0:3:0
392,320,79396,1,8,0:0:0
344,244,79587,1,0,0:0:0
256,216,79778,5,2,0:0:0
144,140,79969,1,2,0:0:0
188,12,80160,1,2,0:0:0
324,12,80351,1,2,0:0:0
368,140,80542,6,0,B|368:236|292:297,1,180,4|8,0:0|0:0,0:0:0
144,140,81116,2,0,B|144:236|220:297,1,180,0|0,0:0|0:0,0:0:0
256,168,81689,1,8,0:0:0
176,60,81880,2,0,B|212:20|256:54|256:54|300:20|336:60,1,180
416,168,82453,1,8,0:0:0
336,60,82644,1,0,0:0:0
256,168,82835,6,0,B|166:168,2,90,2|2|10,0:0|0:0|0:0,0:0:0
336,60,83409,1,2,0:0:0
416,168,83600,2,0,B|405:218|416:257|416:257|380:238|329:239,1,180,0|8,0:0|0:0,0:0:0
256,352,84173,1,0,0:0:0
160,260,84364,1,0,0:0:0
160,124,84555,1,0,0:0:0
256,28,84746,1,8,0:0:0
352,124,84937,2,0,B|312:151|312:151|312:192,1,90,4|0,0:0|0:0,0:0:0
160,124,85319,5,0,0:0:0
160,124,85510,2,0,B|200:151|200:151|200:192,1,90,4|0,0:0|0:0,0:0:0
352,260,85893,1,0,0:0:0
352,260,86084,2,0,B|312:233|312:233|312:192,1,90,4|0,0:0|0:0,0:0:0
256,28,86466,2,0,B|256:118,1,90,4|0,0:0|0:0,0:0:0
189,236,86848,5,2,0:0:0
306,303,87039,1,2,0:0:0
374,186,87230,1,2,0:0:0
256,118,87421,1,6,0:0:0
