osu file format v12

[General]
AudioFilename: bj.HaLo - G-garden.mp3
AudioLeadIn: 0
PreviewTime: 13105
Countdown: 0
SampleSet: Soft
StackLeniency: 0.4
Mode: 0
LetterboxInBreaks: 0
WidescreenStoryboard: 0

[Editor]
Bookmarks: 21833,30560,32742,39287,48015,49105,56742,65469,74196,82924,91651,92742,93833,102560,111287,128742,135219
DistanceSpacing: 0.9
BeatDivisor: 4
GridSize: 4

[Metadata]
Title:G-garden
TitleUnicode:G-garden
Artist:bj.HaLo
ArtistUnicode:bj.HaLo
Creator:ampzz
Version:Another
Source:
Tags:Symphonic Metal Archlich galvenize fartownik OnosakiHito
BeatmapID:247697
BeatmapSetID:49009

[Difficulty]
HPDrainRate:7
CircleSize:4
OverallDifficulty:8
ApproachRate:10
SliderMultiplier:1.7
SliderTickRate:1

[Events]
//Background and Video events
0,0,"G-garden - Background.jpg",0,0
//Break Periods
2,32942,38565
//Storyboard Layer 0 (Background)
//Storyboard Layer 1 (Fail)
//Storyboard Layer 2 (Pass)
//Storyboard Layer 3 (Foreground)
//Storyboard Sound Samples
//Background Colour Transformations
3,100,0,0,0

[TimingPoints]
15,272.727272727273,4,2,1,70,1,0
3284,-100,4,2,1,40,0,0
3421,-100,4,2,1,70,0,0
3966,-100,4,1,1,70,0,0
10105,-100,4,1,1,80,0,0
10378,-100,4,1,1,70,0,0
10651,-100,4,1,1,90,0,0
10787,-100,4,1,1,70,0,0
13105,-100,4,1,1,70,0,0
19651,-100,4,1,1,70,0,0
21833,-90.9090909090909,4,1,1,85,0,0
32742,-100,4,1,1,40,0,0
32742,-100,4,1,1,70,0,0
39287,-133.333333333333,4,1,1,70,0,0
47742,-100,4,1,1,70,0,0
47878,-100,4,1,1,70,0,0
74196,-100,4,1,1,70,0,1
74265,-100,4,1,1,70,0,0
74333,-100,4,1,1,70,0,1
74401,-100,4,1,1,70,0,0
76378,-100,4,1,1,70,0,1
76446,-100,4,1,1,70,0,0
76515,-100,4,1,1,70,0,1
76583,-100,4,1,1,70,0,0
78560,-100,4,1,1,70,0,1
78628,-100,4,1,1,70,0,0
78696,-100,4,1,1,70,0,1
78765,-100,4,1,1,70,0,0
80742,-100,4,1,1,70,0,1
80810,-100,4,1,1,70,0,0
80878,-100,4,1,1,70,0,1
80946,-100,4,1,1,70,0,0
82924,-100,4,1,1,70,0,1
91651,-100,4,1,1,70,0,0
102560,-100,4,1,1,70,0,1
111287,-100,4,1,1,70,0,0

[Colours]
Combo1 : 128,64,0
Combo2 : 255,128,0
Combo3 : 255,50,0

[HitObjects]
160,136,15,2,0,L|244:136,1,85,2|0,0:0|0:0,0:0:0:0:
352,248,287,2,0,L|268:248,1,85
96,92,560,2,0,P|132:64|184:64,1,85,2|0,0:0|0:0,0:0:0:0:
416,292,833,2,0,P|380:320|328:320,1,85
172,280,1105,1,2,0:0:0:0:
256,32,1378,1,2,0:0:0:0:
340,280,1651,5,2,0:0:0:0:
409,229,1787,1,0,0:0:0:0:
383,148,1924,1,2,0:0:0:0:
297,149,2060,1,0,0:0:0:0:
272,229,2196,2,0,P|236:252|192:256,1,85,2|0,0:0|0:0,0:0:0:0:
76,132,2469,2,0,P|116:140|152:168,1,85,2|0,0:0|0:0,0:0:0:0:
116,328,2742,2,0,P|92:292|88:252,1,85,2|0,0:0|0:0,0:0:0:0:
228,80,3015,2,0,P|252:116|256:160,1,85,2|0,0:0|0:0,0:0:0:0:
204,300,3287,5,2,0:0:0:0:
390,76,3560,1,2,0:0:0:0:
360,324,3833,1,2,0:0:0:0:
320,232,3969,1,8,0:0:0:0:
296,207,4037,1,0,0:0:0:0:
264,196,4105,2,0,P|220:196|184:216,1,85,8|0,0:0|2:0,0:0:0:0:
88,284,4378,6,0,P|16:252|16:168,1,170,4|8,0:0|0:0,0:0:0:0:
36,144,4719,1,0,0:0:0:0:
68,128,4787,1,0,0:0:0:0:
100,128,4855,1,0,0:0:0:0:
132,136,4924,2,0,L|168:160,3,42.5,8|0|0|0,0:0|0:0|0:0|0:0,0:0:0:0:
204,80,5196,2,0,L|248:68,4,42.5,8|0|8|0|12,0:0|0:0|0:0|0:0|0:0,0:0:0:0:
256,276,5742,1,4,0:2:0:0:
400,132,6015,2,0,P|440:120|484:124,1,85
484,236,6287,2,0,P|444:248|400:244,1,85,4|0,0:2|0:0,0:0:0:0:
252,144,6560,6,0,P|208:144|168:160,1,85,4|0,0:2|2:0,0:0:0:0:
76,256,6833,1,0,0:0:0:0:
64,288,6901,1,0,0:0:0:0:
64,320,6969,1,0,0:0:0:0:
76,352,7037,1,0,0:0:0:0:
96,376,7105,1,0,0:0:0:0:
180,300,7242,1,0,0:0:0:0:
284,268,7378,1,0,0:0:0:0:
388,304,7515,1,0,0:0:0:0:
292,360,7651,6,0,P|256:336|236:300,1,85,4|0,0:3|2:0,0:0:0:0:
312,104,7924,2,0,P|320:146|309:186,1,85,0|0,0:0|2:0,0:0:0:0:
288,212,8128,1,0,0:0:0:0:
256,224,8196,1,8,0:0:0:0:
164,216,8333,1,0,0:0:0:0:
96,152,8469,1,8,0:0:0:0:
116,60,8605,1,8,0:0:0:0:
256,192,8742,12,0,9560,0:0:0:0:
256,248,9696,5,8,0:0:0:0:
256,248,9833,1,8,0:0:0:0:
256,76,10105,1,4,0:2:0:0:
344,220,10378,1,0,0:0:0:0:
256,168,10514,1,0,0:0:0:0:
168,220,10651,2,0,P|164:260|180:300,1,85,4|0,0:2|0:0,0:0:0:0:
304,352,10924,6,8,L|388:368,1,85,8|0,0:0|0:0,0:0:0:0:
428,220,11196,2,0,L|360:272,1,85,8|0,0:0|0:0,0:0:0:0:
217,290,11469,2,0,L|168:219,1,85,8|8,0:0|0:0,0:0:0:0:
172,76,11741,2,0,L|256:64,1,85,8|0,0:0|0:0,0:0:0:0:
374,46,12014,1,8,0:0:0:0:
436,148,12151,1,12,0:0:0:0:
353,233,12287,1,8,0:0:0:0:
244,182,12424,1,8,0:0:0:0:
152,258,12560,5,8,0:0:0:0:
152,258,12628,1,8,0:0:0:0:
152,258,12696,1,8,0:0:0:0:
152,258,12764,1,8,0:0:0:0:
152,258,12833,1,8,0:0:0:0:
152,258,12901,1,8,0:0:0:0:
152,258,12969,1,8,0:0:0:0:
152,258,13037,1,8,0:0:0:0:
152,258,13105,6,0,P|108:266|64:266,2,85,6|0|0,0:0|0:0|0:0,0:0:0:0:
244,182,13514,1,2,0:0:0:0:
220,100,13651,2,0,P|176:88|136:88,1,85,0|0,0:0|0:0,0:0:0:0:
292,252,13924,2,0,P|336:264|376:264,2,85,2|0|0,0:0|0:0|0:0,0:0:0:0:
356,136,14333,1,2,0:0:0:0:
356,136,14469,2,0,L|376:52,1,85
220,100,14742,2,0,L|200:184,1,85,2|0,0:0|0:0,0:0:0:0:
164,292,15014,1,2,0:0:0:0:
260,260,15151,1,2,0:0:0:0:
320,344,15287,6,0,P|360:356|404:352,2,85,6|0|0,0:0|0:0|0:0,0:0:0:0:
372,240,15696,2,0,P|412:228|456:232,2,85,2|0|0,0:0|0:0|0:0,0:0:0:0:
248,352,16105,2,0,P|204:364|164:364,1,85,2|0,0:0|0:0,0:0:0:0:
104,260,16378,1,0,0:0:0:0:
194,183,16514,2,0,P|231:204|260:236,2,85,2|0|0,0:0|0:0|0:0,0:0:0:0:
76,168,16924,2,0,P|45:141|25:103,1,85,2|0,0:0|0:0,0:0:0:0:
204,28,17196,2,0,P|235:55|254:93,1,85,2|0,0:0|0:0,0:0:0:0:
260,236,17469,6,0,P|304:248|344:248,1,85,6|0,0:0|0:0,0:0:0:0:
452,192,17742,1,0,0:0:0:0:
452,192,17878,2,0,P|464:152|468:108,1,85,2|0,0:0|0:0,0:0:0:0:
316,136,18151,1,0,0:0:0:0:
316,136,18287,2,0,P|300:92|283:56,1,85,2|0,0:0|0:0,0:0:0:0:
196,184,18560,1,0,0:0:0:0:
196,184,18696,2,0,P|156:164|117:150,1,85,2|0,0:0|0:0,0:0:0:0:
60,256,18969,1,0,0:0:0:0:
128,352,19105,2,0,P|164:364|212:360,1,85,2|0,0:0|0:0,0:0:0:0:
200,272,19378,2,0,P|240:260|284:268,1,85,2|0,0:0|0:0,0:0:0:0:
412,312,19651,6,2,P|455:239|412:176,1,170,6|0,0:0|0:0,0:0:0:0:
376,244,20060,2,2,P|333:173|376:108,1,170,0|0,0:0|0:0,0:0:0:0:
284,28,20469,2,0,P|240:32|204:52,1,85,8|0,0:0|0:0,0:0:0:0:
124,172,20742,6,2,P|192:216|256:168,1,170,4|0,0:0|0:0,0:0:0:0:
188,120,21151,2,2,P|196:204|228:284,1,170,8|0,0:0|0:0,0:0:0:0:
352,352,21560,1,8,0:0:0:0:
388,360,21628,1,8,0:0:0:0:
424,356,21696,1,8,0:0:0:0:
456,332,21765,1,8,0:0:0:0:
472,300,21833,6,0,P|472:252|448:212,2,93.5000028533936,6|0|0,0:0|0:0|0:0,0:0:0:0:
324,332,22242,1,2,0:0:0:0:
308,192,22378,2,0,P|260:184|216:184,1,93.5000028533936,4|0,0:0|0:0,0:0:0:0:
92,212,22651,2,0,L|4:248,1,93.5000028533936,8|0,0:0|0:0,0:0:0:0:
111,321,22924,1,8,0:0:0:0:
230,275,23060,2,0,P|230:232|216:184,1,93.5000028533936,0|2,0:0|0:0,0:0:0:0:
110,106,23333,1,0,0:0:0:0:
236,68,23469,2,0,P|284:68|328:76,1,93.5000028533936,2|0,0:0|0:0,0:0:0:0:
424,152,23742,1,8,0:0:0:0:
440,184,23810,1,0,0:0:0:0:
448,220,23878,1,8,0:0:0:0:
444,256,23946,1,0,0:0:0:0:
432,292,24015,6,0,P|412:336|384:372,1,93.5000028533936,12|0,0:0|0:0,0:0:0:0:
266,342,24287,1,0,0:0:0:0:
328,236,24424,2,0,P|336:192|324:144,2,93.5000028533936,4|0|0,0:0|0:0|0:0,0:0:0:0:
200,344,24833,2,0,P|157:346|106:334,1,93.5000028533936,0|0,0:0|0:0,0:0:0:0:
23,224,25105,1,8,0:0:0:0:
160,192,25242,2,0,L|256:192,2,93.5000028533936
112,324,25651,2,0,P|156:344|200:344,1,93.5000028533936,6|0,0:0|0:0,0:0:0:0:
400,60,25924,2,0,P|356:40|312:40,1,93.5000028533936,8|0,0:0|0:0,0:0:0:0:
276,52,26128,1,0,0:0:0:0:
248,76,26196,6,0,L|248:172,1,93.5000028533936,12|0,0:0|0:0,0:0:0:0:
332,304,26469,1,0,0:0:0:0:
408,232,26605,2,0,P|364:208|320:208,1,93.5000028533936,0|0,0:0|0:0,0:0:0:0:
180,304,26878,1,0,0:0:0:0:
288,364,27015,2,0,P|288:316|268:276,1,93.5000028533936,0|0,0:0|0:0,0:0:0:0:
148,228,27287,1,8,0:0:0:0:
52,324,27424,1,0,0:0:0:0:
16,192,27560,2,0,P|32:146|64:116,1,93.5000028533936
316,196,27833,2,0,P|272:212|224:212,1,93.5000028533936,8|0,0:0|0:0,0:0:0:0:
248,76,28105,1,8,0:0:0:0:
284,64,28174,1,0,0:0:0:0:
320,60,28242,1,8,0:0:0:0:
356,68,28310,1,0,0:0:0:0:
388,84,28378,6,0,P|437:87|480:76,2,93.5000028533936,12|0|0,0:0|0:0|0:0,0:0:0:0:
188,24,28787,2,0,P|138:21|96:32,2,93.5000028533936,0|0|0,0:0|0:0|0:0,0:0:0:0:
312,136,29196,1,0,0:0:0:0:
312,136,29469,5,4,0:0:0:0:
238,268,29605,1,0,0:0:0:0:
220,118,29742,1,8,0:0:0:0:
323,228,29878,1,0,0:0:0:0:
174,199,30015,2,0,P|148:240|148:288,1,93.5000028533936,4|0,0:0|0:0,0:0:0:0:
256,360,30287,1,8,0:0:0:0:
256,360,30355,1,0,0:0:0:0:
256,360,30424,1,8,0:0:0:0:
256,360,30492,1,0,0:0:0:0:
256,360,30560,1,4,0:0:0:0:
256,192,30628,12,4,32742,0:2:0:0:
288,224,39015,5,0,0:0:0:0:
288,224,39083,1,0,0:0:0:0:
288,224,39151,1,0,0:0:0:0:
288,224,39219,1,0,0:0:0:0:
288,224,39287,6,0,P|252:276|192:300,1,127.500004863739,2|0,0:0|0:0,0:0:0:0:
76,196,39696,2,0,P|138:184|197:210,1,127.500004863739,2|0,0:0|0:0,0:0:0:0:
328,320,40105,2,0,P|380:284|404:224,1,127.500004863739,2|0,0:0|0:0,0:0:0:0:
396,144,40515,1,0,0:0:0:0:
328,100,40651,1,2,0:0:0:0:
252,132,40787,1,2,0:0:0:0:
176,100,40924,2,0,P|144:88|112:84,1,63.7500024318696,2|2,0:0|0:0,0:0:0:0:
12,196,41196,2,0,L|76:196,1,63.7500024318696,2|0,0:0|0:0,0:0:0:0:
100,201,41401,1,0,0:0:0:0:
122,211,41469,6,0,P|140:272|120:331,1,127.500004863739,6|0,0:0|0:0,0:0:0:0:
45,270,41878,1,2,0:0:0:0:
88,124,42015,2,0,P|116:108|148:104,1,63.7500024318696
312,160,42287,2,0,P|344:164|376:157,2,63.7500024318696,2|0|0,0:0|0:0|0:0,0:0:0:0:
204,28,42696,2,0,P|176:16|140:8,2,63.7500024318696,2|0|0,0:0|0:0|0:0,0:0:0:0:
260,108,43105,1,2,0:0:0:0:
244,196,43242,1,0,0:0:0:0:
176,252,43378,2,0,P|159:222|152:192,1,63.7500024318696,2|0,0:0|0:0,0:0:0:0:
360,192,43651,6,0,P|360:256|336:316,1,127.500004863739,6|0,0:0|0:0,0:0:0:0:
264,364,44060,1,2,0:0:0:0:
180,340,44196,1,0,0:0:0:0:
176,252,44333,1,0,0:0:0:0:
116,188,44469,2,0,P|84:172|52:168,1,63.7500024318696,2|0,0:0|0:0,0:0:0:0:
56,256,44742,1,0,0:0:0:0:
136,296,44878,1,2,0:0:0:0:
224,280,45015,1,0,0:0:0:0:
256,196,45151,1,0,0:0:0:0:
204,124,45287,2,0,L|180:92,2,31.8750012159348,2|0|2,0:0|0:0|0:0,0:0:0:0:
340,220,45560,2,2,P|372:228|404:228,1,63.7500024318696,2|2,0:0|0:0,0:0:0:0:
400,56,45833,6,0,P|345:89|316:144,1,127.500004863739,6|0,0:0|0:0,0:0:0:0:
324,300,46242,2,0,L|344:360,2,63.7500024318696,2|0|0,0:0|0:0|0:0,0:0:0:0:
256,196,46651,2,0,P|228:180|196:176,1,63.7500024318696,2|0,0:0|0:0,0:0:0:0:
144,340,46924,2,0,P|172:356|204:360,1,63.7500024318696,2|0,0:0|0:0,0:0:0:0:
204,268,47196,1,0,0:0:0:0:
104,236,47333,2,0,P|93:205|91:174,1,63.7500024318696,2|0,0:0|0:0,0:0:0:0:
192,88,47605,1,0,0:0:0:0:
256,196,47742,1,2,0:0:0:0:
288,208,47810,1,0,0:0:0:0:
320,208,47878,1,0,0:0:0:0:
352,200,47946,1,0,0:0:0:0:
380,183,48015,6,0,P|396:145|402:103,1,85,2|0,0:0|0:0,0:0:0:0:
254,32,48287,2,0,P|219:55|192:87,1,85,0|0,0:0|0:0,0:0:0:0:
155,192,48560,1,0,0:0:0:0:
155,192,48628,1,0,0:0:0:0:
155,192,48696,1,0,0:0:0:0:
180,298,48833,2,0,P|217:319|259:322,1,85
155,192,49105,6,0,P|117:176|63:170,1,85
250,226,49378,2,0,P|292:220|331:206,1,85
364,185,49583,1,0,0:0:0:0:
392,159,49651,1,0,0:0:0:0:
403,122,49719,1,0,0:0:0:0:
405,83,49787,1,0,0:0:0:0:
394,46,49855,1,0,0:0:0:0:
364,20,49924,1,0,0:0:0:0:
290,106,50060,1,0,0:0:0:0:
317,235,50196,6,0,P|299:277|267:302,1,85
209,124,50469,2,0,P|186:91|149:64,2,85
241,230,50878,1,0,0:0:0:0:
150,293,51015,1,0,0:0:0:0:
61,227,51151,1,0,0:0:0:0:
98,122,51287,6,0,L|149:189,1,85
290,106,51560,2,0,L|377:145,1,85
402,157,51765,1,0,0:0:0:0:
437,171,51833,1,0,0:0:0:0:
471,187,51901,1,0,0:0:0:0:
505,202,51969,1,0,0:0:0:0:
512,308,52105,1,0,0:0:0:0:
413,376,52242,1,0,0:0:0:0:
336,285,52378,6,0,P|295:273|252:273,1,85,4|0,0:2|0:0,0:0:0:0:
91,349,52651,2,0,P|128:328|157:298,1,85
176,264,52855,1,0,0:0:0:0:
180,225,52924,1,0,0:0:0:0:
132,89,53060,1,0,0:0:0:0:
125,80,53196,1,0,0:0:0:0:
119,73,53333,1,0,0:0:0:0:
7,195,53469,6,0,P|34:222|80:241,1,85
210,159,53742,2,0,P|245:145|295:148,1,85
326,161,53946,1,0,0:0:0:0:
357,182,54015,1,0,0:0:0:0:
372,328,54151,1,0,0:0:0:0:
370,337,54287,1,0,0:0:0:0:
369,346,54424,1,0,0:0:0:0:
201,244,54560,6,0,L|209:159,1,85
118,306,54833,2,0,P|101:268|99:222,1,85
110,189,55037,1,0,0:0:0:0:
133,159,55105,1,0,0:0:0:0:
256,124,55242,1,0,0:0:0:0:
366,187,55378,1,0,0:0:0:0:
431,75,55515,1,0,0:0:0:0:
429,70,55583,1,0,0:0:0:0:
426,66,55651,6,0,P|385:44|347:37,1,85,4|0,0:0|0:0,0:0:0:0:
207,54,55924,1,4,0:2:0:0:
176,83,55992,1,0,0:0:0:0:
163,123,56060,1,0,0:0:0:0:
170,164,56128,1,0,0:0:0:0:
189,201,56196,1,8,0:0:0:0:
329,260,56333,1,8,0:0:0:0:
440,154,56469,1,8,0:0:0:0:
394,126,56537,1,8,0:0:0:0:
349,115,56605,1,8,0:0:0:0:
301,114,56674,1,0,0:0:0:0:
256,124,56742,5,4,0:2:0:0:
137,210,56878,1,0,0:0:0:0:
71,311,57015,2,2,P|150:329|227:288,1,170,2|0,0:0|0:0,0:0:0:0:
279,191,57424,1,0,0:0:0:0:
376,135,57560,1,0,0:0:0:0:
461,207,57696,1,0,0:0:0:0:
371,354,57833,6,0,P|330:353|288:334,1,85
279,191,58105,2,0,P|241:171|200:165,1,85
165,170,58310,1,0,0:0:0:0:
133,183,58378,1,0,0:0:0:0:
109,207,58446,1,0,0:0:0:0:
216,80,58583,2,0,P|225:60|229:39,1,42.5
94,14,58787,1,0,0:0:0:0:
18,117,58924,5,0,0:0:0:0:
18,117,59060,1,0,0:0:0:0:
109,207,59196,2,0,P|123:268|106:328,1,127.5
81,352,59469,1,0,0:0:0:0:
3,268,59605,1,0,0:0:0:0:
66,157,59742,1,0,0:0:0:0:
190,130,59878,1,0,0:0:0:0:
316,151,60015,6,0,P|345:182|356:222,1,85
152,324,60287,2,0,P|159:282|181:240,1,85
206,225,60492,1,0,0:0:0:0:
238,215,60560,1,0,0:0:0:0:
271,216,60628,1,0,0:0:0:0:
389,279,60765,2,0,L|424:304,1,42.5
512,226,60969,1,0,0:0:0:0:
440,130,61105,5,0,0:0:0:0:
