osu file format v10

[General]
AudioFilename: _ende_A.ogg
AudioLeadIn: 0
PreviewTime: 104365
Countdown: 0
SampleSet: Normal
StackLeniency: 0.7
Mode: 0
LetterboxInBreaks: 0

[Editor]
DistanceSpacing: 1.2
BeatDivisor: 4
GridSize: 4

[Metadata]
Title:Ende
TitleUnicode:Ende
Artist:bj.HaLo
ArtistUnicode:bj.HaLo
Creator:galvenize
Version:Hyper
Source:BMS
Tags:Trance Core BOF 2010 Kurosanyan
BeatmapID:148718
BeatmapSetID:44035

[Difficulty]
HPDrainRate:6
CircleSize:4
OverallDifficulty:6
ApproachRate:8
SliderMultiplier:1.4
SliderTickRate:1

[Events]
//Background and Video events
0,0,"1BG.jpg"
//Break Periods
2,54191,56826
2,78191,82926
//Storyboard Layer 0 (Background)
//Storyboard Layer 1 (Fail)
//Storyboard Layer 2 (Pass)
//Storyboard Layer 3 (Foreground)
//Storyboard Sound Samples
//Background Colour Transformations
3,100,163,162,255

[TimingPoints]
1176,300,4,2,0,50,1,0
25169,-100,4,1,0,30,0,0
34776,-100,4,1,0,30,0,1
53976,-100,4,1,0,30,0,0
58769,-100,4,2,0,50,0,0
68294,-100,4,1,0,30,0,0
76699,-100,4,2,0,50,0,0
83895,-100,4,2,0,30,0,0
85094,-100,4,1,0,30,0,0
104376,-100,4,1,0,30,0,1
113931,-100,4,1,0,40,0,1
116294,-100,4,2,0,50,0,1
116744,-100,4,1,0,40,0,1
123576,-100,4,1,0,40,0,0

[Colours]
Combo1 : 64,234,213
Combo2 : 204,247,238
Combo3 : 240,192,104
Combo4 : 168,236,149

[HitObjects]
116,124,15576,2,0,B|160:144|208:136,1,70,2|0,0:0|0:0,0:0:0
268,128,15876,2,0,B|308:100|308:60,1,70,2|0,0:0|0:0,0:0:0
392,72,16176,2,0,B|364:144|408:220,1,140,2|2,0:0|0:0,0:0:0
444,280,16626,1,2,0:0:0
360,284,16776,2,0,B|320:300|284:304,1,70,2|0,0:0|0:0,0:0:0
196,260,17076,2,0,B|252:240|280:216,1,70,2|0,0:0|0:0,0:0:0
284,152,17376,2,0,B|244:152|208:144,1,70,2|0,0:0|0:0,0:0:0
132,128,17676,1,2,0:0:0
64,176,17826,6,0,B|12:228|16:308,2,140,2|2|2,0:0|0:0|0:0,0:0:0
232,188,18726,1,0,0:0:0
248,272,18876,1,2,0:0:0
332,280,19026,1,0,0:0:0
316,196,19176,2,0,B|320:164|348:128,1,70,2|2,0:0|0:0,0:0:0
388,52,19476,1,0,0:0:0
296,64,19626,2,0,B|228:96|140:76,1,140,2|2,0:0|0:0,0:0:0
76,64,20076,1,2,0:0:0
52,144,20226,1,2,0:0:0
132,168,20376,6,0,B|148:208|132:240,1,70,2|0,0:0|0:0,0:0:0
192,300,20676,2,0,B|208:260|252:244,1,70,2|0,0:0|0:0,0:0:0
236,164,20976,2,0,B|312:192|380:160,1,140,2|2,0:0|0:0,0:0:0
444,120,21426,1,2,0:0:0
488,192,21576,6,0,B|468:224|460:268,1,70,2|0,0:0|0:0,0:0:0
392,300,21876,2,0,B|360:272|320:264,1,70,2|0,0:0|0:0,0:0:0
252,288,22176,2,0,B|176:312|96:284,1,140,2|2,0:0|0:0,0:0:0
32,272,22626,1,2,0:0:0
92,116,22926,1,2,0:0:0
248,180,23226,1,2,0:0:0
372,60,23526,2,0,B|336:40|280:44,2,70,2|2|0,0:0|0:0|0:0,0:0:0
376,144,23976,5,2,0:0:0
376,144,24126,2,0,B|336:200|236:196,2,140,2|2|2,0:0|0:0|0:0,0:0:0
328,68,24876,1,2,0:0:0
328,68,25026,1,2,0:0:0
236,56,25176,6,0,B|200:76|152:80,1,70,4|0,0:0|0:0,0:0:0
88,84,25476,1,8,0:0:0
64,164,25626,1,0,0:0:0
140,196,25776,2,0,B|156:236|144:272,1,70
128,348,26076,1,8,0:0:0
212,336,26226,1,0,0:0:0
296,344,26376,6,0,B|336:336|388:344,1,70
460,264,26676,2,0,B|424:272|372:268,1,70,8|0,0:0|0:0,0:0:0
312,236,26976,1,0,0:0:0
252,176,27126,1,0,0:0:0
224,256,27276,1,8,0:0:0
312,236,27426,6,0,B|368:180|332:96,2,140
228,244,28176,1,0,0:0:0
164,188,28326,2,0,B|136:256,2,70,0|8|0,0:0|0:0|0:0,0:0:0
188,108,28776,1,0,0:0:0
124,52,28926,2,0,B|56:92|48:176,1,140
160,292,29526,1,0,0:0:0
84,328,29676,1,8,0:0:0
52,252,29826,1,0,0:0:0
128,212,29976,6,0,B|144:176|184:152,1,70
380,216,30276,2,0,B|364:180|324:156,1,70,8|0,0:0|0:0,0:0:0
256,204,30576,2,0,B|256:304,1,70
336,316,30876,1,8,0:0:0
256,356,31026,1,0,0:0:0
172,320,31176,6,0,B|172:280|156:252,1,70
108,184,31476,2,0,B|128:148|152:128,1,70,8|0,0:0|0:0,0:0:0
232,144,31776,1,0,0:0:0
296,88,31926,1,0,0:0:0
216,60,32076,1,8,0:0:0
232,144,32226,6,0,B|268:204|356:196,2,140
372,48,33126,1,0,0:0:0
372,48,33276,2,0,B|376:92|400:128,1,70,8|0,0:0|0:0,0:0:0
460,164,33576,6,0,B|448:200|452:236,1,70
460,316,33876,1,8,0:0:0
376,320,34026,2,0,B|316:368|228:368,1,140
168,332,34476,1,8,0:0:0
108,272,34626,1,0,0:0:0
184,240,34776,6,0,B|256:260|328:220,2,140,0|8|0,0:0|0:0|0:0,0:0:0
128,180,35526,1,0,0:0:0
208,152,35676,1,8,0:0:0
148,92,35826,2,0,B|188:24,1,70
256,88,36126,1,0,0:0:0
328,31,36276,2,0,B|364:92,1,70,8|0,0:0|0:0,0:0:0
256,88,36576,6,0,B|256:236,2,140,0|8|0,0:0|0:0|0:0,0:0:0
324,36,37326,1,0,0:0:0
348,116,37476,2,0,B|336:152|348:188,1,70,8|0,0:0|0:0,0:0:0
432,172,37776,1,0,0:0:0
408,252,37926,2,0,B|376:280|336:280,1,70,0|8,0:0|0:0,0:0:0
264,264,38226,1,0,0:0:0
188,228,38376,6,0,B|124:268|52:256,2,140,0|8|0,0:0|0:0|0:0,0:0:0
152,152,39126,1,0,0:0:0
76,120,39276,1,8,0:0:0
152,152,39426,1,0,0:0:0
196,80,39576,6,0,B|188:44,2,35
272,116,39876,1,8,0:0:0
264,200,40026,2,0,B|252:236,2,35
332,248,40326,2,0,B|336:300,2,35,0|0|8,0:0|0:0|0:0,0:0:0
336,168,40626,1,0,0:0:0
272,116,40776,5,0,0:0:0
212,60,40926,1,0,0:0:0
292,36,41076,1,8,0:0:0
364,80,41226,2,0,B|436:64,1,70
460,144,41526,2,0,B|480:184|476:220|476:220|460:256|420:280,1,140
352,272,41976,5,0,0:0:0
368,184,42126,1,0,0:0:0
292,216,42276,1,8,0:0:0
292,216,42426,1,0,0:0:0
268,296,42576,2,0,B|192:324,1,70
132,272,42876,2,0,B|208:244,1,70,8|0,0:0|0:0,0:0:0
216,164,43176,2,0,B|144:192,1,70
84,140,43476,2,0,B|156:112,2,70,8|0|0,0:0|0:0|0:0,0:0:0
252,40,43926,2,0,B|232:80|236:116|236:116|252:152|292:176,1,140
336,220,44376,6,0,B|356:180|352:144|352:144|336:108|296:84,2,140,0|8|0,0:0|0:0|0:0,0:0:0
304,300,45126,1,0,0:0:0
372,348,45276,1,8,0:0:0
372,348,45426,2,0,B|380:308|404:284,1,70
472,236,45726,1,0,0:0:0
472,236,45876,2,0,B|440:208|400:208,1,70,8|0,0:0|0:0,0:0:0
332,244,46176,6,0,B|292:264|256:260|256:260|220:244|196:204,2,140,0|8|0,0:0|0:0|0:0,0:0:0
280,180,46926,1,0,0:0:0
324,108,47076,2,0,B|252:76,1,70,8|0,0:0|0:0,0:0:0
176,72,47376,1,0,0:0:0
116,12,47526,2,0,B|92:36|92:36|88:76,1,70,0|8,0:0|0:0,0:0:0
112,152,47826,1,0,0:0:0
112,152,47976,6,0,B|156:153|186:173|186:173|210:204|213:251,1,140,0|8,0:0|0:0,0:0:0
260,296,48426,1,0,0:0:0
332,252,48576,2,0,B|313:184,1,70
396,184,48876,2,0,B|420:264,1,70,8|0,0:0|0:0,0:0:0
384,328,49176,6,0,B|396:364,2,35
300,348,49476,1,8,0:0:0
220,324,49626,2,0,B|208:360,2,35
200,244,49926,2,0,B|156:260,2,35,0|0|8,0:0|0:0|0:0,0:0:0
280,268,50226,2,0,B|336:256|356:232,1,70
400,180,50526,1,0,0:0:0
368,100,50676,1,8,0:0:0
284,88,50826,2,0,B|284:128|316:176,1,70
220,160,51126,2,0,B|220:120|204:88|204:88|180:64|132:48,1,140
120,136,51576,5,0,0:0:0
56,192,51726,1,0,0:0:0
120,244,51876,1,8,0:0:0
188,196,52026,2,0,B|216:164|260:156,1,70
316,208,52326,2,0,B|308:252|312:292,2,70,0|8|0,0:0|0:0|0:0,0:0:0
420,192,52776,5,0,0:0:0
420,192,52926,1,0,0:0:0
400,112,53076,2,0,B|472:104,2,70
336,60,53526,2,0,B|352:12,4,35
308,140,53976,1,4,0:0:0
256,192,57576,12,0,58476,0:0:0
256,128,58776,6,0,B|256:48,2,70,4|0|0,0:0|0:0|0:0,0:0:0
256,296,59376,1,0,0:0:0
124,192,59676,1,0,0:0:0
252,80,59976,6,0,B|308:136|396:120,1,140
260,304,60576,2,0,B|204:248|116:264,1,140
400,192,61176,5,0,0:0:0
112,192,61476,1,0,0:0:0
352,192,61776,1,0,0:0:0
160,192,62076,1,0,0:0:0
212,104,62376,6,0,B|200:64|208:16,2,70
256,176,62826,1,0,0:0:0
300,104,62976,2,0,B|312:64|304:16,2,70
256,176,63426,1,0,0:0:0
212,248,63576,6,2,B|176:224|168:168,2,70,2|2|2,0:0|0:0|0:0,0:0:0
288,288,64026,1,0,0:0:0
368,264,64176,2,0,B|428:216,1,70,2|0,0:0|0:0,0:0:0
408,136,64476,2,0,B|336:192,1,70,2|0,0:0|0:0,0:0:0
292,120,64776,6,0,B|308:32,1,70,2|0,0:0|0:0,0:0:0
207,51,65076,2,0,B|220:120,1,70,2|0,0:0|0:0,0:0:0
159,178,65376,2,0,B|103:136,1,70,2|0,0:0|0:0,0:0:0
89,220,65676,2,0,B|144:264,1,70,2|0,0:0|0:0,0:0:0
188,336,65976,6,0,B|256:351|256:351|324:335,2,140,2|2|2,0:0|0:0|0:0,0:0:0
256,180,66876,1,2,0:0:0
376,60,67176,1,0,0:0:0
412,136,67326,1,0,0:0:0
256,76,67626,1,0,0:0:0
256,180,67926,1,0,0:0:0
256,284,68226,1,0,0:0:0
256,284,68376,6,0,B|216:300|180:320,1,70
112,292,68676,2,0,B|100:248|100:216,1,70,8|0,0:0|0:0,0:0:0
148,152,68976,2,0,B|188:136|224:116,1,70
292,148,69276,2,0,B|304:192|304:224,1,70,8|0,0:0|0:0,0:0:0
348,288,69576,5,0,0:0:0
432,288,69726,1,0,0:0:0
472,216,69876,2,0,B|468:164|472:136,1,70,8|0,0:0|0:0,0:0:0
400,100,70176,1,0,0:0:0
324,64,70326,1,0,0:0:0
244,92,70476,2,0,B|224:128|224:164,1,70,8|0,0:0|0:0,0:0:0
232,244,70776,6,0,B|192:224|156:228|156:228|120:244|96:284,1,140,0|8,0:0|0:0,0:0:0
108,352,71226,1,0,0:0:0
176,304,71376,2,0,B|216:324|252:320|252:320|288:304|312:264,2,140,0|8|0,0:0|0:0|0:0,0:0:0
112,248,72126,1,0,0:0:0
108,164,72276,1,8,0:0:0
148,92,72426,1,0,0:0:0
64,92,72576,5,0,0:0:0
108,164,72726,1,0,0:0:0
192,184,72876,1,8,0:0:0
268,144,73026,1,0,0:0:0
312,72,73176,6,0,B|240:44,2,70,0|0|8,0:0|0:0|0:0,0:0:0
388,40,73626,1,0,0:0:0
376,124,73776,2,0,B|376:168|400:200,1,70
376,272,74076,2,0,B|344:236|312:220,1,70,8|0,0:0|0:0,0:0:0
288,304,74376,5,0,0:0:0
216,348,74526,1,0,0:0:0
184,272,74676,1,8,0:0:0
108,304,74826,1,0,0:0:0
28,276,74976,2,0,B|8:232|8:184,1,70
84,172,75276,2,0,B|72:128|80:88,1,70,8|0,0:0|0:0,0:0:0
188,48,75576,6,0,B|236:40|264:40,1,70
328,88,75876,2,0,B|280:80|252:80,1,70,8|0,0:0|0:0,0:0:0
188,120,76176,2,0,B|236:112|264:112,1,70
328,160,76476,2,0,B|280:152|252:152,1,70,8|0,0:0|0:0,0:0:0
256,236,76776,5,0,2:0:0
256,236,76926,1,0,2:0:0
112,320,77226,1,0,2:0:0
400,320,77526,1,0,2:0:0
256,348,77826,1,0,2:0:0
256,348,77976,1,4,2:0:0
172,116,83676,6,0,B|148:76,2,35
116,180,83976,2,0,B|132:260,1,70,2|0,0:0|0:0,0:0:0
212,272,84276,2,0,B|196:192,1,70,2|0,0:0|0:0,0:0:0
396,180,84576,6,0,B|380:260,1,70,2|0,0:0|0:0,0:0:0
300,272,84876,2,0,B|316:192,1,70,2|0,0:0|0:0,0:0:0
256,140,85176,5,0,0:0:0
288,60,85326,1,0,0:0:0
204,72,85476,2,0,B|180:96|144:116,1,70,8|0,0:0|0:0,0:0:0
80,164,85776,1,0,0:0:0
148,212,85926,1,0,0:0:0
148,212,86076,2,0,B|124:248|116:284,1,70,8|0,0:0|0:0,0:0:0
200,296,86376,5,0,0:0:0
272,340,86526,1,0,0:0:0
200,296,86676,2,0,B|236:260|276:248,1,70,8|0,0:0|0:0,0:0:0
340,244,86976,1,0,0:0:0
384,316,87126,1,0,0:0:0
468,304,87276,1,8,0:0:0
420,236,87426,1,0,0:0:0
372,168,87576,6,0,B|352:128|356:92|356:92|372:56|412:32,1,140,0|8,0:0|0:0,0:0:0
140,216,88176,2,0,B|160:256|156:292|156:292|140:328|100:352,1,140,0|8,0:0|0:0,0:0:0
220,36,88776,6,0,B|204:76|208:120,1,70
288,88,89076,1,8,0:0:0
344,152,89226,1,0,0:0:0
400,212,89376,2,0,B|404:260|380:296,1,70
316,236,89676,1,8,0:0:0
236,208,89826,1,0,0:0:0
160,172,89976,6,0,B|116:188|88:208,2,70,0|0|8,0:0|0:0|0:0,0:0:0
152,256,90426,1,0,0:0:0
188,332,90576,2,0,B|228:312|264:316|264:316|300:332|324:372,1,140,0|8,0:0|0:0,0:0:0
392,328,91026,1,0,0:0:0
468,288,91176,1,0,0:0:0
396,244,91326,2,0,B|348:252,2,35,0|0|8,0:0|0:0|0:0,0:0:0
472,204,91626,1,0,0:0:0
496,124,91776,2,0,B|456:104|420:108|420:108|384:124|360:164,1,140,0|8,0:0|0:0,0:0:0
296,112,92226,1,0,0:0:0
224,68,92376,6,0,B|192:96|160:112,1,70
84,124,92676,1,8,0:0:0
40,196,92826,1,0,0:0:0
112,240,92976,2,0,B|128:276|132:312,1,70
212,284,93276,2,0,B|188:232|192:192,1,70,8|0,0:0|0:0,0:0:0
240,148,93576,5,0,0:0:0
240,148,93726,1,0,0:0:0
320,168,93876,2,0,B|312:208|320:244,1,70,8|0,0:0|0:0,0:0:0
384,288,94176,1,0,0:0:0
384,288,94326,1,0,0:0:0
456,328,94476,2,0,B|464:296|460:256,1,70,8|0,0:0|0:0,0:0:0
416,188,94776,5,0,0:0:0
456,116,94926,1,0,0:0:0
372,116,95076,2,0,B|344:88|308:76,1,70,8|0,0:0|0:0,0:0:0
232,92,95376,1,0,0:0:0
236,176,95526,1,0,0:0:0
152,196,95676,1,8,0:0:0
236,176,95826,1,0,0:0:0
244,260,95976,6,0,B|240:304|216:348,1,70
152,284,96276,2,0,B|136:324|112:340,1,70,8|0,0:0|0:0,0:0:0
60,272,96576,1,0,0:0:0
60,272,96726,1,0,0:0:0
88,192,96876,2,0,B|72:160|72:112,1,70,8|0,0:0|0:0,0:0:0
72,112,97101,1,0,0:0:0
76,100,97176,2,0,B|92:52|112:24,1,70
208,44,97476,2,0,B|188:80|184:116,1,70,8|0,0:0|0:0,0:0:0
260,208,97776,2,0,B|264:160|284:120,1,70
372,60,98076,2,0,B|360:96|360:128,1,70,8|0,0:0|0:0,0:0:0
420,188,98376,5,0,0:0:0
420,188,98526,1,0,0:0:0
460,264,98676,1,8,0:0:0
460,264,98826,1,0,0:0:0
404,328,98976,1,0,0:0:0
404,328,99126,1,0,0:0:0
320,316,99276,1,8,0:0:0
320,316,99426,1,0,0:0:0
304,232,99576,6,0,B|340:232|376:256,2,70,0|0|8,0:0|0:0|0:0,0:0:0
240,288,100026,1,0,0:0:0
228,204,100176,2,0,B|248:156|296:152,1,70
360,172,100476,1,8,0:0:0
328,96,100626,1,0,0:0:0
268,40,100776,6,0,B|184:36,1,70
172,116,101076,2,0,B|96:132,1,70,8|0,0:0|0:0,0:0:0
124,212,101376,2,0,B|64:248,1,70
80,332,101676,2,0,B|152:304|224:320,1,140,8|0,0:0|0:0,0:0:0
217,318,102126,1,0,0:0:0
280,264,102276,2,0,B|236:204,1,70,8|0,0:0|0:0,0:0:0
320,192,102576,2,0,B|368:256,1,70
404,176,102876,2,0,B|352:112,1,70,8|0,0:0|0:0,0:0:0
288,80,103176,5,0,0:0:0
208,56,103326,2,0,B|180:44|138:56,1,70
168,136,103626,2,0,B|208:200|172:276,2,140
248,40,104376,6,0,B|280:52|336:52,1,70,4|0,0:0|0:0,0:0:0
416,88,104676,2,0,B|384:108|348:120,1,70,8|0,0:0|0:0,0:0:0
276,188,104976,2,0,B|308:200|364:200,1,70
444,240,105276,2,0,B|412:260|376:272,1,70,8|0,0:0|0:0,0:0:0
116,216,105576,6,0,B|160:236|196:232,1,70
236,324,105876,2,0,B|256:280|252:244,1,70,8|0,0:0|0:0,0:0:0
344,204,106176,2,0,B|300:184|264:188,1,70
224,96,106476,2,0,B|204:140|208:176,1,70,8|0,0:0|0:0,0:0:0
216,248,106776,5,0,0:0:0
272,312,106926,1,0,0:0:0
356,304,107076,1,8,0:0:0
384,224,107226,1,0,0:0:0
300,224,107376,2,0,B|280:184|284:148|284:148|300:112|340:88,2,140,0|8|0,0:0|0:0|0:0,0:0:0
384,224,108126,5,0,0:0:0
448,168,108276,2,0,B|424:136|388:120,1,70,8|0,0:0|0:0,0:0:0
324,76,108576,1,0,0:0:0
248,112,108726,1,0,0:0:0
168,84,108876,2,0,B|128:96|104:124,1,70,8|0,0:0|0:0,0:0:0
120,264,109176,6,0,B|56:304,2,70,0|0|8,0:0|0:0|0:0,0:0:0
200,288,109626,1,0,0:0:0
188,204,109776,2,0,B|184:160|192:112,1,70
252,80,110076,1,8,0:0:0
332,60,110226,1,0,0:0:0
400,112,110376,5,0,0:0:0
320,140,110526,1,0,0:0:0
368,208,110676,2,0,B|348:248|324:284,1,70,8|0,0:0|0:0,0:0:0
252,296,110976,2,0,B|260:256|264:208,1,70
140,208,111276,2,0,B|159:247|174:268,1,70,8|0,0:0|0:0,0:0:0
104,316,111576,5,0,0:0:0
28,280,111726,1,0,0:0:0
20,196,111876,1,8,0:0:0
60,124,112026,1,0,0:0:0
144,132,112176,2,0,B|180:168|204:180|204:180|232:176|292:148,2,140,0|8|0,0:0|0:0|0:0,0:0:0
172,52,112926,1,0,0:0:0
256,68,113076,2,0,B|212:148,1,70,8|0,0:0|0:0,0:0:0
244,212,113376,1,0,0:0:0
244,212,113526,1,0,0:0:0
328,196,113676,2,0,B|384:136,1,70,8|0,0:0|0:0,0:0:0
416,220,113976,6,0,B|420:300|348:344,2,140,4|8|0,0:0|0:0|0:0,0:0:0
352,164,114726,1,0,0:0:0
288,112,114876,1,8,0:0:0
224,168,115026,1,0,0:0:0
172,100,115176,2,0,B|120:144|40:128,1,140,0|8,0:0|0:0,0:0:0
44,212,115626,1,0,0:0:0
120,252,115776,2,0,B|100:288|100:336,1,70
184,320,116076,2,0,B|188:272|216:232,1,70,8|0,0:0|0:0,0:0:0
276,296,116376,5,2,0:0:0
276,296,116526,1,2,0:0:0
276,296,116676,2,0,B|348:276|376:200,2,140,4|0|8,0:0|0:0|0:0,0:0:0
204,252,117426,1,0,0:0:0
260,192,117576,6,0,B|192:144,1,70
268,100,117876,2,0,B|208:60,1,70,8|0,0:0|0:0,0:0:0
48,96,118176,6,0,B|116:144,1,70
40,188,118476,2,0,B|100:228,1,70,8|0,0:0|0:0,0:0:0
68,308,118776,5,0,0:0:0
148,336,118926,1,0,0:0:0
224,300,119076,2,0,B|296:272|376:296,1,140,8|0,0:0|0:0,0:0:0
420,232,119526,2,0,B|352:196,1,70,0|8,0:0|0:0,0:0:0
280,172,119826,1,0,0:0:0
292,44,119976,6,0,B|264:64|236:92,1,70
180,28,120276,2,0,B|156:68|156:96,1,70,8|0,0:0|0:0,0:0:0
72,108,120576,2,0,B|96:160|124:168,1,70
196,164,120876,1,8,0:0:0
196,164,121026,1,0,0:0:0
196,164,121176,1,4,0:0:0
256,192,121326,12,4,123576,0:0:0
