osu file format v10

[General]
AudioFilename: _ende_A.ogg
AudioLeadIn: 0
PreviewTime: 104365
Countdown: 0
SampleSet: Normal
StackLeniency: 0.7
Mode: 0
LetterboxInBreaks: 0

[Editor]
DistanceSpacing: 1
BeatDivisor: 4
GridSize: 4

[Metadata]
Title:Ende
TitleUnicode:Ende
Artist:bj.HaLo
ArtistUnicode:bj.HaLo
Creator:galvenize
Version:Advanced
Source:BMS
Tags:Trance Core BOF 2010 Kurosanyan
BeatmapID:148512
BeatmapSetID:44035

[Difficulty]
HPDrainRate:3
CircleSize:3
OverallDifficulty:5
ApproachRate:6
SliderMultiplier:0.999999999999999
SliderTickRate:1

[Events]
//Background and Video events
0,0,"1BG.jpg"
//Break Periods
2,54191,57570
2,78191,82770
//Storyboard Layer 0 (Background)
//Storyboard Layer 1 (Fail)
//Storyboard Layer 2 (Pass)
//Storyboard Layer 3 (Foreground)
//Storyboard Sound Samples
//Background Colour Transformations
3,100,163,162,255

[TimingPoints]
1176,300,4,2,0,50,1,0
25169,-100,4,1,0,30,0,0
34776,-100,4,1,0,30,0,1
53976,-100,4,1,0,30,0,0
58769,-100,4,2,0,50,0,0
68294,-100,4,1,0,30,0,0
76699,-100,4,2,0,50,0,0
83894,-100,4,2,0,50,0,0
85094,-100,4,1,0,30,0,0
104376,-100,4,1,0,35,0,1
113931,-100,4,1,0,40,0,1
116294,-100,4,2,0,50,0,1
116744,-100,4,1,0,40,0,1
123576,-100,4,1,0,40,0,0

[Colours]
Combo1 : 64,234,213
Combo2 : 204,247,238
Combo3 : 240,192,104
Combo4 : 168,236,149

[HitObjects]
236,280,15576,2,0,B|184:256|144:220,1,99.9999999999999,4|0,0:0|0:0,0:0:0
84,156,16176,1,2,0:0:0
140,72,16476,1,0,0:0:0
216,136,16776,6,0,B|272:140|324:120,1,99.9999999999999
404,84,17376,1,2,0:0:0
396,184,17676,1,2,0:0:0
396,184,17826,6,0,B|372:232|384:308,2,99.9999999999999,2|0|0,0:0|0:0|0:0,0:0:0
296,200,18726,1,0,0:0:0
252,224,18876,1,2,0:0:0
156,204,19176,5,0,0:0:0
112,184,19326,2,0,B|68:232|56:280,1,99.9999999999999
120,344,19926,2,0,B|72:392,2,50,2|2|2,0:0|0:0|0:0,0:0:0
160,312,20376,5,4,0:0:0
248,264,20676,1,0,0:0:0
304,352,20976,2,0,B|360:360|416:352,1,99.9999999999999,2|0,0:0|0:0,0:0:0
504,352,21576,5,0,0:0:0
480,256,21876,1,0,0:0:0
384,252,22176,2,0,B|380:192|396:136,1,99.9999999999999,2|2,0:0|0:0,0:0:0
404,104,22626,6,0,B|428:48|428:4,2,99.9999999999999,2|0|0,0:0|0:0|0:0,0:0:0
316,56,23526,1,0,0:0:0
276,88,23676,2,0,B|216:116|164:116,1,99.9999999999999,2|2,0:0|0:0,0:0:0
132,104,24126,5,2,0:0:0
40,60,24426,2,0,B|56:140|32:232,1,150,2|0,0:0|0:0,0:0:0
80,300,25176,5,4,0:0:0
172,336,25476,1,8,0:0:0
272,320,25776,1,0,0:0:0
316,232,26076,2,0,B|368:272,2,50,8|0|0,0:0|0:0|0:0,0:0:0
244,164,26676,5,8,0:0:0
332,112,26976,1,0,0:0:0
248,60,27276,1,8,0:0:0
248,60,27426,2,0,B|192:72|108:68,1,99.9999999999999
48,64,28026,5,0,0:0:0
84,156,28326,1,0,0:0:0
84,156,28476,2,0,B|96:216|100:268,1,99.9999999999999,8|0,0:0|0:0,0:0:0
148,264,28926,2,0,B|112:304|112:304|48:300,2,99.9999999999999
216,188,29826,1,0,0:0:0
216,188,29976,6,0,B|256:232|304:248,1,99.9999999999999,4|8,0:0|0:0,0:0:0
384,292,30576,2,0,B|404:248|420:196,1,99.9999999999999,0|8,0:0|0:0,0:0:0
436,152,31026,1,0,0:0:0
452,104,31176,2,0,B|432:48|368:40,2,99.9999999999999,0|8|0,0:0|0:0|0:0,0:0:0
372,168,32076,1,8,0:0:0
324,164,32226,6,0,B|280:188|224:192,1,99.9999999999999
132,168,32826,1,0,0:0:0
209,96,33126,1,0,0:0:0
209,96,33276,2,0,B|233:140|229:192,1,99.9999999999999,8|0,0:0|0:0,0:0:0
224,248,33726,2,0,B|216:320|240:384,2,99.9999999999999
352,160,34776,6,0,B|412:184|484:168,2,99.9999999999999,4|8|0,0:0|0:0|0:0,0:0:0
304,72,35676,1,8,0:0:0
304,72,35826,2,0,B|256:96|200:112,1,99.9999999999999
168,128,36276,2,0,B|160:184|160:184|192:240,1,99.9999999999999,8|0,0:0|0:0,0:0:0
240,304,36876,1,8,0:0:0
328,256,37176,6,0,B|328:128,2,99.9999999999999,0|8|0,0:0|0:0|0:0,0:0:0
328,304,37926,2,0,B|384:320|384:320|432:288,1,99.9999999999999
440,248,38376,2,0,B|424:200|440:144,1,99.9999999999999,0|8,0:0|0:0,0:0:0
360,88,38976,6,0,B|448:24,2,99.9999999999999,0|8|0,0:0|0:0|0:0,0:0:0
256,88,39876,1,8,0:0:0
160,72,40176,2,0,B|120:112|80:144,1,99.9999999999999,0|8,0:0|0:0,0:0:0
48,232,40776,5,0,0:0:0
140,268,41076,1,8,0:0:0
220,332,41376,1,0,0:0:0
312,272,41676,1,8,0:0:0
224,224,41976,6,0,B|200:112,1,99.9999999999999,0|8,0:0|0:0,0:0:0
280,56,42576,2,0,B|320:152,1,99.9999999999999,0|8,0:0|0:0,0:0:0
392,216,43176,1,0,0:0:0
440,304,43476,1,8,0:0:0
352,352,43776,1,0,0:0:0
304,264,44076,1,8,0:0:0
392,216,44376,6,0,B|432:152|424:104,2,99.9999999999999,4|8|0,0:0|0:0|0:0,0:0:0
304,264,45276,1,8,0:0:0
256,272,45426,2,0,B|200:280|144:264,1,99.9999999999999
104,256,45876,2,0,B|120:208|120:208|104:144,1,99.9999999999999,8|0,0:0|0:0,0:0:0
80,64,46476,1,8,0:0:0
176,72,46776,6,0,B|224:104|296:128,1,99.9999999999999,0|8,0:0|0:0,0:0:0
368,120,47376,1,0,0:0:0
368,120,47526,2,0,B|368:176|376:224,1,99.9999999999999
384,272,47976,1,0,0:0:0
296,312,48276,1,8,0:0:0
200,288,48576,2,0,B|216:224|208:168,1,99.9999999999999,0|8,0:0|0:0,0:0:0
192,88,49176,5,0,0:0:0
96,112,49476,1,8,0:0:0
64,152,49626,1,0,0:0:0
32,192,49776,2,0,B|24:240|40:296,1,99.9999999999999,0|8,0:0|0:0,0:0:0
112,360,50376,1,0,0:0:0
152,264,50676,1,8,0:0:0
232,320,50976,1,0,0:0:0
280,232,51276,6,0,B|336:216|400:232,1,99.9999999999999,8|0,0:0|0:0,0:0:0
472,256,51876,1,8,0:0:0
440,160,52176,1,0,0:0:0
464,64,52476,1,8,0:0:0
256,192,52776,12,4,53976,0:0:0
96,184,58776,6,0,B|80:128,2,50,4|0|0,0:0|0:0|0:0,0:0:0
136,272,59376,1,2,0:0:0
232,288,59676,1,0,0:0:0
312,232,59976,2,0,B|320:176|320:128,1,99.9999999999999
408,80,60576,2,0,B|408:128|424:192,1,99.9999999999999,2|0,0:0|0:0,0:0:0
456,272,61176,5,0,0:0:0
368,328,61476,1,0,0:0:0
336,232,61776,1,2,0:0:0
416,176,62076,1,0,0:0:0
424,80,62376,6,0,B|380:40|312:24,1,99.9999999999999
240,40,62976,2,0,B|196:72|144:80,1,99.9999999999999,2|0,0:0|0:0,0:0:0
64,136,63576,6,0,B|32:88,2,50
136,208,64176,1,2,0:0:0
56,272,64476,1,0,0:0:0
152,304,64776,1,0,0:0:0
224,240,65076,1,0,0:0:0
136,208,65376,2,0,B|160:160|216:128,1,99.9999999999999,2|0,0:0|0:0,0:0:0
272,64,65976,5,0,0:0:0
328,144,66276,1,0,0:0:0
384,56,66576,1,2,0:0:0
440,136,66876,1,0,0:0:0
392,224,67176,5,2,0:0:0
352,256,67326,2,0,B|304:288|240:280,2,99.9999999999999,2|2|2,0:0|0:0|0:0,0:0:0
296,176,68226,1,2,0:0:0
248,184,68376,6,0,B|200:192|144:176,1,99.9999999999999,4|8,0:0|0:0,0:0:0
56,136,68976,1,0,0:0:0
136,72,69276,1,8,0:0:0
160,168,69576,6,0,B|136:224|88:240,1,99.9999999999999,0|8,0:0|0:0,0:0:0
176,288,70176,2,0,B|232:248|288:248,1,99.9999999999999,0|8,0:0|0:0,0:0:0
368,256,70776,5,0,0:0:0
440,184,71076,1,8,0:0:0
464,280,71376,1,0,0:0:0
392,352,71676,1,8,0:0:0
368,256,71976,6,0,B|360:200|328:160,1,99.9999999999999,0|8,0:0|0:0,0:0:0
272,240,72576,2,0,B|152:280,1,99.9999999999999,0|8,0:0|0:0,0:0:0
88,224,73176,5,0,0:0:0
104,176,73326,1,0,0:0:0
104,128,73476,2,0,B|112:80|136:32,1,99.9999999999999,8|0,0:0|0:0,0:0:0
200,112,74076,1,8,0:0:0
296,72,74376,6,0,B|352:48|400:40,1,99.9999999999999,0|8,0:0|0:0,0:0:0
360,136,74976,2,0,B|296:160|248:184,1,99.9999999999999,0|8,0:0|0:0,0:0:0
344,232,75576,5,0,0:0:0
432,280,75876,1,8,0:0:0
360,344,76176,1,0,0:0:0
272,296,76476,1,8,0:0:0
176,328,76776,5,0,0:0:0
176,328,76926,2,0,B|152:280|160:224,1,99.9999999999999
168,128,77526,1,0,0:0:0
248,64,77826,1,0,0:0:0
248,64,77976,1,4,0:0:0
136,96,83976,6,0,B|104:152|136:208,1,99.9999999999999,2|0,0:0|0:0,0:0:0
208,248,84576,2,0,B|240:192|208:136,2,99.9999999999999,2|2|4,0:0|0:0|0:0,0:0:0
112,280,85476,5,8,0:0:0
192,336,85776,1,0,0:0:0
288,312,86076,1,8,0:0:0
336,224,86376,6,0,B|336:168|368:128,2,99.9999999999999,0|8|0,0:0|0:0|0:0,0:0:0
432,208,87276,1,8,0:0:0
424,112,87576,6,0,B|360:128|296:120,1,99.9999999999999,0|8,0:0|0:0,0:0:0
224,120,88176,1,0,0:0:0
136,72,88476,1,8,0:0:0
76,152,88776,6,0,B|24:216|36:296,1,150
52,340,89376,2,0,B|96:332|160:336,1,99.9999999999999,0|8,0:0|0:0,0:0:0
252,336,89976,5,4,0:0:0
268,288,90126,1,0,0:0:0
288,240,90276,2,0,B|232:240|176:208,1,99.9999999999999,8|0,0:0|0:0,0:0:0
152,124,90876,1,8,0:0:0
248,112,91176,6,0,B|304:96|336:56,1,99.9999999999999,0|8,0:0|0:0,0:0:0
424,96,91776,2,0,B|432:152|472:192,2,99.9999999999999,0|8|0,0:0|0:0|0:0,0:0:0
336,48,92676,5,8,0:0:0
252,104,92976,1,0,0:0:0
316,180,93276,1,8,0:0:0
232,232,93576,6,0,B|223:279|257:320|308:316|346:284,1,150
356,252,94176,2,0,B|365:205|331:164|280:168|242:200,1,150
232,232,94776,5,4,0:0:0
160,296,95076,1,8,0:0:0
72,256,95376,1,0,0:0:0
144,192,95676,1,8,0:0:0
64,128,95976,6,0,B|40:80|48:24,2,99.9999999999999,0|8|0,0:0|0:0|0:0,0:0:0
136,64,96876,1,8,0:0:0
184,40,97026,1,0,0:0:0
232,16,97176,6,0,B|256:64|248:120,1,99.9999999999999,0|8,0:0|0:0,0:0:0
336,168,97776,2,0,B|344:104|368:64,1,99.9999999999999,0|8,0:0|0:0,0:0:0
440,136,98376,5,0,0:0:0
448,232,98676,1,8,0:0:0
448,232,98826,2,0,B|352:288,1,99.9999999999999
264,264,99426,1,0,0:0:0
264,264,99576,6,0,B|288:184,2,50,4|0|8,0:0|0:0|0:0,0:0:0
216,352,100176,1,0,0:0:0
168,264,100476,1,8,0:0:0
120,352,100776,6,0,B|80:328|16:320,1,99.9999999999999,0|8,0:0|0:0,0:0:0
64,232,101376,2,0,B|56:176|80:128,1,99.9999999999999,0|8,0:0|0:0,0:0:0
136,48,101976,5,0,0:0:0
232,48,102276,1,8,0:0:0
192,136,102576,1,0,0:0:0
288,136,102876,1,8,0:0:0
336,48,103176,5,0,0:0:0
336,48,103326,1,0,0:0:0
392,136,103626,1,0,0:0:0
336,216,103926,1,0,0:0:0
392,296,104226,1,0,0:0:0
392,296,104376,6,0,B|336:312|280:296,1,99.9999999999999,4|8,0:0|0:0,0:0:0
200,264,104976,2,0,B|184:312|208:360,1,99.9999999999999,0|8,0:0|0:0,0:0:0
296,304,105576,2,0,B|312:256|288:208,1,99.9999999999999,0|8,0:0|0:0,0:0:0
192,168,106176,1,0,0:0:0
104,216,106476,1,0,0:0:0
104,120,106776,6,0,B|128:64|160:32,1,99.9999999999999,0|8,0:0|0:0,0:0:0
240,88,107376,2,0,B|224:144|224:200,2,99.9999999999999,0|8|0,0:0|0:0|0:0,0:0:0
280,56,108126,1,0,0:0:0
376,72,108426,1,0,0:0:0
432,152,108726,1,0,0:0:0
408,248,109026,1,0,0:0:0
408,248,109176,6,0,B|360:264|288:240,2,99.9999999999999,4|8|0,0:0|0:0|0:0,0:0:0
480,176,110076,1,8,0:0:0
392,128,110376,2,0,B|344:128|296:96,1,99.9999999999999,0|8,0:0|0:0,0:0:0
256,80,110826,2,0,B|184:136,1,50
168,128,111126,2,0,B|160:56,2,50,0|8|0,0:0|0:0|0:0,0:0:0
168,176,111576,5,4,0:0:0
192,272,111876,1,8,0:0:0
96,296,112176,1,0,0:0:0
72,200,112476,1,8,0:0:0
256,192,112776,12,4,113976,0:0:0
256,80,114576,6,0,B|264:144|248:192,1,99.9999999999999,0|8,0:0|0:0,0:0:0
208,272,115176,2,0,B|320:328,1,99.9999999999999,0|8,0:0|0:0,0:0:0
388,248,115776,1,0,0:0:0
388,248,115926,1,0,0:0:0
388,248,116076,1,8,0:0:0
344,152,116376,6,2,B|360:72,2,50,2|2|4,0:0|0:0|0:0,0:0:0
288,232,116976,1,0,0:0:0
232,144,117276,1,8,0:0:0
200,240,117576,6,0,B|168:296|96:296,1,99.9999999999999,0|8,0:0|0:0,0:0:0
72,272,118026,2,0,B|64:224|64:224|72:168,1,99.9999999999999,0|0,0:0|0:0,0:0:0
104,80,118626,1,0,0:0:0
104,80,118776,6,0,B|224:104,1,99.9999999999999,4|0,0:0|0:0,0:0:0
288,144,119376,1,0,0:0:0
328,48,119676,1,8,0:0:0
416,104,119976,2,0,B|384:216,1,99.9999999999999,0|8,0:0|0:0,0:0:0
352,232,120426,1,0,0:0:0
352,280,120576,2,0,B|312:304|312:304|256:288,1,99.9999999999999,0|8,0:0|0:0,0:0:0
168,256,121176,1,4,0:0:0
256,192,121326,12,4,123576,0:0:0
