osu file format v14

[General]
AudioFilename: Ende.mp3
AudioLeadIn: 496
PreviewTime: 104402
Countdown: 0
SampleSet: Soft
StackLeniency: 0.7
Mode: 2
LetterboxInBreaks: 0
WidescreenStoryboard: 0

[Editor]
Bookmarks: 15576,25176,83676,103026
DistanceSpacing: 1
BeatDivisor: 4
GridSize: 4
TimelineZoom: 2.599999

[Metadata]
Title:Ende
TitleUnicode:Ende
Artist:bj.HaLo
ArtistUnicode:bj.HaLo
Creator:ZiRoX
Version:Rain
Source:BMS
Tags:LTL Deif DakeDekaane Lost_The_Lights mingmichael
BeatmapID:449054
BeatmapSetID:188401

[Difficulty]
HPDrainRate:7
CircleSize:4
OverallDifficulty:9
ApproachRate:9
SliderMultiplier:1.8
SliderTickRate:1

[Events]
//Background and Video events
0,0,"bg.jpg",0,0
//Break Periods
2,54202,57002
//Storyboard Layer 0 (Background)
//Storyboard Layer 1 (Fail)
//Storyboard Layer 2 (Pass)
//Storyboard Layer 3 (Foreground)
//Storyboard Sound Samples

[TimingPoints]
1202,300,4,2,0,40,1,0
6002,-100,4,2,1,40,0,0
15602,-100,4,2,0,40,0,0
25202,-100,4,2,0,60,0,0
34802,-100,4,2,0,80,0,1
52802,-100,4,2,0,60,0,1
54002,-100,4,2,0,60,0,0
57602,-100,4,1,0,20,0,0
58802,-100,4,2,0,50,0,0
68402,-100,4,2,0,60,0,0
76802,-100,4,2,0,50,0,0
83702,-100,4,1,0,20,0,0
84002,-100,4,2,0,50,0,0
85202,-100,4,2,0,60,0,0
104402,-100,4,2,0,80,0,1
114002,-100,4,2,0,60,0,1
123602,-100,4,1,0,40,0,0

[Colours]
Combo1 : 254,218,141
Combo2 : 231,109,80
Combo3 : 239,190,99

[HitObjects]
184,192,1202,5,2,0:0:0:0:
364,192,1502,1,0,0:0:0:0:
220,100,1802,1,0,0:0:0:0:
372,100,2102,2,0,L|424:192,1,90
272,236,2402,5,2,0:0:0:0:
88,196,2702,1,0,0:0:0:0:
236,100,3002,1,0,0:0:0:0:
56,96,3302,1,0,0:0:0:0:
128,136,3452,2,0,L|272:252,1,180,2|0,0:0|0:0,0:0:0:0:
132,296,3902,5,0,0:0:0:0:
276,136,4052,2,0,L|132:252,1,180,2|0,0:0|0:0,0:0:0:0:
256,296,4502,1,0,0:0:0:0:
376,296,4652,1,0,0:0:0:0:
292,236,4802,5,2,0:0:0:0:
400,200,4952,1,2,0:0:0:0:
260,168,5102,1,0,0:0:0:0:
40,240,5252,2,0,B|144:92,1,180,2|0,0:0|0:0,0:0:0:0:
232,48,5702,1,0,0:0:0:0:
112,40,5852,1,0,0:0:0:0:
388,108,6002,5,6,0:0:0:0:
236,108,6302,1,0,0:0:0:0:
80,108,6602,1,2,0:0:0:0:
256,108,6902,1,0,0:0:0:0:
408,108,7202,6,0,L|496:264,1,180,2|0,0:0|0:0,0:0:0:0:
128,108,7802,2,0,L|40:264,1,180,2|0,0:0|0:0,0:0:0:0:
256,272,8252,1,0,0:0:0:0:
472,264,8402,5,10,0:0:0:0:
292,240,8702,2,0,L|236:68,1,180,0|2,0:0|0:0,0:0:0:0:
76,232,9302,2,0,L|132:60,1,180,0|2,0:0|0:0,0:0:0:0:
368,232,9902,2,0,L|224:120,1,180,0|2,0:0|0:0,0:0:0:0:
128,120,10352,2,8,L|32:120,2,90
344,160,10802,6,0,P|436:192|420:280,1,180,6|0,0:0|0:0,0:0:0:0:
168,160,11402,2,0,P|76:192|92:280,1,180,2|0,0:0|0:0,0:0:0:0:
264,280,12002,6,0,P|344:240|400:168,1,180,2|0,0:0|0:0,0:0:0:0:
112,169,12602,2,0,P|168:240|248:280,1,180,2|0,0:0|0:0,0:0:0:0:
396,288,13202,6,0,L|468:188,1,90,2|0,0:0|0:0,0:0:0:0:
324,272,13502,2,0,L|396:172,1,90
252,256,13802,2,0,L|324:156,1,90,2|0,0:0|0:0,0:0:0:0:
180,240,14102,2,0,L|252:140,1,90
360,40,14402,6,0,L|308:113,1,90,2|0,0:0|0:0,0:0:0:0:
184,104,14702,2,0,L|236:31,1,90,2|0,0:0|0:0,0:0:0:0:
400,160,15002,2,0,L|348:233,1,90,2|0,0:0|0:0,0:0:0:0:
104,224,15302,2,0,L|156:151,1,90,2|0,0:0|0:0,0:0:0:0:
372,88,15602,6,0,P|440:108|488:204,1,180,6|0,0:0|0:0,0:0:0:0:
372,240,16052,1,0,0:0:0:0:
248,248,16202,1,2,0:0:0:0:
184,196,16352,1,0,0:0:0:0:
316,212,16502,1,0,0:3:0:0:
396,160,16652,1,0,0:3:0:0:
128,72,16802,6,0,P|64:108|68:212,1,180,2|0,0:0|0:0,0:0:0:0:
140,260,17252,1,0,0:0:0:0:
352,304,17402,1,2,0:0:0:0:
448,244,17552,1,0,0:0:0:0:
456,152,17702,1,0,0:3:0:0:
376,104,17852,1,0,0:3:0:0:
240,64,18002,6,0,L|144:116,1,90,2|0,0:0|0:0,0:0:0:0:
32,136,18302,2,0,L|106:185,1,90,2|0,0:0|0:0,0:0:0:0:
268,188,18602,2,0,L|156:240,1,90,2|0,0:0|0:0,0:0:0:0:
12,272,18902,2,0,L|86:321,1,90,2|0,0:0|0:0,0:0:0:0:
400,296,19202,6,0,L|484:228,1,90,2|0,0:0|0:0,0:0:0:0:
372,224,19502,2,0,L|288:156,1,90
408,140,19802,1,2,0:0:0:0:
488,96,19952,1,8,0:3:0:0:
264,172,20102,1,8,0:3:0:0:
172,116,20252,1,8,0:3:0:0:
464,112,20402,6,0,L|492:208,1,90,2|0,0:0|0:0,0:0:0:0:
376,196,20702,2,0,L|348:300,1,90
232,280,21002,2,0,L|204:176,1,90,2|0,0:0|0:0,0:0:0:0:
80,192,21302,2,0,L|28:112,1,90,0|0,0:3|0:3,0:3:0:0:
328,312,21602,6,0,P|392:288|416:236,1,90,2|0,0:0|0:0,0:0:0:0:
292,240,21902,2,0,P|324:209|368:200,1,90
120,72,22202,2,0,P|40:96|32:192,1,180,2|0,0:0|0:3,0:0:0:0:
172,212,22652,1,0,0:3:0:0:
48,112,22802,6,0,L|20:208,1,90,2|0,0:0|0:0,0:0:0:0:
136,196,23102,2,0,L|164:300,1,90
280,280,23402,2,0,L|308:176,1,90,2|0,0:0|0:0,0:0:0:0:
432,192,23702,2,0,L|484:112,1,90,0|0,0:0|0:0,0:0:0:0:
360,100,24002,6,0,L|396:204,1,90,2|0,0:0|0:0,0:0:0:0:
292,232,24302,1,0,0:0:0:0:
196,272,24452,2,0,L|152:164,1,90,0|2,0:0|0:0,0:0:0:0:
288,120,24752,1,8,0:3:0:0:
216,208,24902,1,8,0:3:0:0:
360,248,25052,1,8,0:3:0:0:
144,60,25202,6,0,P|40:136|28:212,2,180,6|8|2,0:0|0:0|0:0,0:0:0:0:
248,64,25952,1,0,0:0:0:0:
360,64,26102,2,0,L|460:64,1,90,8|0,0:0|0:0,0:0:0:0:
164,64,26402,5,2,0:0:0:0:
364,152,26702,1,8,0:0:0:0:
116,232,27002,1,2,0:0:0:0:
328,304,27302,2,0,P|396:300|444:280,1,90,8|0,0:0|0:0,0:0:0:0:
488,228,27602,5,2,0:0:0:0:
348,152,27752,1,0,0:0:0:0:
132,120,27902,2,0,P|76:128|36:168,2,90,8|0|2,0:0|0:0|0:0,0:0:0:0:
260,120,28352,1,0,0:0:0:0:
124,140,28502,6,0,P|161:115|205:112,2,90,8|0|2,0:0|0:0|0:0,0:0:0:0:
276,120,28952,2,0,L|380:176,1,90,0|8,0:0|0:0,0:0:0:0:
248,224,29252,2,0,L|160:256,1,90,0|2,0:0|0:0,0:0:0:0:
320,296,29552,1,0,0:0:0:0:
212,304,29702,1,8,0:0:0:0:
104,304,29852,1,0,0:0:0:0:
316,292,30002,6,0,L|412:200,1,90,6|0,0:0|0:0,0:0:0:0:
248,220,30302,2,0,L|152:172,1,90,8|0,0:0|0:0,0:0:0:0:
36,164,30602,2,0,L|128:120,1,90,2|0,0:0|0:0,0:0:0:0:
244,112,30902,1,8,0:0:0:0:
176,56,31052,1,0,0:0:0:0:
404,48,31202,6,0,P|476:92|508:184,1,180,2|8,0:0|0:0,0:0:0:0:
388,208,31652,1,0,0:0:0:0:
508,205,31802,2,0,L|448:304,1,90,2|0,0:0|0:0,0:0:0:0:
336,284,32102,1,8,0:0:0:0:
192,304,32252,6,2,P|120:260|88:168,1,180,0|0,0:0|0:0,0:0:0:0:
196,204,32702,1,8,0:0:0:0:
68,284,32852,1,0,0:0:0:0:
184,244,33002,1,2,0:0:0:0:
312,164,33152,1,0,0:0:0:0:
448,208,33302,1,8,0:0:0:0:
356,280,33452,1,0,0:0:0:0:
140,120,33602,5,2,0:0:0:0:
44,208,33752,1,0,0:0:0:0:
144,280,33902,1,8,0:0:0:0:
272,312,34052,2,2,P|176:296|140:196,1,180
276,196,34502,1,8,0:0:0:0:
136,156,34652,1,0,0:0:0:0:
268,120,34802,5,4,0:0:0:0:
312,100,34877,1,0,0:0:0:0:
360,88,34952,1,0,0:0:0:0:
404,100,35027,1,0,0:0:0:0:
432,136,35102,1,8,0:0:0:0:
428,184,35177,1,0,0:0:0:0:
396,216,35252,1,0,0:0:0:0:
360,232,35327,1,0,0:0:0:0:
308,236,35402,5,2,0:0:0:0:
148,204,35552,1,0,0:0:0:0:
240,140,35702,1,8,0:0:0:0:
104,96,35852,1,0,0:0:0:0:
328,92,36002,1,2,0:0:0:0:
472,92,36152,1,0,0:0:0:0:
360,192,36302,1,8,0:0:0:0:
464,288,36452,1,0,0:0:0:0:
248,332,36602,5,2,0:0:0:0:
196,324,36677,1,0,0:0:0:0:
152,312,36752,1,0,0:0:0:0:
112,292,36827,1,0,0:0:0:0:
80,264,36902,1,8,0:0:0:0:
68,220,36977,1,0,0:0:0:0:
88,172,37052,1,0,0:0:0:0:
132,144,37127,1,0,0:0:0:0:
360,88,37202,5,2,0:0:0:0:
444,156,37352,1,0,0:0:0:0:
500,224,37502,1,8,0:0:0:0:
428,292,37652,1,0,0:0:0:0:
128,336,37802,1,2,0:0:0:0:
52,268,37952,1,0,0:0:0:0:
128,192,38102,1,8,0:0:0:0:
24,132,38252,1,0,0:0:0:0:
256,116,38402,5,2,0:0:0:0:
364,144,38552,1,0,0:0:0:0:
484,184,38702,2,0,L|396:236,1,90,8|0,0:0|0:0,0:0:0:0:
196,240,39002,2,0,L|284:292,1,90,2|0,0:0|0:0,0:0:0:0:
508,308,39302,2,0,L|420:360,1,90,8|0,0:0|0:0,0:0:0:0:
132,272,39602,5,2,0:0:0:0:
88,248,39677,1,0,0:0:0:0:
72,208,39752,1,0,0:0:0:0:
168,176,39902,1,8,0:0:0:0:
296,84,40052,1,0,0:0:0:0:
276,128,40127,1,0,0:0:0:0:
272,176,40202,1,2,0:0:0:0:
448,264,40352,1,0,0:0:0:0:
464,208,40427,1,0,0:0:0:0:
436,168,40502,2,0,B|400:124|365:115,1,90,8|0,0:0|0:0,0:0:0:0:
152,168,40802,5,2,0:0:0:0:
40,260,40952,1,0,0:0:0:0:
164,336,41102,1,8,0:0:0:0:
292,304,41252,1,0,0:0:0:0:
132,228,41402,1,2,0:0:0:0:
256,140,41552,1,0,0:0:0:0:
308,144,41627,1,0,0:0:0:0:
360,136,41702,1,8,0:0:0:0:
408,116,41777,1,0,0:0:0:0:
432,80,41852,1,0,0:0:0:0:
204,312,42002,5,2,0:0:0:0:
104,260,42152,1,0,0:0:0:0:
28,200,42302,1,8,0:0:0:0:
124,128,42452,1,2,0:0:0:0:
384,88,42602,5,2,0:0:0:0:
472,156,42752,1,2,0:0:0:0:
380,208,42902,1,8,0:0:0:0:
488,268,43052,1,2,0:0:0:0:
248,292,43202,5,2,0:0:0:0:
168,248,43352,2,0,L|68:204,1,90,0|8,0:0|0:0,0:0:0:0:
256,208,43652,2,0,L|356:168,1,90,0|2,0:0|0:0,0:0:0:0:
208,136,43952,1,0,0:0:0:0:
176,96,44027,1,0,0:0:0:0:
204,48,44102,1,8,0:0:0:0:
248,28,44177,1,0,0:0:0:0:
296,28,44252,1,0,0:0:0:0:
336,56,44327,1,0,0:0:0:0:
100,176,44402,5,6,0:0:0:0:
56,208,44477,1,0,0:0:0:0:
52,268,44552,1,0,0:0:0:0:
80,316,44627,1,0,0:0:0:0:
328,340,44702,1,8,0:0:0:0:
384,328,44777,1,0,0:0:0:0:
432,304,44852,1,0,0:0:0:0:
464,264,44927,1,0,0:0:0:0:
484,216,45002,6,0,B|464:120,1,90,2|0,0:0|0:0,0:0:0:0:
192,132,45302,1,8,0:0:0:0:
296,216,45452,2,0,B|276:120,1,90,0|2,0:0|0:0,0:0:0:0:
136,132,45752,1,0,0:0:0:0:
392,212,45902,2,0,B|372:116,1,90,8|0,0:0|0:0,0:0:0:0:
40,132,46202,5,2,0:0:0:0:
4,164,46277,1,0,0:0:0:0:
48,192,46352,1,0,0:0:0:0:
104,212,46427,1,0,0:0:0:0:
156,236,46502,1,8,0:0:0:0:
104,252,46577,1,0,0:0:0:0:
52,268,46652,1,0,0:0:0:0:
0,280,46727,1,0,0:0:0:0:
48,312,46802,5,2,0:0:0:0:
180,328,46952,1,0,0:0:0:0:
88,240,47102,1,8,0:0:0:0:
448,336,47252,5,0,0:0:0:0:
368,328,47402,1,2,0:0:0:0:
440,240,47552,1,0,0:0:0:0:
300,224,47702,5,8,0:0:0:0:
164,208,47852,1,0,0:0:0:0:
288,128,48002,2,0,B|464:80,1,180,2|8,0:0|0:0,0:0:0:0:
348,36,48452,1,0,0:0:0:0:
120,36,48602,6,0,P|76:64|60:120,1,90,2|0,0:0|0:0,0:0:0:0:
180,128,48902,1,8,0:0:0:0:
72,184,49052,1,0,0:0:0:0:
212,100,49202,5,2,0:0:0:0:
248,120,49277,1,0,0:0:0:0:
280,140,49352,1,0,0:0:0:0:
140,184,49502,1,8,0:0:0:0:
312,224,49652,1,0,0:0:0:0:
280,256,49727,1,0,0:0:0:0:
248,280,49802,1,2,0:0:0:0:
352,320,49952,1,0,0:0:0:0:
392,292,50027,1,0,0:0:0:0:
428,268,50102,1,8,0:0:0:0:
136,216,50252,1,0,0:0:0:0:
80,224,50402,5,2,0:0:0:0:
160,152,50552,1,0,0:0:0:0:
44,260,50702,1,8,0:0:0:0:
160,260,50852,2,0,B|268:208,1,90,0|2,0:0|0:0,0:0:0:0:
448,156,51152,5,0,0:0:0:0:
488,120,51227,1,0,0:0:0:0:
484,72,51302,1,8,0:0:0:0:
448,40,51377,1,0,0:0:0:0:
404,28,51452,1,0,0:0:0:0:
352,28,51527,1,0,0:0:0:0:
176,100,51602,5,2,0:0:0:0:
76,168,51752,1,0,0:0:0:0:
188,248,51902,1,8,0:0:0:0:
72,316,52052,1,0,0:0:0:0:
388,108,52202,5,2,0:0:0:0:
484,160,52352,1,0,0:0:0:0:
376,204,52502,1,8,0:0:0:0:
488,288,52652,1,0,0:0:0:0:
148,92,52802,5,4,0:0:0:0:
48,176,52952,1,4,0:0:0:0:
268,212,53252,1,4,0:0:0:0:
140,64,53552,5,2,0:0:0:0:
80,88,53627,1,2,0:0:0:0:
40,128,53702,1,2,0:0:0:0:
28,168,53777,1,2,0:0:0:0:
36,216,53852,1,2,0:0:0:0:
72,252,53927,1,0,0:0:0:0:
416,292,54002,1,4,0:1:0:0:
96,88,57602,6,0,L|160:88,7,45,0|0|0|0|0|0|0|0,0:0|0:0|0:0|0:0|0:0|0:0|0:0|0:0,0:0:0:0:
188,140,58202,6,0,L|252:140,7,45,0|0|0|0|0|0|0|0,0:0|0:0|0:0|0:0|0:0|0:0|0:0|0:0,0:0:0:0:
288,192,58802,6,0,L|376:224,1,90,2|0,0:0|0:0,0:0:0:0:
476,256,59102,2,0,L|388:288,1,90,0|0,0:0|0:0,0:0:0:0:
244,176,59402,2,0,L|332:208,1,90,2|0,0:0|0:0,0:0:0:0:
472,136,59702,2,0,L|384:168,1,90,0|0,0:0|0:0,0:0:0:0:
60,160,60002,6,0,L|28:264,1,90,2|0,0:0|0:0,0:0:0:0:
188,164,60302,2,0,L|156:268,1,90,0|0,0:0|0:0,0:0:0:0:
304,176,60602,2,0,L|240:280,1,90,2|0,0:0|0:0,0:0:0:0:
36,168,60902,2,0,L|56:264,1,90
292,272,61202,5,2,0:0:0:0:
80,196,61502,1,0,0:0:0:0:
348,244,61802,1,2,0:0:0:0:
144,148,62102,1,0,0:0:0:0:
408,64,62402,5,2,0:0:0:0:
480,120,62552,1,0,0:0:0:0:
420,188,62702,1,0,0:0:0:0:
332,188,62852,1,0,0:0:0:0:
104,64,63002,1,2,0:0:0:0:
32,120,63152,1,0,0:0:0:0:
92,188,63302,1,0,0:0:0:0:
180,188,63452,1,0,0:0:0:0:
388,80,63602,6,0,P|432:108|464:164,2,90,2|0|0,0:0|0:0|0:0,0:0:0:0:
168,96,64202,1,2,0:0:0:0:
400,168,64502,1,0,0:0:0:0:
140,124,64802,6,0,L|32:276,1,180,2|0,0:0|0:0,0:0:0:0:
312,256,65402,1,2,0:0:0:0:
120,168,65702,1,0,0:0:0:0:
380,84,66002,6,0,L|432:264,1,180,2|0,0:0|0:0,0:0:0:0:
128,256,66602,2,0,L|177:84,1,180,2|0,0:0|0:0,0:0:0:0:
400,196,67202,5,4,0:1:0:0:
192,196,67352,1,4,0:0:0:0:
296,196,67652,1,4,0:0:0:0:
132,196,67952,1,4,0:0:0:0:
400,196,68252,1,4,0:0:0:0:
104,196,68402,6,0,P|48:168|12:132,2,90,4|0|8,0:0|0:0|0:0,0:0:0:0:
372,188,69002,1,2,0:0:0:0:
184,192,69302,1,8,0:0:0:0:
400,72,69602,6,0,L|464:144,1,90,2|0,0:0|0:0,0:0:0:0:
320,156,69902,2,0,L|256:228,1,90,8|0,0:0|0:0,0:0:0:0:
100,140,70202,2,0,L|160:73,1,90,2|0,0:0|0:0,0:0:0:0:
300,140,70502,2,0,L|359:207,1,90,8|0,0:0|0:0,0:0:0:0:
188,284,70802,5,2,0:0:0:0:
396,168,71102,1,8,0:0:0:0:
248,172,71402,1,2,0:0:0:0:
496,168,71702,1,8,0:0:0:0:
300,140,72002,6,0,L|218:102,1,90,2|0,0:0|0:0,0:0:0:0:
328,60,72302,1,8,0:0:0:0:
424,84,72452,1,0,0:0:0:0:
166,204,72602,2,0,L|88:160,1,90,2|0,0:0|0:0,0:0:0:0:
196,120,72902,1,8,0:0:0:0:
280,164,73052,1,0,0:0:0:0:
112,216,73202,6,0,L|32:144,1,90,2|0,0:0|0:0,0:0:0:0:
172,92,73502,1,8,0:0:0:0:
264,112,73652,1,0,0:0:0:0:
440,136,73802,2,0,L|352:212,1,90,2|0,0:0|0:0,0:0:0:0:
208,208,74102,2,0,L|312:260,1,90,8|0,0:0|0:0,0:0:0:0:
456,212,74402,6,0,L|352:264,1,90,2|0,0:0|0:0,0:0:0:0:
164,264,74702,2,0,L|268:316,1,90,8|0,0:0|0:0,0:0:0:0:
480,272,75002,2,0,L|376:324,1,90,2|0,0:0|0:0,0:0:0:0:
120,320,75302,2,0,L|224:372,1,90,8|0,0:0|0:0,0:0:0:0:
332,368,75602,5,2,0:0:0:0:
168,240,75902,1,8,0:0:0:0:
420,188,76202,1,2,0:0:0:0:
132,92,76502,1,8,0:0:0:0:
380,80,76802,6,4,P|440:120|460:176,1,90,2|0,0:0|0:0,0:0:0:0:
280,144,77102,1,8,0:0:0:0:
368,192,77252,1,4,0:0:0:0:
148,80,77402,6,0,P|88:120|68:176,1,90,2|4,0:0|0:0,0:0:0:0:
248,144,77702,1,8,0:0:0:0:
160,192,77852,1,4,0:0:0:0:
256,192,78002,12,0,83402,0:0:0:0:
188,68,83702,5,0,0:0:0:0:
140,96,83777,1,0,0:0:0:0:
116,144,83852,1,0,0:0:0:0:
140,192,83927,1,0,0:0:0:0:
188,212,84002,6,0,L|252:144,1,90,2|0,0:0|0:0,0:0:0:0:
344,172,84302,2,0,L|282:237,1,90
120,212,84602,2,0,L|184:144,1,90,2|0,0:0|0:0,0:0:0:0:
416,172,84902,2,0,L|354:237,1,90
124,276,85202,6,0,L|96:184,1,90,4|0,0:0|0:0,0:0:0:0:
236,276,85502,2,0,L|264:184,1,90,8|0,0:0|0:0,0:0:0:0:
388,136,85802,2,0,L|412:48,1,90,2|0,0:0|0:0,0:0:0:0:
176,32,86102,2,0,L|192:121,1,90,8|0,0:0|0:0,0:0:0:0:
340,136,86402,5,2,0:0:0:0:
436,172,86552,1,0,0:0:0:0:
308,136,86702,1,8,0:0:0:0:
204,184,86852,1,0,0:0:0:0:
332,224,87002,1,2,0:0:0:0:
448,264,87152,1,0,0:0:0:0:
316,296,87302,1,8,0:0:0:0:
212,336,87452,1,0,0:0:0:0:
48,320,87602,5,2,0:0:0:0:
144,272,87752,1,0,0:0:0:0:
256,212,87902,1,8,0:0:0:0:
160,168,88052,1,0,0:0:0:0:
60,120,88202,1,2,0:0:0:0:
180,96,88352,1,0,0:0:0:0:
340,236,88502,1,8,0:0:0:0:
236,260,88652,1,0,0:0:0:0:
112,272,88802,6,0,L|96:168,1,90,2|0,0:0|0:0,0:0:0:0:
236,208,89102,2,0,L|300:104,1,90,8|0,0:0|0:0,0:0:0:0:
152,104,89402,1,2,0:0:0:0:
64,168,89552,1,0,0:0:0:0:
348,116,89702,1,8,0:0:0:0:
432,184,89852,1,0,0:0:0:0:
212,72,90002,6,0,L|116:104,1,90,2|0,0:0|0:0,0:0:0:0:
24,168,90302,2,0,L|132:208,1,90,8|0,0:0|0:0,0:0:0:0:
268,176,90602,2,0,L|175:213,1,90,2|0,0:0|0:0,0:0:0:0:
60,260,90902,2,0,L|153:297,1,90,8|0,0:0|0:0,0:0:0:0:
380,308,91202,6,0,L|472:268,1,90,2|0,0:0|0:0,0:0:0:0:
336,228,91502,1,8,0:0:0:0:
240,176,91652,1,0,0:0:0:0:
360,128,91802,1,2,0:0:0:0:
456,88,91952,1,0,0:0:0:0:
324,40,92102,1,8,0:0:0:0:
216,20,92252,1,0,0:0:0:0:
444,140,92402,6,0,P|482:117|508:81,1,90,2|0,0:0|0:0,0:0:0:0:
384,52,92702,1,8,0:0:0:0:
284,48,92852,1,0,0:0:0:0:
136,68,93002,2,0,P|156:116|208:144,1,90,2|0,0:0|0:0,0:0:0:0:
284,152,93302,2,0,P|340:144|384:120,1,90,8|0,0:0|0:0,0:0:0:0:
472,136,93602,5,2,0:0:0:0:
508,176,93677,1,0,0:0:0:0:
476,216,93752,1,0,0:0:0:0:
384,264,93902,1,8,0:0:0:0:
252,252,94052,1,0,0:0:0:0:
132,200,94202,1,2,0:0:0:0:
164,192,94277,1,0,0:0:0:0:
208,172,94352,1,0,0:0:0:0:
268,80,94502,1,8,0:0:0:0:
116,88,94652,1,0,0:0:0:0:
388,184,94802,6,0,L|414:270,1,90,4|0,0:0|0:0,0:0:0:0:
272,272,95102,2,0,L|244:180,1,90,8|0,0:0|0:0,0:0:0:0:
424,136,95402,2,0,L|440:44,1,90,2|0,0:0|0:0,0:0:0:0:
80,44,95702,2,0,L|96:133,1,90,8|0,0:0|0:0,0:0:0:0:
196,92,96002,5,2,0:0:0:0:
292,140,96152,1,0,0:0:0:0:
192,200,96302,1,8,0:0:0:0:
340,104,96452,1,0,0:0:0:0:
436,192,96602,1,2,0:0:0:0:
312,244,96752,1,0,0:0:0:0:
188,208,96902,1,8,0:0:0:0:
328,104,97052,1,0,0:0:0:0:
328,104,97127,1,0,0:0:0:0:
328,104,97202,5,2,0:0:0:0:
176,96,97352,1,0,0:0:0:0:
248,184,97502,1,8,0:0:0:0:
364,108,97652,1,0,0:0:0:0:
452,192,97802,1,2,0:0:0:0:
312,196,97952,1,0,0:0:0:0:
444,296,98102,1,8,0:0:0:0:
324,288,98252,1,0,0:0:0:0:
92,312,98402,6,0,L|40:216,1,90,2|0,0:0|0:0,0:0:0:0:
192,256,98702,2,0,L|140:160,1,90,8|0,0:0|0:0,0:0:0:0:
292,196,99002,2,0,L|240:100,1,90,2|0,0:0|0:0,0:0:0:0:
388,148,99302,2,0,L|336:52,1,90,8|0,0:0|0:0,0:0:0:0:
108,168,99602,6,0,L|196:112,1,90,2|0,0:0|0:0,0:0:0:0:
404,168,99902,2,0,L|316:112,1,90,8|0,0:0|0:0,0:0:0:0:
188,168,100202,2,0,L|272:124,1,90,2|0,0:0|0:0,0:0:0:0:
440,116,100502,2,0,L|356:72,1,90,8|0,0:0|0:0,0:0:0:0:
148,76,100802,6,0,P|104:112|88:164,1,90,2|0,0:0|0:0,0:0:0:0:
184,232,101102,1,8,0:0:0:0:
320,264,101252,1,0,0:0:0:0:
444,200,101402,1,2,0:0:0:0:
308,256,101552,2,0,L|212:232,2,90,0|8|0,0:0|0:0|0:0,0:0:0:0:
100,64,102002,6,0,P|72:96|56:140,1,90,2|0,0:0|0:0,0:0:0:0:
196,64,102302,1,8,0:0:0:0:
304,64,102452,2,0,P|276:112|216:140,1,90,0|2,0:0|0:0,0:0:0:0:
144,144,102752,1,0,0:0:0:0:
288,64,102902,2,0,P|344:72|388:96,1,90,8|0,0:0|0:0,0:0:0:0:
128,116,103202,5,2,0:0:0:0:
20,196,103352,1,0,0:0:0:0:
96,288,103502,1,8,0:0:0:0:
132,304,103577,1,0,0:0:0:0:
184,308,103652,1,0,0:0:0:0:
408,232,103802,5,2,0:0:0:0:
448,196,103877,1,0,0:0:0:0:
452,152,103952,1,0,0:0:0:0:
440,112,104027,1,0,0:0:0:0:
292,152,104102,1,8,0:0:0:0:
252,124,104177,1,0,0:0:0:0:
224,84,104252,1,0,0:0:0:0:
244,44,104327,1,0,0:0:0:0:
392,52,104402,5,6,0:0:0:0:
480,104,104552,1,0,0:0:0:0:
392,172,104702,1,8,0:0:0:0:
312,124,104852,1,0,0:0:0:0:
176,84,105002,1,2,0:0:0:0:
72,92,105152,1,0,0:0:0:0:
160,172,105302,1,8,0:0:0:0:
56,204,105452,1,0,0:0:0:0:
348,88,105602,5,2,0:0:0:0:
424,160,105752,1,0,0:0:0:0:
308,252,105902,1,8,0:0:0:0:
212,204,106052,1,0,0:0:0:0:
348,88,106202,5,2,0:0:0:0:
424,160,106352,1,0,0:0:0:0:
200,244,106502,1,8,0:0:0:0:
104,196,106652,1,0,0:0:0:0:
332,68,106802,5,2,0:0:0:0:
412,136,106952,1,0,0:0:0:0:
284,160,107102,1,8,0:0:0:0:
380,248,107252,1,0,0:0:0:0:
224,324,107402,5,2,0:0:0:0:
172,312,107477,1,0,0:0:0:0:
120,280,107552,1,0,0:0:0:0:
92,228,107627,1,0,0:0:0:0:
172,212,107702,1,8,0:0:0:0:
228,200,107777,1,0,0:0:0:0:
280,168,107852,1,0,0:0:0:0:
308,116,107927,1,0,0:0:0:0:
172,112,108002,5,2,0:0:0:0:
52,64,108152,1,0,0:0:0:0:
172,112,108302,1,8,0:0:0:0:
316,80,108452,1,0,0:0:0:0:
172,112,108602,1,2,0:0:0:0:
316,80,108752,1,0,0:0:0:0:
460,112,108902,1,8,0:0:0:0:
316,80,109052,1,0,0:0:0:0:
172,56,109202,6,0,P|124:88|108:136,1,90,2|0,0:0|0:0,0:0:0:0:
224,160,109502,1,8,0:0:0:0:
320,224,109652,1,0,0:0:0:0:
204,260,109802,1,2,0:0:0:0:
120,320,109952,1,0,0:0:0:0:
264,312,110102,1,8,0:0:0:0:
384,296,110252,1,0,0:0:0:0:
252,228,110402,5,2,0:0:0:0:
224,160,110552,1,0,0:0:0:0:
376,172,110702,1,8,0:0:0:0:
404,108,110852,1,0,0:0:0:0:
248,112,111002,5,2,0:0:0:0:
220,44,111152,1,0,0:0:0:0:
396,212,111302,1,8,0:0:0:0:
424,276,111452,1,0,0:0:0:0:
268,268,111602,5,2,0:0:0:0:
164,228,111752,1,0,0:0:0:0:
20,156,111902,1,8,0:0:0:0:
104,104,112052,1,0,0:0:0:0:
268,96,112202,1,2,0:0:0:0:
172,148,112352,1,0,0:0:0:0:
24,216,112502,1,8,0:0:0:0:
112,268,112652,1,0,0:0:0:0:
228,296,112802,5,2,0:0:0:0:
280,288,112877,1,0,0:0:0:0:
320,252,112952,1,0,0:0:0:0:
336,200,113027,1,0,0:0:0:0:
304,168,113102,1,8,0:0:0:0:
160,136,113252,1,0,0:0:0:0:
256,80,113402,5,2,0:0:0:0:
300,60,113477,1,0,0:0:0:0:
352,52,113552,1,0,0:0:0:0:
128,80,113702,1,8,0:0:0:0:
80,104,113777,1,0,0:0:0:0:
36,136,113852,1,0,0:0:0:0:
8,176,113927,1,0,0:0:0:0:
264,80,114002,5,6,0:0:0:0:
368,116,114152,1,0,0:0:0:0:
440,208,114302,1,8,0:0:0:0:
360,276,114452,1,0,0:0:0:0:
96,304,114602,5,2,0:0:0:0:
0,244,114752,1,0,0:0:0:0:
100,176,114902,1,8,0:0:0:0:
184,124,115052,1,0,0:0:0:0:
336,112,115202,6,0,L|444:164,1,90,2|0,0:0|0:0,0:0:0:0:
300,200,115502,2,0,L|192:252,1,90,8|0,0:0|0:0,0:0:0:0:
60,184,115802,2,0,L|141:223,1,90,2|0,0:0|0:0,0:0:0:0:
272,240,116102,2,0,L|191:279,1,90,8|0,0:0|0:0,0:0:0:0:
32,284,116402,6,0,L|8:196,1,90,2|0,0:0|0:0,0:0:0:0:
160,200,116702,2,0,L|188:308,1,90,8|0,0:0|0:0,0:0:0:0:
332,284,117002,6,0,L|308:196,1,90,2|0,0:0|0:0,0:0:0:0:
444,192,117302,2,0,L|472:300,1,90,8|0,0:0|0:0,0:0:0:0:
232,268,117602,6,0,L|140:208,1,90,2|0,0:0|0:0,0:0:0:0:
440,192,117902,1,8,0:0:0:0:
492,160,117977,1,0,0:0:0:0:
504,104,118052,1,0,0:0:0:0:
212,64,118202,5,2,0:0:0:0:
156,76,118277,1,0,0:0:0:0:
116,104,118352,1,0,0:0:0:0:
252,160,118502,1,8,0:0:0:0:
308,172,118577,1,0,0:0:0:0:
348,200,118652,1,0,0:0:0:0:
176,320,118802,5,2,0:0:0:0:
72,256,118952,1,0,0:0:0:0:
156,164,119102,1,8,0:0:0:0:
72,256,119252,1,0,0:0:0:0:
364,320,119402,5,2,0:0:0:0:
468,256,119552,1,0,0:0:0:0:
384,164,119702,1,8,0:0:0:0:
468,256,119852,1,0,0:0:0:0:
304,172,120002,6,0,L|208:128,1,90,2|0,0:0|0:0,0:0:0:0:
44,176,120302,2,0,L|140:132,1,90,8|0,0:0|0:0,0:0:0:0:
336,280,120602,6,0,L|240:236,1,90,2|0,0:0|0:0,0:0:0:0:
20,288,120902,2,0,L|116:244,1,90,8|0,0:0|0:0,0:0:0:0:
380,288,121202,5,2,0:0:0:0:
432,272,121277,1,0,0:0:0:0:
464,240,121352,1,0,0:0:0:0:
472,184,121427,1,0,0:0:0:0:
456,128,121502,1,8,0:0:0:0:
424,88,121577,1,0,0:0:0:0:
380,64,121652,1,0,0:0:0:0:
328,60,121727,1,0,0:0:0:0:
128,84,121802,5,2,0:0:0:0:
76,104,121877,1,0,0:0:0:0:
48,152,121952,1,0,0:0:0:0:
40,204,122027,1,0,0:0:0:0:
384,84,122102,1,8,0:0:0:0:
436,104,122177,1,0,0:0:0:0:
464,152,122252,1,0,0:0:0:0:
460,208,122327,1,0,0:0:0:0:
436,256,122402,5,6,0:0:0:0:
284,256,122552,1,4,0:0:0:0:
132,248,122702,1,8,0:0:0:0:
256,308,122852,1,4,0:0:0:0:
380,228,123002,5,2,0:0:0:0:
256,136,123152,1,4,0:0:0:0:
104,204,123302,1,8,0:0:0:0:
328,244,123452,1,4,0:0:0:0:
24,192,123602,5,6,0:0:0:0:
