osu file format v14

[General]
AudioFilename: Ende.mp3
AudioLeadIn: 496
PreviewTime: 104402
Countdown: 0
SampleSet: Soft
StackLeniency: 0.7
Mode: 2
LetterboxInBreaks: 0
WidescreenStoryboard: 1

[Editor]
Bookmarks: 15576,25176,83676,103026
DistanceSpacing: 1
BeatDivisor: 4
GridSize: 4
TimelineZoom: 2.599999

[Metadata]
Title:Ende
TitleUnicode:Ende
Artist:bj.HaLo
ArtistUnicode:bj.HaLo
Creator:ZiRoX
Version:Platter
Source:BMS
Tags:LTL Deif DakeDekaane Lost_The_Lights mingmichael
BeatmapID:744230
BeatmapSetID:188401

[Difficulty]
HPDrainRate:6
CircleSize:3.7
OverallDifficulty:8
ApproachRate:8
SliderMultiplier:1.6
SliderTickRate:1

[Events]
//Background and Video events
0,0,"bg.jpg",0,0
//Break Periods
2,54202,56852
//Storyboard Layer 0 (Background)
//Storyboard Layer 1 (Fail)
//Storyboard Layer 2 (Pass)
//Storyboard Layer 3 (Foreground)
//Storyboard Sound Samples

[TimingPoints]
1202,300,4,2,0,40,1,0
6002,-100,4,2,1,40,0,0
15602,-100,4,2,0,40,0,0
25202,-100,4,2,0,60,0,0
34802,-100,4,2,0,80,0,1
52802,-100,4,2,0,60,0,1
54002,-100,4,2,0,60,0,0
57602,-100,4,1,0,20,0,0
58802,-100,4,2,0,50,0,0
68402,-100,4,2,0,60,0,0
76802,-100,4,2,0,50,0,0
83702,-100,4,1,0,20,0,0
84002,-100,4,2,0,50,0,0
85202,-100,4,2,0,60,0,0
104402,-100,4,2,0,80,0,1
114002,-100,4,2,0,60,0,1
123602,-100,4,1,0,40,0,0

[Colours]
Combo1 : 254,218,141
Combo2 : 231,109,80
Combo3 : 239,190,99

[HitObjects]
196,280,1202,5,2,0:0:0:0:
52,216,1502,1,0,0:0:0:0:
172,140,1802,1,0,0:0:0:0:
336,128,2102,2,0,L|384:200,1,80,0|0,0:0|0:0,0:0:0:0:
268,228,2402,5,2,0:0:0:0:
100,204,2702,1,0,0:0:0:0:
312,160,3002,1,0,0:0:0:0:
164,104,3302,1,0,0:0:0:0:
248,64,3452,2,0,P|308:60|400:100,1,160,2|0,0:0|0:0,0:0:0:0:
292,136,3902,5,0,0:0:0:0:
376,208,4052,2,0,P|316:212|224:172,1,160,2|0,0:0|0:0,0:0:0:0:
140,88,4502,1,0,0:0:0:0:
56,156,4652,1,0,0:0:0:0:
156,192,4802,5,2,0:0:0:0:
260,248,4952,1,2,0:0:0:0:
168,320,5102,1,0,0:0:0:0:
56,296,5252,2,0,B|136:148,1,160,2|0,0:0|0:0,0:0:0:0:
220,104,5702,1,0,0:0:0:0:
136,52,5852,1,0,0:0:0:0:
360,76,6002,5,6,0:0:0:0:
496,152,6302,1,0,0:0:0:0:
364,220,6602,1,2,0:0:0:0:
216,144,6902,1,0,0:0:0:0:
416,108,7202,6,0,L|504:264,1,160,2|0,0:0|0:0,0:0:0:0:
244,312,7802,2,0,L|100:240,1,160,2|0,0:0|0:0,0:0:0:0:
12,200,8252,1,0,0:0:0:0:
104,212,8402,5,10,0:0:0:0:
296,168,8702,1,0,0:0:0:0:
200,52,9002,1,2,0:0:0:0:
392,120,9302,1,0,0:0:0:0:
244,204,9602,6,0,L|84:312,1,160,2|0,0:0|0:0,0:0:0:0:
288,320,10202,1,2,0:0:0:0:
372,324,10352,2,0,L|468:324,2,80,8|8|8,0:0|0:0|0:0,0:0:0:0:
212,320,10802,6,0,P|132:288|100:220,1,160,6|0,0:0|0:0,0:0:0:0:
296,320,11402,2,0,P|376:288|408:220,1,160,2|0,0:0|0:0,0:0:0:0:
160,304,12002,6,0,L|32:172,1,160,2|0,0:0|0:0,0:0:0:0:
312,208,12602,2,0,L|422:91,1,160,2|0,0:0|0:0,0:0:0:0:
168,212,13202,6,0,L|168:48,1,160,2|0,0:0|0:0,0:0:0:0:
344,212,13802,2,0,L|344:48,1,160,2|0,0:0|0:0,0:0:0:0:
192,40,14402,6,0,L|244:113,1,80,2|0,0:0|0:0,0:0:0:0:
320,40,14702,2,0,L|268:113,1,80,2|0,0:0|0:0,0:0:0:0:
176,76,15002,2,0,L|228:149,1,80,2|0,0:0|0:0,0:0:0:0:
336,76,15302,2,0,L|284:149,1,80,2|0,0:0|0:0,0:0:0:0:
132,88,15602,6,0,P|64:108|16:204,1,160,6|0,0:0|0:0,0:0:0:0:
260,280,16202,1,2,0:0:0:0:
132,192,16502,1,0,0:3:0:0:
76,104,16652,1,0,0:3:0:0:
236,80,16802,6,0,P|304:92|348:172,1,160,2|0,0:0|0:0,0:0:0:0:
168,240,17402,1,2,0:0:0:0:
388,328,17702,1,0,0:3:0:0:
336,252,17852,1,0,0:3:0:0:
172,232,18152,5,0,0:0:0:0:
392,164,18452,1,0,0:0:0:0:
216,292,18752,1,0,0:0:0:0:
308,304,18902,2,0,L|320:384,1,80,2|0,0:0|0:0,0:0:0:0:
204,332,19202,6,0,L|120:264,1,80,2|0,0:0|0:0,0:0:0:0:
364,228,19652,1,0,0:0:0:0:
200,72,19952,1,8,0:3:0:0:
120,108,20102,1,8,0:3:0:0:
56,180,20252,1,8,0:3:0:0:
200,208,20402,6,0,L|344:308,1,160,2|0,0:0|0:0,0:0:0:0:
480,244,21002,2,0,L|304:160,1,160,2|0,0:0|0:3,0:0:0:0:
248,148,21452,1,0,0:3:0:0:
80,144,21602,6,0,L|228:268,1,160,2|0,0:0|0:0,0:0:0:0:
384,304,22202,2,0,P|464:280|472:184,1,160,2|0,0:0|0:3,0:0:0:0:
400,176,22652,1,0,0:3:0:0:
192,112,22952,5,0,0:0:0:0:
400,176,23252,1,0,0:0:0:0:
208,240,23552,1,0,0:0:0:0:
120,260,23702,1,0,0:0:0:0:
56,324,23852,1,0,0:0:0:0:
152,348,24002,6,0,L|244:284,1,80,2|0,0:0|0:0,0:0:0:0:
428,248,24452,1,0,0:0:0:0:
200,96,24752,1,8,0:3:0:0:
128,156,24902,1,8,0:3:0:0:
60,220,25052,1,8,0:3:0:0:
280,220,25202,6,0,P|372:180|404:108,2,160,6|8|2,0:0|0:0|0:0,0:0:0:0:
128,120,26102,2,0,L|56:176,1,80,8|0,0:0|0:0,0:0:0:0:
160,228,26402,5,2,0:0:0:0:
392,128,26702,1,8,0:0:0:0:
176,232,27002,1,2,0:0:0:0:
344,304,27302,6,0,P|412:300|452:284,1,80,8|0,0:0|0:0,0:0:0:0:
264,216,27752,1,0,0:0:0:0:
180,192,27902,2,0,P|124:200|84:232,1,80,2|0,0:0|0:0,0:0:0:0:
328,128,28352,1,0,0:0:0:0:
420,80,28502,2,0,P|383:55|344:52,1,80,2|0,0:0|0:0,0:0:0:0:
248,64,28802,6,0,L|156:112,1,80,2|0,0:0|0:0,0:0:0:0:
360,216,29252,1,0,0:0:0:0:
100,304,29552,1,0,0:0:0:0:
28,244,29702,1,2,0:0:0:0:
104,176,29852,1,0,0:0:0:0:
212,300,30002,6,0,P|304:260|336:188,2,160,6|8|2,0:0|0:0|0:0,0:0:0:0:
376,76,30902,2,0,L|480:28,1,80,8|0,0:0|0:0,0:0:0:0:
288,40,31202,6,0,P|216:84|188:164,1,160,2|8,0:0|0:0,0:0:0:0:
348,232,31802,1,2,0:0:0:0:
488,344,32102,1,8,0:0:0:0:
352,344,32252,6,2,P|280:300|232:228,1,160
40,180,32852,1,0,0:0:0:0:
212,184,33152,1,0,0:0:0:0:
320,184,33302,1,8,0:0:0:0:
212,280,33452,1,0,0:0:0:0:
324,280,33602,5,2,0:0:0:0:
436,192,33752,1,0,0:0:0:0:
232,308,34052,2,2,P|156:284|104:208,1,160
56,128,34502,1,2,0:0:0:0:
160,52,34652,1,0,0:0:0:0:
424,80,34802,5,4,0:0:0:0:
472,104,34877,1,0,0:0:0:0:
504,148,34952,1,0,0:0:0:0:
500,204,35027,1,0,0:0:0:0:
464,232,35102,1,8,0:0:0:0:
416,256,35177,1,0,0:0:0:0:
368,252,35252,1,0,0:0:0:0:
320,236,35327,1,0,0:0:0:0:
276,216,35402,5,2,0:0:0:0:
184,184,35552,1,0,0:0:0:0:
96,144,35702,1,8,0:0:0:0:
8,104,35852,1,0,0:0:0:0:
104,64,36002,1,2,0:0:0:0:
204,56,36152,1,0,0:0:0:0:
104,136,36302,1,8,0:0:0:0:
224,168,36452,1,0,0:0:0:0:
100,228,36602,5,2,0:0:0:0:
48,248,36677,1,0,0:0:0:0:
8,292,36752,1,0,0:0:0:0:
28,348,36827,1,0,0:0:0:0:
64,372,36902,1,8,0:0:0:0:
116,360,36977,1,0,0:0:0:0:
172,336,37052,1,0,0:0:0:0:
228,304,37127,1,0,0:0:0:0:
280,272,37202,5,2,0:0:0:0:
356,208,37352,1,0,0:0:0:0:
240,180,37502,1,8,0:0:0:0:
152,124,37652,1,0,0:0:0:0:
264,88,37802,1,2,0:0:0:0:
360,144,37952,1,0,0:0:0:0:
248,180,38102,1,8,0:0:0:0:
136,216,38252,1,0,0:0:0:0:
16,184,38402,6,0,L|100:228,1,80,2|0,0:0|0:0,0:0:0:0:
28,112,38702,2,0,L|108:156,1,80,8|0,0:0|0:0,0:0:0:0:
260,236,39002,2,0,L|180:284,1,80,2|0,0:0|0:0,0:0:0:0:
60,312,39302,2,0,L|144:360,1,80,8|0,0:0|0:0,0:0:0:0:
368,336,39602,5,2,0:0:0:0:
412,304,39677,1,0,0:0:0:0:
432,256,39752,1,0,0:0:0:0:
324,240,39902,1,8,0:0:0:0:
236,240,40052,1,0,0:0:0:0:
192,208,40127,1,0,0:0:0:0:
172,152,40202,1,2,0:0:0:0:
384,240,40352,1,0,0:0:0:0:
428,208,40427,1,0,0:0:0:0:
456,156,40502,2,0,P|464:116|456:72,1,80,8|0,0:0|0:0,0:0:0:0:
340,60,40802,5,2,0:0:0:0:
232,124,40952,1,0,0:0:0:0:
340,180,41102,1,8,0:0:0:0:
224,240,41252,1,0,0:0:0:0:
344,312,41402,1,2,0:0:0:0:
436,292,41552,1,0,0:0:0:0:
476,268,41627,1,0,0:0:0:0:
504,220,41702,1,8,0:0:0:0:
484,168,41777,1,0,0:0:0:0:
436,132,41852,1,0,0:0:0:0:
324,128,42002,5,2,0:0:0:0:
208,176,42152,1,0,0:0:0:0:
296,228,42302,1,8,0:0:0:0:
192,280,42452,1,2,0:0:0:0:
92,128,42602,5,2,0:0:0:0:
208,176,42752,1,2,0:0:0:0:
120,228,42902,1,8,0:0:0:0:
224,280,43052,1,2,0:0:0:0:
328,220,43202,5,2,0:0:0:0:
408,176,43352,2,0,L|504:132,1,80,0|8,0:0|0:0,0:0:0:0:
340,136,43652,2,0,L|240:96,1,80,0|2,0:0|0:0,0:0:0:0:
392,80,43952,1,0,0:0:0:0:
288,44,44102,1,8,0:0:0:0:
184,56,44252,1,0,0:0:0:0:
436,100,44402,5,6,0:0:0:0:
484,140,44477,1,0,0:0:0:0:
496,196,44552,1,0,0:0:0:0:
472,248,44627,1,0,0:0:0:0:
428,288,44702,1,8,0:0:0:0:
372,308,44777,1,0,0:0:0:0:
308,304,44852,1,0,0:0:0:0:
248,284,44927,1,0,0:0:0:0:
200,236,45002,6,0,B|180:144,1,80,2|0,0:0|0:0,0:0:0:0:
272,140,45302,1,8,0:0:0:0:
388,236,45452,2,0,B|368:144,1,80,0|2,0:0|0:0,0:0:0:0:
252,140,45752,1,0,0:0:0:0:
112,240,45902,2,0,B|92:148,1,80,8|0,0:0|0:0,0:0:0:0:
232,132,46202,5,2,0:0:0:0:
280,140,46277,1,0,0:0:0:0:
324,168,46352,1,0,0:0:0:0:
360,208,46427,1,0,0:0:0:0:
372,260,46502,1,8,0:0:0:0:
356,316,46577,1,0,0:0:0:0:
316,352,46652,1,0,0:0:0:0:
268,364,46727,1,0,0:0:0:0:
216,364,46802,5,2,0:0:0:0:
120,332,46952,1,0,0:0:0:0:
56,244,47102,1,8,0:0:0:0:
296,364,47252,5,0,0:0:0:0:
392,332,47402,1,2,0:0:0:0:
456,244,47552,1,0,0:0:0:0:
340,268,47702,5,8,0:0:0:0:
228,312,47852,1,0,0:0:0:0:
124,268,48002,2,0,B|296:220,1,160,2|8,0:0|0:0,0:0:0:0:
180,168,48452,1,0,0:0:0:0:
252,100,48602,6,0,L|136:80,1,80,2|0,0:0|0:0,0:0:0:0:
76,88,48902,1,8,0:0:0:0:
4,176,49052,1,0,0:0:0:0:
128,192,49202,5,2,0:0:0:0:
160,236,49277,1,0,0:0:0:0:
196,288,49352,1,0,0:0:0:0:
288,288,49502,1,8,0:0:0:0:
388,288,49652,1,0,0:0:0:0:
364,236,49727,1,0,0:0:0:0:
340,184,49802,1,2,0:0:0:0:
196,288,49952,1,0,0:0:0:0:
220,236,50027,1,0,0:0:0:0:
244,184,50102,1,8,0:0:0:0:
332,104,50252,1,0,0:0:0:0:
436,96,50402,5,2,0:0:0:0:
512,168,50552,1,0,0:0:0:0:
408,244,50702,1,8,0:0:0:0:
312,192,50852,2,0,B|368:108,1,80,0|2,0:0|0:0,0:0:0:0:
244,112,51152,5,0,0:0:0:0:
192,112,51227,1,0,0:0:0:0:
148,124,51302,1,8,0:0:0:0:
120,156,51377,1,0,0:0:0:0:
108,204,51452,1,0,0:0:0:0:
148,240,51527,1,0,0:0:0:0:
200,256,51602,5,2,0:0:0:0:
264,208,51752,1,0,0:0:0:0:
208,156,51902,1,8,0:0:0:0:
92,144,52052,1,0,0:0:0:0:
28,92,52202,1,2,0:0:0:0:
92,36,52352,1,0,0:0:0:0:
240,40,52502,1,8,0:0:0:0:
312,100,52652,1,0,0:0:0:0:
200,152,52802,5,4,0:0:0:0:
468,200,52952,1,4,0:0:0:0:
348,308,53252,1,4,0:0:0:0:
180,328,53552,5,2,0:0:0:0:
124,304,53627,1,2,0:0:0:0:
92,264,53702,1,2,0:0:0:0:
92,204,53777,1,2,0:0:0:0:
132,160,53852,1,2,0:0:0:0:
188,136,53927,1,0,0:0:0:0:
296,116,54002,1,4,0:1:0:0:
120,80,57602,6,0,L|176:80,7,40,0|0|0|0|0|0|0|0,0:0|0:0|0:0|0:0|0:0|0:0|0:0|0:0,0:0:0:0:
196,136,58202,6,0,L|256:136,7,40,0|0|0|0|0|0|0|0,0:0|0:0|0:0|0:0|0:0|0:0|0:0|0:0,0:0:0:0:
260,204,58802,6,0,L|260:300,1,80,2|0,0:0|0:0,0:0:0:0:
156,204,59102,1,0,0:0:0:0:
312,200,59402,1,0,0:0:0:0:
156,204,59702,1,0,0:0:0:0:
364,204,60002,6,0,L|416:360,1,160,2|0,0:0|0:0,0:0:0:0:
148,204,60602,2,0,L|96:360,1,160,2|0,0:0|0:0,0:0:0:0:
304,336,61202,5,2,0:0:0:0:
436,240,61502,1,0,0:0:0:0:
260,184,61802,1,2,0:0:0:0:
388,108,62102,1,0,0:0:0:0:
104,64,62402,5,2,0:0:0:0:
32,120,62552,1,0,0:0:0:0:
92,188,62702,1,0,0:0:0:0:
180,188,62852,1,0,0:0:0:0:
328,80,63002,1,2,0:0:0:0:
416,80,63152,1,0,0:0:0:0:
476,148,63302,1,0,0:0:0:0:
404,204,63452,1,0,0:0:0:0:
296,132,63602,6,0,P|268:102|234:83,2,80,2|0|0,0:0|0:0|0:0,0:0:0:0:
132,96,64202,1,2,0:0:0:0:
296,184,64502,1,0,0:0:0:0:
104,200,64802,6,0,L|228:304,1,160,2|0,0:0|0:0,0:0:0:0:
376,196,65402,2,0,L|252:300,1,160,2|0,0:0|0:0,0:0:0:0:
144,112,66002,6,0,B|104:184|104:184|152:288,1,160,2|0,0:0|0:0,0:0:0:0:
368,112,66602,2,0,B|408:184|408:184|360:288,1,160,2|0,0:0|0:0,0:0:0:0:
128,292,67202,5,4,0:1:0:0:
372,296,67352,1,4,0:0:0:0:
252,196,67652,1,4,0:0:0:0:
368,196,67952,1,4,0:0:0:0:
176,196,68252,1,4,0:0:0:0:
408,196,68402,6,0,P|464:168|496:136,2,80,4|0|8,0:0|0:0|0:0,0:0:0:0:
320,196,69002,1,2,0:0:0:0:
184,192,69302,1,8,0:0:0:0:
384,72,69602,6,0,L|352:160,1,80,2|0,0:0|0:0,0:0:0:0:
212,136,69902,2,0,L|180:224,1,80,8|0,0:0|0:0,0:0:0:0:
288,208,70202,2,0,L|256:296,1,80,2|0,0:0|0:0,0:0:0:0:
124,248,70502,2,0,L|92:336,1,80,8|0,0:0|0:0,0:0:0:0:
224,340,70802,5,2,0:0:0:0:
56,296,71102,1,8,0:0:0:0:
224,200,71402,1,2,0:0:0:0:
96,148,71702,1,8,0:0:0:0:
268,132,72002,6,0,L|360:88,1,80,2|0,0:0|0:0,0:0:0:0:
436,64,72302,1,8,0:0:0:0:
284,172,72602,2,0,L|208:128,1,80,2|0,0:0|0:0,0:0:0:0:
124,92,72902,1,8,0:0:0:0:
392,128,73202,6,0,L|472:192,1,80,2|0,0:0|0:0,0:0:0:0:
336,228,73502,1,8,0:0:0:0:
208,308,73802,1,2,0:0:0:0:
492,352,74102,1,8,0:0:0:0:
360,244,74402,6,0,L|260:192,1,80,2|0,0:0|0:0,0:0:0:0:
144,136,74702,2,0,L|248:188,1,80,8|0,0:0|0:0,0:0:0:0:
352,108,75002,2,0,L|248:160,1,80,2|0,0:0|0:0,0:0:0:0:
140,268,75302,2,0,L|240:220,1,80,8|0,0:0|0:0,0:0:0:0:
324,228,75602,5,2,0:0:0:0:
140,148,75902,1,8,0:0:0:0:
376,136,76202,1,2,0:0:0:0:
124,88,76502,1,8,0:0:0:0:
380,80,76802,6,0,P|440:120|456:156,1,80,2|0,0:0|0:0,0:0:0:0:
356,184,77102,1,8,0:0:0:0:
264,236,77252,1,4,0:0:0:0:
100,256,77402,6,0,P|40:296|24:328,1,80,2|4,0:0|0:0,0:0:0:0:
176,348,77702,1,8,0:0:0:0:
288,312,77852,1,4,0:0:0:0:
256,192,78002,12,0,83402,0:0:0:0:
180,304,83702,6,0,L|136:304,3,40,0|0|0|0,0:0|0:0|0:0|0:0,0:0:0:0:
88,256,84002,6,0,L|104:168,1,80,2|0,0:0|0:0,0:0:0:0:
212,260,84302,2,0,L|228:172,1,80,0|0,0:0|0:0,0:0:0:0:
336,264,84602,2,0,L|352:176,1,80,2|0,0:0|0:0,0:0:0:0:
464,260,84902,2,0,L|448:172,1,80,0|0,0:0|0:0,0:0:0:0:
228,268,85202,6,0,L|200:184,1,80,4|0,0:0|0:0,0:0:0:0:
108,172,85502,2,0,L|136:84,1,80,8|0,0:0|0:0,0:0:0:0:
244,172,85802,2,0,L|272:84,1,80,2|0,0:0|0:0,0:0:0:0:
400,184,86102,2,0,L|428:96,1,80,8|0,0:0|0:0,0:0:0:0:
308,96,86402,5,2,0:0:0:0:
252,180,86552,1,0,0:0:0:0:
372,216,86702,1,8,0:0:0:0:
312,284,86852,1,0,0:0:0:0:
204,300,87002,1,2,0:0:0:0:
112,256,87152,1,0,0:0:0:0:
216,212,87302,1,8,0:0:0:0:
288,136,87452,1,0,0:0:0:0:
384,184,87602,5,2,0:0:0:0:
144,40,87902,1,8,0:0:0:0:
328,40,88202,1,2,0:0:0:0:
144,184,88502,1,8,0:0:0:0:
360,276,88802,6,0,L|336:176,1,80,2|0,0:0|0:0,0:0:0:0:
220,260,89102,2,0,L|204:160,1,80,8|0,0:0|0:0,0:0:0:0:
76,216,89402,1,2,0:0:0:0:
52,112,89552,1,0,0:0:0:0:
164,128,89702,1,8,0:0:0:0:
184,212,89852,1,0,0:0:0:0:
300,72,90002,6,0,L|392:104,1,80,2|0,0:0|0:0,0:0:0:0:
472,164,90302,1,8,0:0:0:0:
276,184,90602,1,2,0:0:0:0:
84,272,90902,1,8,0:0:0:0:
256,136,91202,5,2,0:0:0:0:
404,156,91502,1,8,0:0:0:0:
256,136,91802,1,2,0:0:0:0:
112,152,92102,1,8,0:0:0:0:
364,228,92402,6,0,P|394:179|388:120,1,80,2|0,0:0|0:0,0:0:0:0:
292,144,92702,1,8,0:0:0:0:
100,136,93002,2,0,P|71:184|76:244,1,80,2|0,0:0|0:0,0:0:0:0:
156,276,93302,1,8,0:0:0:0:
408,164,93602,5,2,0:0:0:0:
320,232,93752,1,0,0:0:0:0:
420,276,93902,1,8,0:0:0:0:
320,320,94052,1,0,0:0:0:0:
212,320,94202,1,2,0:0:0:0:
116,276,94352,1,0,0:0:0:0:
212,224,94502,1,8,0:0:0:0:
304,164,94652,1,0,0:0:0:0:
188,144,94802,6,0,L|256:76,1,80,4|0,0:0|0:0,0:0:0:0:
168,216,95102,2,0,L|236:160,1,80,8|0,0:0|0:0,0:0:0:0:
308,272,95402,2,0,L|224:228,1,80,2|0,0:0|0:0,0:0:0:0:
144,356,95702,2,0,L|240:336,1,80,8|0,0:0|0:0,0:0:0:0:
308,308,96002,5,2,0:0:0:0:
400,256,96152,1,0,0:0:0:0:
312,188,96302,1,8,0:0:0:0:
408,140,96452,1,0,0:0:0:0:
312,76,96602,1,2,0:0:0:0:
220,140,96752,1,0,0:0:0:0:
312,188,96902,1,8,0:0:0:0:
224,264,97052,1,0,0:0:0:0:
120,260,97202,5,2,0:0:0:0:
64,176,97352,1,0,0:0:0:0:
156,120,97502,1,8,0:0:0:0:
256,200,97652,1,0,0:0:0:0:
332,296,97802,1,2,0:0:0:0:
440,240,97952,1,0,0:0:0:0:
364,156,98102,1,8,0:0:0:0:
256,256,98252,1,0,0:0:0:0:
152,248,98402,6,0,L|104:160,1,80,2|0,0:0|0:0,0:0:0:0:
232,176,98702,2,0,L|280:84,1,80,8|0,0:0|0:0,0:0:0:0:
136,144,99002,2,0,L|88:56,1,80,2|0,0:0|0:0,0:0:0:0:
244,96,99302,2,0,L|292:8,1,80,8|0,0:0|0:0,0:0:0:0:
388,64,99602,6,0,L|460:112,1,80,2|0,0:0|0:0,0:0:0:0:
344,144,99902,2,0,L|272:192,1,80,8|0,0:0|0:0,0:0:0:0:
188,260,100202,2,0,L|276:324,1,80,2|0,0:0|0:0,0:0:0:0:
384,291,100502,2,0,L|296:227,1,80,8|0,0:0|0:0,0:0:0:0:
228,200,100802,6,0,P|245:164|279:143,1,80,2|0,0:0|0:0,0:0:0:0:
376,104,101102,1,8,0:0:0:0:
264,72,101252,1,0,0:0:0:0:
172,112,101402,1,2,0:0:0:0:
252,156,101552,2,0,L|344:180,2,80,0|8|0,0:0|0:0|0:0,0:0:0:0:
104,128,102002,6,0,P|66:150|40:188,1,80,2|0,0:0|0:0,0:0:0:0:
140,216,102302,1,8,0:0:0:0:
220,276,102452,2,0,P|244:316|292:352,1,80,0|2,0:0|0:0,0:0:0:0:
348,244,102752,1,0,0:0:0:0:
260,168,102902,2,0,P|212:172|164:200,1,80,8|0,0:0|0:0,0:0:0:0:
88,256,103202,5,6,0:0:0:0:
180,336,103352,1,4,0:0:0:0:
360,296,103652,1,4,0:0:0:0:
168,216,103952,1,4,0:0:0:0:
384,192,104252,1,4,0:0:0:0:
148,80,104402,5,6,0:0:0:0:
60,128,104552,1,0,0:0:0:0:
0,208,104702,1,8,0:0:0:0:
72,280,104852,1,0,0:0:0:0:
160,304,105002,5,2,0:0:0:0:
264,292,105152,1,0,0:0:0:0:
348,204,105302,1,8,0:0:0:0:
264,120,105452,1,0,0:0:0:0:
132,360,105602,5,2,0:0:0:0:
128,256,105752,1,0,0:0:0:0:
248,260,105902,1,8,0:0:0:0:
232,156,106052,1,0,0:0:0:0:
352,224,106202,5,2,0:0:0:0:
360,124,106352,1,0,0:0:0:0:
476,160,106502,1,8,0:0:0:0:
436,60,106652,1,0,0:0:0:0:
196,84,106802,5,2,0:0:0:0:
88,132,106952,1,0,0:0:0:0:
36,236,107102,1,8,0:0:0:0:
120,304,107252,1,0,0:0:0:0:
240,316,107402,6,0,L|268:288,7,40,2|0|0|0|8|0|0|0,0:0|0:0|0:0|0:0|0:0|0:0|0:0|0:0,0:0:0:0:
308,268,108002,6,0,L|324:184,1,80,2|0,0:0|0:0,0:0:0:0:
204,268,108302,2,0,L|188:184,1,80,8|0,0:0|0:0,0:0:0:0:
268,144,108602,1,2,0:0:0:0:
172,188,108752,1,0,0:0:0:0:
280,244,108902,1,8,0:0:0:0:
164,292,109052,1,0,0:0:0:0:
312,312,109202,6,0,P|360:280|380:232,1,80,2|0,0:0|0:0,0:0:0:0:
296,188,109502,1,8,0:0:0:0:
392,160,109652,1,0,0:0:0:0:
304,100,109802,1,2,0:0:0:0:
208,128,109952,1,0,0:0:0:0:
120,172,110102,1,8,0:0:0:0:
216,228,110252,1,0,0:0:0:0:
116,272,110402,5,2,0:0:0:0:
32,220,110552,1,0,0:0:0:0:
108,132,110702,1,8,0:0:0:0:
196,88,110852,1,0,0:0:0:0:
276,152,111002,1,2,0:0:0:0:
344,232,111152,1,0,0:0:0:0:
236,256,111302,1,8,0:0:0:0:
136,296,111452,1,0,0:0:0:0:
256,328,111602,5,2,0:0:0:0:
180,256,111752,1,0,0:0:0:0:
80,192,111902,1,8,0:0:0:0:
152,116,112052,1,0,0:0:0:0:
268,140,112202,1,2,0:0:0:0:
336,68,112352,1,0,0:0:0:0:
432,80,112502,1,8,0:0:0:0:
344,160,112652,1,0,0:0:0:0:
220,168,112802,5,2,0:0:0:0:
140,228,112952,1,0,0:0:0:0:
200,316,113102,1,8,0:0:0:0:
292,364,113252,1,0,0:0:0:0:
392,364,113402,5,2,0:0:0:0:
440,344,113477,1,0,0:0:0:0:
472,296,113552,1,0,0:0:0:0:
380,280,113702,1,8,0:0:0:0:
336,248,113777,1,0,0:0:0:0:
320,192,113852,1,0,0:0:0:0:
104,116,114002,6,0,L|32:200,1,80
120,240,114302,1,8,0:0:0:0:
360,240,114602,5,2,0:0:0:0:
120,240,114902,1,8,0:0:0:0:
252,236,115202,6,0,L|164:304,1,80,2|0,0:0|0:0,0:0:0:0:
80,240,115502,2,0,L|168:308,1,80,8|0,0:0|0:0,0:0:0:0:
276,240,115802,2,0,L|188:308,1,80,2|0,0:0|0:0,0:0:0:0:
92,240,116102,2,0,L|180:308,1,80,8|0,0:0|0:0,0:0:0:0:
280,296,116402,6,0,L|260:216,1,80,2|0,0:0|0:0,0:0:0:0:
128,288,116702,2,0,L|108:208,1,80,8|0,0:0|0:0,0:0:0:0:
228,180,117002,2,0,L|208:100,1,80,2|0,0:0|0:0,0:0:0:0:
48,172,117302,2,0,L|28:92,1,80,8|0,0:0|0:0,0:0:0:0:
164,72,117602,6,0,L|256:128,1,80,2|0,0:0|0:0,0:0:0:0:
372,192,117902,2,0,L|304:151,1,80,2|0,0:0|0:0,0:0:0:0:
164,72,118202,2,0,L|256:128,1,80,2|0,0:0|0:0,0:0:0:0:
368,192,118502,2,0,L|300:151,1,80,2|0,0:0|0:0,0:0:0:0:
144,196,118802,5,2,0:0:0:0:
224,152,118952,1,0,0:0:0:0:
132,84,119102,1,8,0:0:0:0:
224,52,119252,1,0,0:0:0:0:
312,84,119402,5,2,0:0:0:0:
224,152,119552,1,0,0:0:0:0:
308,192,119702,1,8,0:0:0:0:
224,252,119852,1,0,0:0:0:0:
316,300,120002,6,0,L|408:344,1,80,2|0,0:0|0:0,0:0:0:0:
256,276,120302,2,0,L|164:236,1,80,8|0,0:0|0:0,0:0:0:0:
336,180,120602,6,0,L|264:215,1,80,2|0,0:0|0:0,0:0:0:0:
180,348,120902,2,0,L|88:392,1,80,8|0,0:0|0:0,0:0:0:0:
324,320,121202,5,2,0:0:0:0:
384,304,121277,1,0,0:0:0:0:
440,272,121352,1,0,0:0:0:0:
476,224,121427,1,0,0:0:0:0:
492,160,121502,1,8,0:0:0:0:
460,104,121577,1,0,0:0:0:0:
404,64,121652,1,0,0:0:0:0:
336,56,121727,1,0,0:0:0:0:
280,64,121802,5,2,0:0:0:0:
232,96,121877,1,0,0:0:0:0:
208,156,121952,1,0,0:0:0:0:
244,204,122027,1,0,0:0:0:0:
304,224,122102,1,8,0:0:0:0:
356,260,122177,1,0,0:0:0:0:
360,312,122252,1,0,0:0:0:0:
324,356,122327,1,0,0:0:0:0:
268,368,122402,5,4,0:0:0:0:
160,288,122552,1,0,0:0:0:0:
260,260,122702,1,8,0:0:0:0:
160,192,122852,1,4,0:0:0:0:
272,160,123002,5,2,0:0:0:0:
364,116,123152,1,4,0:0:0:0:
432,204,123302,1,8,0:0:0:0:
356,256,123452,1,0,0:0:0:0:
92,252,123602,5,6,0:0:0:0:
