osu file format v14

[General]
AudioFilename: Ende.mp3
AudioLeadIn: 496
PreviewTime: 104402
Countdown: 0
SampleSet: Soft
StackLeniency: 0.7
Mode: 2
LetterboxInBreaks: 0
WidescreenStoryboard: 0

[Editor]
Bookmarks: 73202
DistanceSpacing: 1
BeatDivisor: 4
GridSize: 4
TimelineZoom: 2.599999

[Metadata]
Title:Ende
TitleUnicode:Ende
Artist:bj.HaLo
ArtistUnicode:bj.HaLo
Creator:ZiRoX
Version:Cup
Source:BMS
Tags:LTL Deif DakeDekaane Lost_The_Lights mingmichael
BeatmapID:475654
BeatmapSetID:188401

[Difficulty]
HPDrainRate:4
CircleSize:2.5
OverallDifficulty:5
ApproachRate:5
SliderMultiplier:1.2
SliderTickRate:1

[Events]
//Background and Video events
0,0,"bg.jpg",0,0
//Break Periods
2,54202,56402
//Storyboard Layer 0 (Background)
//Storyboard Layer 1 (Fail)
//Storyboard Layer 2 (Pass)
//Storyboard Layer 3 (Foreground)
//Storyboard Sound Samples

[TimingPoints]
1202,300,4,2,0,40,1,0
6002,-100,4,2,1,40,0,0
15602,-100,4,2,0,40,0,0
25202,-100,4,2,0,60,0,0
34802,-100,4,2,0,80,0,1
52802,-100,4,2,0,60,0,1
54002,-100,4,2,0,60,0,0
57602,-100,4,1,0,20,0,0
58802,-100,4,2,0,50,0,0
68402,-100,4,2,0,60,0,0
76802,-100,4,2,0,50,0,0
83702,-100,4,1,0,20,0,0
84002,-100,4,2,0,50,0,0
85202,-100,4,2,0,60,0,0
104402,-100,4,2,0,80,0,1
114002,-100,4,2,0,60,0,1
123602,-100,4,1,0,40,0,0

[Colours]
Combo1 : 254,218,141
Combo2 : 231,109,80
Combo3 : 239,190,99

[HitObjects]
152,304,1202,6,0,B|120:192|120:192|152:64,1,240,2|0,0:0|0:0,0:0:0:0:
360,304,2402,2,0,B|392:192|392:192|360:64,1,240,2|0,0:0|0:0,0:0:0:0:
232,240,3302,1,0,0:0:0:0:
232,240,3452,5,2,0:0:0:0:
352,112,3752,1,0,0:0:0:0:
232,168,4052,2,0,P|170:124|128:28,1,180,2|0,0:0|0:0,0:0:0:0:
248,312,4802,6,0,P|320:296|368:192,1,180,2|2,0:0|0:0,0:0:0:0:
256,112,5552,1,0,0:0:0:0:
256,112,5702,1,0,0:0:0:0:
360,200,6002,6,0,L|464:280,2,120,6|0|2,0:0|0:0|0:0,0:0:0:0:
152,200,7202,2,0,L|48:280,2,120,2|0|2,0:0|0:0|0:0,0:0:0:0:
264,248,8102,2,0,L|312:192,2,60,0|0|10,0:0|0:0|0:0,0:0:0:0:
176,240,8702,6,0,L|176:112,1,120,0|2,0:0|0:0,0:0:0:0:
336,120,9302,2,0,L|336:240,1,120,0|2,0:0|0:0,0:0:0:0:
200,104,10202,1,8,0:0:0:0:
152,160,10352,1,8,0:0:0:0:
152,232,10502,1,8,0:0:0:0:
208,264,10652,1,8,0:0:0:0:
272,264,10802,6,4,L|312:144,1,120,6|0,0:0|0:0,0:0:0:0:
192,208,11402,2,0,L|192:80,1,120,2|0,0:0|0:0,0:0:0:0:
104,192,12002,2,0,L|64:72,1,120,2|0,0:0|0:0,0:0:0:0:
200,208,12602,2,0,L|200:88,1,120,2|0,0:0|0:0,0:0:0:0:
312,64,13202,5,2,0:0:0:0:
448,160,13802,1,2,0:0:0:0:
320,232,14402,1,2,0:0:0:0:
216,272,14702,1,2,0:0:0:0:
112,264,15002,1,2,0:0:0:0:
20,184,15302,1,2,0:0:0:0:
12,120,15452,1,2,0:0:0:0:
60,48,15602,6,0,L|92:168,1,120,6|0,0:0|0:0,0:0:0:0:
236,64,16202,2,0,L|188:184,1,120,2|0,0:0|0:3,0:0:0:0:
80,304,16802,2,0,P|139:203|240:128,1,240,2|2,0:0|0:0,0:0:0:0:
352,120,17702,5,0,0:3:0:0:
416,192,17852,1,2,0:0:0:0:
328,256,18152,1,2,0:0:0:0:
224,256,18452,1,2,0:0:0:0:
128,248,18752,1,0,0:0:0:0:
176,248,18902,1,2,0:0:0:0:
224,248,19052,1,0,0:0:0:0:
280,248,19202,6,0,P|359:287|401:366,1,180,2|2,0:0|0:0,0:0:0:0:
240,64,19952,2,2,L|164:160,1,120
128,204,20402,1,2,0:0:0:0:
288,256,21002,1,2,0:0:0:0:
416,304,21302,2,0,L|464:252,1,60,0|0,0:3|0:3,0:0:0:0:
400,176,21602,6,0,L|304:88,2,120,2|0|2,0:0|0:0|0:0,0:0:0:0:
264,160,22502,1,0,0:3:0:0:
208,176,22652,1,2,0:0:0:0:
316,264,22952,1,2,0:0:0:0:
176,288,23252,1,2,0:0:0:0:
280,80,23552,2,2,L|376:168,1,120
414,199,24002,1,2,0:0:0:0:
280,176,24452,5,2,0:0:0:0:
200,224,24752,1,8,0:3:0:0:
160,184,24902,1,8,0:3:0:0:
160,120,25052,1,8,0:3:0:0:
240,144,25202,6,0,L|328:240,2,120,6|8|2,0:0|0:0|0:0,0:0:0:0:
344,64,26102,2,0,L|416:160,1,120,8|2,0:0|0:0,0:0:0:0:
296,160,26702,2,0,L|224:264,1,120,8|2,0:0|0:0,0:0:0:0:
320,304,27302,1,8,0:0:0:0:
384,288,27452,5,2,0:0:0:0:
276,240,27752,1,2,0:0:0:0:
380,216,28052,1,2,0:0:0:0:
256,196,28352,1,0,0:0:0:0:
180,224,28502,6,0,L|100:320,1,120,8|2,0:0|0:0,0:0:0:0:
232,320,29252,1,2,0:0:0:0:
388,264,29552,2,0,P|436:224|452:168,1,120,2|0,0:0|0:0,0:0:0:0:
400,96,30002,5,6,0:0:0:0:
296,168,30302,1,8,0:0:0:0:
200,256,30602,1,2,0:0:0:0:
360,256,30902,2,0,P|392:216|416:152,2,120,8|2|8,0:0|0:0|0:0,0:0:0:0:
264,128,31802,2,0,L|144:48,1,120,2|8,0:0|0:0,0:0:0:0:
120,64,32252,6,2,P|64:96|48:160,1,120,2|0,0:0|0:0,0:0:0:0:
168,232,32852,1,2,0:0:0:0:
312,276,33152,1,2,0:0:0:0:
452,260,33452,1,0,0:0:0:0:
468,168,33602,6,0,P|460:128|356:32,1,180,2|2,0:0|0:0,0:0:0:0:
264,32,34352,1,2,0:0:0:0:
208,56,34502,1,8,0:0:0:0:
156,88,34652,1,0,0:0:0:0:
72,216,34802,6,0,P|88:280|192:368,1,180,4|0,0:0|0:0,0:0:0:0:
272,328,35402,2,0,L|240:208,1,120,2|8,0:0|0:0,0:0:0:0:
160,216,35852,2,2,L|184:80,1,120
248,64,36302,1,8,0:0:0:0:
368,104,36602,2,0,P|432:136|448:200,1,120,2|8,0:0|0:0,0:0:0:0:
352,272,37202,5,2,0:0:0:0:
288,288,37352,1,0,0:0:0:0:
232,304,37502,1,8,0:0:0:0:
100,280,37802,1,2,0:0:0:0:
60,232,37952,1,0,0:0:0:0:
76,176,38102,1,8,0:0:0:0:
192,56,38402,6,0,L|292:124,1,120,2|8,0:0|0:0,0:0:0:0:
383,193,39002,2,0,L|384:264,1,60,2|0,0:0|0:0,0:0:0:0:
328,284,39302,1,8,0:0:0:0:
200,336,39602,5,2,0:0:0:0:
124,324,39752,1,0,0:0:0:0:
68,280,39902,2,0,P|56:256|68:216,1,60,8|0,0:0|0:0,0:0:0:0:
104,176,40202,1,2,0:0:0:0:
244,120,40502,1,8,0:0:0:0:
384,68,40802,5,2,0:0:0:0:
456,68,40952,1,0,0:0:0:0:
508,108,41102,1,8,0:0:0:0:
504,176,41252,1,0,0:0:0:0:
456,224,41402,1,2,0:0:0:0:
344,216,41702,1,8,0:0:0:0:
240,128,42002,5,2,0:0:0:0:
120,80,42302,1,8,0:0:0:0:
20,160,42602,1,2,0:0:0:0:
144,220,42902,1,8,0:0:0:0:
300,252,43202,5,2,0:0:0:0:
432,232,43502,1,8,0:0:0:0:
492,128,43802,1,2,0:0:0:0:
460,72,43952,1,0,0:0:0:0:
408,40,44102,1,8,0:0:0:0:
272,32,44402,6,0,P|224:32|144:80,1,120,6|8,0:0|0:0,0:0:0:0:
92,188,45002,2,0,L|168:296,1,120,2|8,0:0|0:0,0:0:0:0:
232,288,45452,2,2,L|316:168,1,120
236,140,45902,1,8,0:0:0:0:
60,144,46202,1,2,0:0:0:0:
184,108,46502,1,8,0:0:0:0:
20,240,46802,6,0,L|80:356,1,120,2|8,0:0|0:0,0:0:0:0:
168,344,47252,2,2,L|252:224,1,120
312,172,47702,1,8,0:0:0:0:
172,136,48002,6,0,B|36:104,1,120,2|8,0:0|0:0,0:0:0:0:
144,64,48602,2,0,L|212:44,1,60,2|0,0:0|0:0,0:0:0:0:
264,32,48902,1,8,0:0:0:0:
408,48,49202,5,2,0:0:0:0:
304,152,49502,1,8,0:0:0:0:
264,204,49652,1,0,0:0:0:0:
300,256,49802,1,2,0:0:0:0:
428,304,50102,1,8,0:0:0:0:
288,288,50402,5,2,0:0:0:0:
224,272,50552,1,0,0:0:0:0:
164,252,50702,1,8,0:0:0:0:
48,236,51002,1,0,0:0:0:0:
184,148,51302,1,8,0:0:0:0:
312,72,51602,5,2,0:0:0:0:
448,120,51902,1,8,0:0:0:0:
376,188,52202,1,2,0:0:0:0:
312,184,52352,1,0,0:0:0:0:
256,200,52502,1,8,0:0:0:0:
176,304,52802,5,4,0:0:0:0:
172,368,52952,1,4,0:0:0:0:
312,304,53252,1,4,0:0:0:0:
152,248,53552,1,2,0:0:0:0:
312,164,53852,1,2,0:0:0:0:
356,128,54002,1,4,0:1:0:0:
88,120,57602,6,0,L|176:32,3,120,0|0|0|0,0:0|0:0|0:0|0:0,0:0:0:0:
248,200,58802,6,0,L|372:256,1,120,2|0,0:0|0:0,0:0:0:0:
480,208,59402,1,2,0:0:0:0:
368,136,59702,1,0,0:0:0:0:
216,144,60002,6,0,L|316:224,1,120,2|0,0:0|0:0,0:0:0:0:
424,256,60602,2,0,L|312:348,1,120,2|0,0:0|0:0,0:0:0:0:
216,312,61202,5,2,0:0:0:0:
104,224,61502,1,0,0:0:0:0:
204,104,61802,1,2,0:0:0:0:
316,104,62102,1,0,0:0:0:0:
408,136,62402,6,0,B|300:220,3,120,2|0|2|0,0:0|0:0|0:0|0:0,0:0:0:0:
168,204,63602,6,0,L|120:332,1,120,2|0,0:0|0:0,0:0:0:0:
260,84,64202,1,2,0:0:0:0:
128,168,64502,1,0,0:0:0:0:
268,176,64802,6,0,L|328:300,1,120,2|0,0:0|0:0,0:0:0:0:
200,272,65402,1,2,0:0:0:0:
348,272,65702,1,0,0:0:0:0:
200,272,66002,6,0,L|156:132,1,120,2|0,0:0|0:0,0:0:0:0:
312,160,66602,2,0,L|271:296,1,120,2|0,0:0|0:0,0:0:0:0:
168,104,67202,5,4,0:1:0:0:
168,48,67352,1,4,0:0:0:0:
304,48,67652,1,4,0:0:0:0:
440,48,67952,1,4,0:0:0:0:
304,48,68252,1,4,0:0:0:0:
264,88,68402,6,0,L|188:124,2,60,4|0|8,0:0|0:0|0:0,0:0:0:0:
384,72,69002,1,2,0:0:0:0:
488,160,69302,1,8,0:0:0:0:
352,208,69602,6,0,L|232:280,2,120,2|8|2,0:0|0:0|0:0,0:0:0:0:
204,184,70502,1,8,0:0:0:0:
64,144,70802,5,2,0:0:0:0:
144,56,71102,1,8,0:0:0:0:
256,80,71402,1,2,0:0:0:0:
160,176,71702,1,8,0:0:0:0:
256,80,72002,6,0,L|384:128,1,120,2|8,0:0|0:0,0:0:0:0:
456,208,72602,2,0,L|320:256,1,120,2|8,0:0|0:0,0:0:0:0:
192,264,73202,6,0,L|260:208,1,60,2|0,0:0|0:0,0:0:0:0:
288,184,73502,1,8,0:0:0:0:
176,128,73802,1,2,0:0:0:0:
308,88,74102,1,8,0:0:0:0:
448,144,74402,6,0,L|328:188,1,120,2|8,0:0|0:0,0:0:0:0:
256,336,75002,1,2,0:0:0:0:
120,328,75302,1,8,0:0:0:0:
24,192,75602,6,0,L|168:220,1,120,2|8,0:0|0:0,0:0:0:0:
252,168,76202,1,2,0:0:0:0:
344,88,76502,1,8,0:0:0:0:
464,88,76802,6,0,L|504:160,1,60,2|0,0:0|0:0,0:0:0:0:
380,184,77252,1,4,0:0:0:0:
320,192,77402,2,0,L|272:252,1,60,2|4,0:0|0:0,0:0:0:0:
424,288,77852,1,4,0:0:0:0:
256,192,78152,12,0,83102,0:0:0:0:
168,68,83702,5,0,0:0:0:0:
168,68,83852,1,0,0:0:0:0:
248,72,84002,2,0,P|320:104|360:144,1,120,2|0,0:0|0:0,0:0:0:0:
224,176,84602,2,0,P|152:208|112:248,1,120,2|0,0:0|0:0,0:0:0:0:
252,276,85202,6,0,L|280:196,1,60,4|0,0:0|0:0,0:0:0:0:
252,116,85502,1,8,0:0:0:0:
340,56,85802,1,2,0:0:0:0:
436,104,86102,1,8,0:0:0:0:
320,168,86402,6,0,L|228:264,1,120,2|8,0:0|0:0,0:0:0:0:
96,208,87002,2,0,L|140:320,1,120,2|8,0:0|0:0,0:0:0:0:
296,320,87602,5,2,0:0:0:0:
408,256,87902,1,8,0:0:0:0:
328,144,88202,1,2,0:0:0:0:
208,120,88502,1,8,0:0:0:0:
116,272,88802,6,0,L|104:192,1,60,2|0,0:0|0:0,0:0:0:0:
120,160,89102,2,0,L|156:88,1,60,8|0,0:0|0:0,0:0:0:0:
200,72,89402,1,2,0:0:0:0:
320,64,89702,1,8,0:0:0:0:
432,96,90002,6,0,L|492:152,1,60,2|0,0:0|0:0,0:0:0:0:
424,192,90302,1,8,0:0:0:0:
296,184,90602,2,0,L|184:276,1,120,2|8,0:0|0:0,0:0:0:0:
80,344,91202,6,0,P|36:308|16:248,1,120,2|8,0:0|0:0,0:0:0:0:
104,240,91802,2,0,P|122:183|167:145,1,120,2|8,0:0|0:0,0:0:0:0:
300,112,92402,6,0,P|264:68|180:44,1,120,2|8,0:0|0:0,0:0:0:0:
64,120,93002,2,0,P|92:168|168:204,1,120,2|8,0:0|0:0,0:0:0:0:
272,200,93602,5,2,0:0:0:0:
400,168,93902,1,8,0:0:0:0:
260,72,94202,1,2,0:0:0:0:
412,56,94502,1,8,0:0:0:0:
240,192,94802,6,0,L|216:272,1,60,4|0,0:0|0:0,0:0:0:0:
176,344,95102,1,8,0:0:0:0:
304,336,95402,1,2,0:0:0:0:
176,232,95702,1,8,0:0:0:0:
296,240,96002,5,2,0:0:0:0:
416,168,96302,1,8,0:0:0:0:
304,80,96602,1,2,0:0:0:0:
144,32,96902,1,8,0:0:0:0:
272,104,97202,5,2,0:0:0:0:
160,128,97502,1,8,0:0:0:0:
56,192,97802,1,2,0:0:0:0:
136,296,98102,1,8,0:0:0:0:
296,304,98402,5,2,0:0:0:0:
192,244,98702,1,8,0:0:0:0:
352,208,99002,1,2,0:0:0:0:
268,156,99302,1,8,0:0:0:0:
408,96,99602,6,0,L|364:36,1,60,2|0,0:0|0:0,0:0:0:0:
280,64,99902,1,8,0:0:0:0:
184,96,100202,2,0,L|80:180,1,120,2|8,0:0|0:0,0:0:0:0:
256,216,100802,6,0,P|320:232|360:288,1,120,2|8,0:0|0:0,0:0:0:0:
240,336,101402,2,0,L|104:296,1,120,2|8,0:0|0:0,0:0:0:0:
12,120,102002,6,0,L|76:64,1,60,2|0,0:0|0:0,0:0:0:0:
112,48,102302,1,8,0:0:0:0:
264,96,102602,2,0,L|200:152,1,60,2|0,0:0|0:0,0:0:0:0:
164,168,102902,1,8,0:0:0:0:
56,176,103202,5,2,0:0:0:0:
24,232,103352,1,0,0:0:0:0:
128,288,103652,1,0,0:0:0:0:
256,264,103952,1,0,0:0:0:0:
368,216,104252,1,0,0:0:0:0:
424,200,104402,5,6,0:0:0:0:
464,232,104552,1,0,0:0:0:0:
440,264,104702,1,8,0:0:0:0:
320,264,105002,1,2,0:0:0:0:
208,200,105302,1,8,0:0:0:0:
104,160,105602,6,0,L|152:288,1,120,2|8,0:0|0:0,0:0:0:0:
224,208,106202,2,0,L|288:104,1,120,2|8,0:0|0:0,0:0:0:0:
176,72,106802,5,2,0:0:0:0:
64,104,107102,1,8,0:0:0:0:
184,200,107402,1,2,0:0:0:0:
56,256,107702,1,8,0:0:0:0:
200,336,108002,5,2,0:0:0:0:
144,352,108152,1,0,0:0:0:0:
88,328,108302,1,8,0:0:0:0:
48,272,108452,1,0,0:0:0:0:
56,216,108602,5,2,0:0:0:0:
96,168,108752,1,0,0:0:0:0:
152,136,108902,1,8,0:0:0:0:
280,120,109202,6,0,L|408:152,1,120,2|8,0:0|0:0,0:0:0:0:
280,216,109802,2,0,L|136:208,1,120,2|8,0:0|0:0,0:0:0:0:
96,112,110402,6,0,L|236:128,1,120,2|8,0:0|0:0,0:0:0:0:
352,144,111002,2,0,L|400:264,1,120,2|8,0:0|0:0,0:0:0:0:
256,280,111602,5,2,0:0:0:0:
128,256,111902,1,8,0:0:0:0:
272,200,112202,1,2,0:0:0:0:
168,152,112502,1,8,0:0:0:0:
336,216,112802,5,2,0:0:0:0:
400,208,112952,1,0,0:0:0:0:
440,176,113102,1,8,0:0:0:0:
448,120,113252,1,0,0:0:0:0:
416,72,113402,5,2,0:0:0:0:
352,52,113552,1,0,0:0:0:0:
296,56,113702,1,8,0:0:0:0:
180,68,114002,5,2,0:0:0:0:
132,104,114152,1,0,0:0:0:0:
180,136,114302,1,8,0:0:0:0:
336,168,114602,1,2,0:0:0:0:
200,176,114902,1,8,0:0:0:0:
56,148,115202,5,2,0:0:0:0:
192,120,115502,1,8,0:0:0:0:
48,56,115802,1,2,0:0:0:0:
208,48,116102,1,8,0:0:0:0:
80,176,116402,5,2,0:0:0:0:
224,240,116702,1,8,0:0:0:0:
364,200,117002,1,2,0:0:0:0:
232,128,117302,1,8,0:0:0:0:
368,128,117602,6,0,L|368:200,1,60,2|0,0:0|0:0,0:0:0:0:
320,256,117902,1,8,0:0:0:0:
176,208,118202,2,0,L|176:136,1,60,2|0,0:0|0:0,0:0:0:0:
240,116,118502,1,8,0:0:0:0:
376,120,118802,5,2,0:0:0:0:
448,184,118952,1,0,0:0:0:0:
384,256,119102,1,8,0:0:0:0:
240,140,119402,1,2,0:0:0:0:
100,252,119702,1,8,0:0:0:0:
232,260,120002,6,0,L|352:204,1,120,2|8,0:0|0:0,0:0:0:0:
232,260,120602,2,0,L|224:136,1,120,2|8,0:0|0:0,0:0:0:0:
372,344,121202,5,2,0:0:0:0:
500,264,121502,1,8,0:0:0:0:
384,160,121802,1,2,0:0:0:0:
256,112,122102,1,8,0:0:0:0:
384,176,122402,5,2,0:0:0:0:
408,240,122552,1,0,0:0:0:0:
288,280,122852,1,0,0:0:0:0:
152,208,123152,1,0,0:0:0:0:
256,112,123452,1,0,0:0:0:0:
320,96,123602,5,6,0:0:0:0:
