osu file format v3

[General]
AudioFilename: Bis - DAYS.mp3
AudioLeadIn: 0
AudioHash: 630524a6a8692ab1b5ec555509ddabd5
PreviewTime: -1
SampleSet: Normal

[Metadata]
Title:DAYS
Artist:bis
Creator:Ichikira
Version:Hard

[Difficulty]
HPDrainRate:5
CircleSize:6
OverallDifficulty:6
SliderMultiplier: 1.5
SliderTickRate: 3

[Events]
0,0,"300.jpg"
2,1830,6358
2,98075,99124
2,112987,120063
2,129390,144419
2,147035,147153
2,160892,161381
2,188044,188906
2,194754,194933
2,198420,214008
3,0,255,255,255

[TimingPoints]
7409,497.067166822171

[HitObjects]
224,192,1630,5,0,
128,64,7408,5,0,
224,96,8403,1,0,
128,160,9459,1,0,
128,160,9707,1,0,
128,160,9956,1,0,
128,160,10205,1,0,
288,128,10453,1,0,
288,192,11012,1,0,
224,192,11571,1,0,
160,192,12069,1,0,
160,256,12566,1,0,
224,256,13125,1,0,
256,256,13622,1,0,
320,256,14119,1,0,
352,128,14616,1,0,
320,128,15175,1,0,
288,128,15672,1,0,
224,128,16169,1,0,
224,192,16729,1,0,
256,192,17226,1,0,
288,192,17723,1,0,
352,192,18220,1,0,
320,256,18841,1,0,
192,256,19090,1,0,
224,160,19338,1,0,
288,160,19587,1,0,
288,224,19835,1,0,
320,160,20146,1,0,
352,128,20394,1,0,
352,224,20954,1,0,
192,192,21140,1,0,
192,96,21451,1,0,
256,128,21699,1,0,
256,192,21948,1,0,
320,96,22196,1,0,
320,96,22445,1,0,
224,224,22942,1,0,
224,224,23253,1,0,
224,224,23501,1,0,
224,224,23750,1,0,
224,224,23998,1,0,
224,224,24247,1,0,
224,224,24495,1,0,
352,192,25054,1,0,
352,192,25303,1,0,
352,192,25551,1,0,
352,192,25800,1,0,
352,192,26049,1,0,
352,192,26297,1,0,
352,192,26608,1,0,
352,192,26794,1,0,
224,96,27167,1,0,
352,96,27726,1,0,
256,160,28223,1,0,
288,96,28782,1,0,
320,192,29279,1,0,
256,224,29777,1,0,
224,224,30274,1,0,
192,224,30771,1,0,
160,224,31268,1,0,
128,224,31827,1,0,
320,256,32324,1,0,
352,256,32945,1,0,
384,256,33380,1,0,
384,256,33877,1,0,
416,256,34374,1,0,
256,96,34996,1,0,
192,128,35244,1,0,
224,160,35493,1,0,
352,128,36611,1,0,
352,192,36984,1,0,
288,224,37295,1,0,
256,160,37543,1,0,
192,192,37916,1,0,
160,192,38289,1,0,
192,96,39097,1,0,
192,96,39345,1,0,
256,96,39594,1,0,
320,96,40401,1,0,
320,96,40650,1,0,
384,96,41085,1,0,
352,160,41458,1,0,
288,160,41706,1,0,
256,96,42079,1,0,
256,96,42203,1,0,
224,192,42762,1,0,
256,192,43011,1,0,
352,192,43322,1,0,
352,192,43632,1,0,
384,128,43881,1,0,
384,64,44564,1,0,
256,96,45186,1,0,
256,96,45372,1,0,
256,96,45621,1,0,
288,160,45931,1,0,
288,160,46304,1,0,
128,256,47547,1,0,
128,256,47733,1,0,
256,256,47982,1,0,
224,128,48789,1,0,
224,128,49038,1,0,
224,128,49224,1,0,
384,128,49535,1,0,
384,128,49783,1,0,
352,224,50094,1,0,
224,192,51399,1,0,
224,192,51647,1,0,
224,192,51834,1,0,
192,128,52145,1,0,
256,96,52890,1,0,
256,96,53139,1,0,
256,96,53574,1,0,
288,96,53946,1,0,
320,96,54195,1,0,
352,96,54692,1,0,
384,96,55065,1,0,
320,192,55810,1,0,
320,192,55997,1,0,
224,160,56307,1,0,
320,128,57053,1,0,
320,128,57302,1,0,
352,96,57737,1,0,
384,160,58109,1,0,
384,160,58420,1,0,
256,128,58793,1,0,
256,128,58917,1,0,
384,64,59973,5,0,
288,64,60533,1,0,
224,64,61092,1,0,
160,64,61589,1,0,
160,128,62148,1,0,
224,128,62707,1,0,
288,128,63204,1,0,
352,128,63701,1,0,
384,128,64198,1,0,
416,128,64758,1,0,
416,192,65317,1,0,
352,192,65814,1,0,
288,192,66373,1,0,
224,192,66808,1,0,
192,192,67305,1,0,
128,192,67864,1,0,
128,96,68361,1,0,
192,64,68858,1,0,
256,64,69418,1,0,
320,96,69915,1,0,
320,128,70474,1,0,
288,160,70971,1,0,
256,160,71468,1,0,
224,128,72027,1,0,
256,96,72524,1,0,
288,96,73083,1,0,
288,128,73581,1,0,
320,128,74078,1,0,
352,128,74575,1,0,
384,128,75134,1,0,
384,128,75445,1,0,
384,128,75693,1,0,
384,128,76004,1,0,
384,128,76252,1,0,
384,128,76563,1,0,
384,128,76749,1,0,
384,128,77060,1,0,
384,128,77309,1,0,
384,128,77681,1,0,
384,128,78054,1,0,
384,128,78303,1,0,
224,96,79359,1,0,
224,96,79608,1,0,
224,96,79856,1,0,
224,96,80105,1,0,
224,96,80229,1,0,
224,96,80415,1,0,
320,96,80974,1,0,
320,96,81472,1,0,
320,96,81969,1,0,
320,96,82155,1,0,
320,96,82279,1,0,
256,160,83087,1,0,
256,160,83273,1,0,
256,160,83522,1,0,
256,160,83895,1,0,
224,160,84330,1,0,
224,160,84516,1,0,
416,96,85075,1,0,
416,96,85324,1,0,
192,96,85572,1,0,
320,128,86069,1,0,
320,128,86318,1,0,
320,128,86442,1,0,
320,128,86815,1,0,
320,128,87126,1,0,
320,128,87374,1,0,
160,192,87685,1,0,
160,192,88182,1,0,
160,192,88430,1,0,
160,192,88555,1,0,
160,192,88741,1,0,
352,160,89238,1,0,
352,160,89487,1,0,
352,160,89797,1,0,
352,160,89984,1,0,
352,160,90294,1,0,
352,160,90543,1,0,
352,160,90667,1,0,
192,64,91351,1,0,
192,64,91599,1,0,
192,64,91786,1,0,
192,64,92221,5,0,
384,64,93401,5,0,
384,64,93712,1,0,
224,96,93960,1,0,
320,224,94457,1,0,
320,128,94706,1,0,
320,128,94830,1,0,
160,160,95203,1,0,
256,128,95452,1,0,
224,224,95762,1,0,
224,64,96073,1,0,
320,64,96881,2,0,B|320:64|480:64,2,150
128,96,100174,1,0,
256,96,100671,1,0,
192,160,101292,1,0,
320,160,101789,1,0,
320,160,101976,1,0,
224,224,102224,1,0,
352,256,102845,1,0,
352,256,102908,1,0,
480,192,103218,5,0,
192,96,104399,1,0,
256,96,104958,1,0,
352,96,105517,1,0,
352,192,106014,1,0,
256,192,106511,1,0,
128,192,107008,1,0,
160,128,107568,1,0,
256,96,108065,1,0,
320,96,108624,1,0,
320,192,109680,1,0,
320,192,109866,1,0,
224,192,110115,1,0,
224,192,110364,1,0,
224,128,110612,1,0,
96,224,111730,1,0,
192,224,111917,1,0,
288,192,112228,1,0,
288,128,112538,1,0,
352,256,112787,1,0,
256,64,121113,5,0,
224,128,121610,1,0,
288,160,122169,1,0,
256,224,122666,1,0,
352,256,123225,1,0,
256,288,123722,1,0,
192,288,124281,1,0,
160,224,124716,1,0,
192,192,125276,1,0,
224,128,125773,1,0,
288,96,126332,1,0,
352,192,126829,1,0,
384,96,127326,1,0,
384,96,127885,1,0,
160,192,128631,1,0,
192,192,128941,1,0,
192,192,129190,1,0,
160,128,145469,6,0,B|160:128|384:128,2,206.25
192,160,148203,2,0,B|192:160|320:288,2,168.75
160,160,150377,1,0,
288,160,151123,1,0,
224,224,152117,1,0,
288,224,152366,1,0,
192,128,153173,1,0,
192,128,153422,1,0,
320,128,154478,1,0,
320,160,155224,1,0,
192,160,156280,1,0,
224,96,156529,1,0,
320,96,156964,1,0,
320,192,157274,1,0,
224,192,157523,1,0,
128,192,158082,1,0,
128,192,158331,1,0,
128,96,158641,1,0,
288,64,159449,1,0,
288,64,159697,1,0,
320,128,160008,1,0,
256,160,160443,1,0,
128,128,160692,1,0,
256,192,162431,12,0,163798
64,96,164979,1,0,
160,96,165476,1,0,
224,96,165973,1,0,
288,96,166470,1,0,
224,192,167029,1,0,
224,192,167278,1,0,
256,192,167526,1,0,
128,160,168023,1,0,
128,160,168272,1,0,
160,160,168520,1,0,
288,96,169080,1,0,
288,96,169328,1,0,
352,96,169639,1,0,
288,192,170198,1,0,
288,192,170384,1,0,
192,192,170695,1,0,
192,128,171192,1,0,
192,128,171441,1,0,
256,96,171689,1,0,
160,64,172186,1,0,
160,64,172435,1,0,
96,64,172745,1,0,
256,64,173243,1,0,
256,64,173429,1,0,
320,64,173740,1,0,
256,160,174299,1,0,
256,160,174485,1,0,
256,256,174796,1,0,
256,128,175293,1,0,
256,160,175541,1,0,
256,96,175852,1,0,
256,192,176411,1,0,
288,192,176660,1,0,
352,160,176908,1,0,
160,128,177405,1,0,
160,128,177716,1,0,
160,96,177903,1,0,
224,96,178400,1,0,
224,96,178586,1,0,
224,160,178897,1,0,
160,160,179518,1,0,
352,160,179891,1,0,
288,224,180388,1,0,
288,96,180823,1,0,
288,96,181071,1,0,
128,96,181568,1,0,
160,160,182128,1,0,
160,160,182376,1,0,
160,160,182500,1,0,
320,160,183184,1,0,
320,160,183681,1,0,
320,160,184178,1,0,
320,160,184427,1,0,
320,160,184551,1,0,
192,96,185234,1,0,
192,96,185483,1,0,
224,192,185793,1,0,
128,128,186166,1,0,
128,160,187347,2,0,B|128:160|288:160,1,150
96,96,189956,1,0,
224,96,190453,1,0,
160,192,190764,5,0,
160,192,190888,1,0,
384,192,191572,1,0,
352,96,192069,1,0,
288,224,192566,1,0,
288,224,192815,1,0,
288,224,193001,1,0,
160,192,193871,1,0,
160,96,194119,1,0,
320,96,194554,1,0,
416,96,195983,5,0,
384,192,196170,1,0,
256,160,196667,1,0,
256,128,196915,1,0,
256,128,197040,1,0,
192,96,197599,1,0,
160,160,197785,1,0,
160,160,198034,1,0,
160,160,198220,1,0,
224,160,215058,5,0,
