osu file format v14

[General]
AudioFilename: bibuko.mp3
AudioLeadIn: 0
PreviewTime: 24552
Countdown: 1
SampleSet: None
StackLeniency: 0.4
Mode: 0
LetterboxInBreaks: 1
WidescreenStoryboard: 0

[Editor]
DistanceSpacing: 2
BeatDivisor: 4
GridSize: 32
TimelineZoom: 1

[Metadata]
Title:motetaku tegitaa hajime takedo zennzenn motenai
TitleUnicode:モテたくてギター始めたけど全然モテない
Artist:bibuko
ArtistUnicode:bibuko
Creator:z1085684963
Version:Insane
Source:
Tags:
BeatmapID:629055
BeatmapSetID:277621

[Difficulty]
HPDrainRate:7
CircleSize:4
OverallDifficulty:7
ApproachRate:9.2
SliderMultiplier:2
SliderTickRate:1

[Events]
//Background and Video events
0,0,"bibuko.png",0,0
//Break Periods
2,35921,42930
2,119490,127561
//Storyboard Layer 0 (Background)
//Storyboard Layer 1 (Fail)
//Storyboard Layer 2 (Pass)
//Storyboard Layer 3 (Foreground)
//Storyboard Sound Samples

[TimingPoints]
24553,315.789473684211,4,3,0,60,1,0
25816,-200,4,2,1,60,0,0
32131,-133.333333333333,4,2,1,60,0,0
33395,-100,4,2,1,60,0,0
45789,-100,4,2,1,5,0,0
46026,-100,4,2,1,60,0,0
76342,-100,4,2,1,60,0,1
85026,-100,4,2,1,60,0,0
86447,-100,4,2,1,60,0,1
106579,-100,4,2,1,60,0,0
106658,-100,4,2,1,60,0,1
117079,-90.9090909090909,4,2,1,60,0,1
117395,-83.3333333333333,4,2,1,60,0,1
117710,-76.9230769230769,4,2,1,60,0,1
118026,-71.4285714285714,4,2,1,60,0,1
118342,-66.6666666666667,4,2,1,60,0,1
119289,-100,4,2,1,60,0,0
142026,-100,4,2,1,60,0,1
155921,-83.3333333333333,4,2,1,60,0,1
156079,-100,4,2,1,60,0,1
157105,-100,4,2,1,60,0,0
157184,-100,4,2,1,60,0,1
162158,-100,4,2,1,60,0,0
162237,-100,4,2,1,60,0,1
175500,-66.6666666666667,4,2,1,60,0,1
175974,-100,4,2,1,60,0,1
178500,-100,4,2,1,60,0,0
179921,-100,4,2,1,60,0,1
186710,-100,4,2,1,60,0,0

[Colours]
Combo1 : 192,192,192
Combo2 : 219,219,0
Combo3 : 0,255,0
Combo4 : 0,255,255

[HitObjects]
256,119,24553,5,0,0:0:0:0:
385,271,24868,1,0,0:0:0:0:
127,271,25184,1,0,0:0:0:0:
256,119,25342,1,0,0:0:0:0:
256,119,25500,2,0,L|256:235,1,100
385,271,25816,6,0,B|440:220|440:220|440:70|440:70|384:19,1,300
256,119,27079,2,0,B|307:174|307:174|457:174|457:174|507:118,1,300
127,113,28342,2,0,B|72:164|72:164|72:314|72:314|127:364,1,300
226,379,29605,2,0,P|288:339|313:270,1,150
256,119,30237,2,0,P|193:158|168:227,1,150
377,365,30868,6,0,B|432:314|432:314|432:164|432:164|377:113,1,300
512,181,32131,2,0,B|461:236|461:236|311:236,1,225.000008583069
200,236,32763,1,0,0:0:0:0:
256,119,32921,1,0,0:0:0:0:
256,354,33079,1,0,0:0:0:0:
26,174,33395,22,0,B|50:147|50:147|114:147,1,100
134,148,33631,1,0,0:0:0:0:
154,148,33710,1,0,0:0:0:0:
232,32,33868,1,2,0:0:0:0:
211,32,33947,1,2,0:0:0:0:
190,32,34026,1,2,0:0:0:0:
169,32,34105,1,0,0:0:0:0:
148,32,34184,1,0,0:0:0:0:
26,174,34342,5,0,0:0:0:0:
87,253,34500,2,0,B|179:253|179:253|217:208|217:208|266:208,1,200
452,278,34974,1,0,0:0:0:0:
256,308,35131,1,0,0:0:0:0:
328,121,35289,1,4,0:0:0:0:
256,192,43500,12,0,45789,0:0:0:0:
376,240,46026,38,0,B|408:247|408:247|441:232|441:232|472:239,1,100,0|2,0:0|0:0,0:0:0:0:
328,107,46342,2,0,B|296:113|296:113|263:98|263:98|232:105,1,100,0|2,0:0|0:0,0:0:0:0:
425,135,46658,1,0,0:0:0:0:
425,135,46816,1,2,0:0:0:0:
279,212,46974,1,0,0:0:0:0:
279,212,47132,1,2,0:0:0:0:
123,161,47289,22,0,P|96:114|51:79,1,100,0|2,0:0|0:0,0:0:0:0:
123,258,47605,2,0,P|131:209|122:160,1,100,0|2,0:0|0:0,0:0:0:0:
62,336,47921,2,0,P|99:302|123:258,1,100,0|2,0:0|0:0,0:0:0:0:
0,212,48237,1,0,0:0:0:0:
0,212,48395,1,2,0:0:0:0:
132,111,48553,22,0,L|232:104,1,100,4|2,0:0|0:0,0:0:0:0:
265,199,48868,2,0,L|364:192,1,100,0|2,0:0|0:0,0:0:0:0:
232,104,49184,1,0,0:0:0:0:
210,282,49342,1,2,0:0:0:0:
265,199,49500,1,0,0:0:0:0:
243,377,49658,1,2,0:0:0:0:
265,199,49816,22,0,B|297:206|297:206|330:191|330:191|361:198,1,100,0|2,0:0|0:0,0:0:0:0:
232,104,50131,2,0,B|200:110|200:110|167:95|167:95|136:102,1,100,0|2,0:0|0:0,0:0:0:0:
62,33,50447,1,0,0:0:0:0:
62,33,50605,1,2,0:0:0:0:
450,33,50763,1,0,0:0:0:0:
450,33,50921,1,2,0:0:0:0:
391,219,51079,22,0,P|418:178|434:130,1,100,4|2,0:0|0:0,0:0:0:0:
305,269,51395,2,0,P|351:250|391:219,1,100,0|2,0:0|0:0,0:0:0:0:
206,263,51710,2,0,P|255:273|305:269,1,100,0|2,0:0|0:0,0:0:0:0:
271,117,52026,1,0,0:0:0:0:
271,117,52184,1,2,0:0:0:0:
122,190,52342,22,0,B|132:141|132:141|180:127,1,100,0|2,0:0|0:0,0:0:0:0:
0,84,52658,2,0,B|36:117|36:117|24:166,1,100,0|2,0:0|0:0,0:0:0:0:
152,30,52974,2,0,B|104:45|104:45|68:10,1,100,0|2,0:0|0:0,0:0:0:0:
53,262,53289,2,0,B|175:246|175:246|122:190,1,200,0|4,0:0|0:0,0:0:0:0:
222,180,53763,21,2,0:0:0:0:
321,171,53921,1,0,0:0:0:0:
420,162,54079,1,2,0:0:0:0:
122,190,54237,1,0,0:0:0:0:
420,162,54395,1,2,0:0:0:0:
122,190,54553,1,0,0:0:0:0:
122,190,54631,1,0,0:0:0:0:
122,190,54710,1,2,0:0:0:0:
158,283,54868,2,0,L|129:379,2,100,4|2|4,0:0|0:0|0:0,0:0:0:0:
86,96,55342,21,6,0:0:0:0:
122,190,55658,1,2,0:0:0:0:
122,190,55737,1,0,0:0:0:0:
122,190,55816,1,0,0:0:0:0:
158,283,55974,2,0,B|180:341|180:341|218:341,1,100,2|0,0:0|0:0,0:0:0:0:
386,246,56289,1,2,0:0:0:0:
494,311,56447,22,0,P|460:347|416:368,1,100,0|2,0:0|0:0,0:0:0:0:
508,214,56763,2,0,P|511:264|494:311,1,100,0|2,0:0|0:0,0:0:0:0:
449,137,57079,2,0,P|487:169|508:214,1,100,0|2,0:0|0:0,0:0:0:0:
349,119,57395,1,0,0:0:0:0:
286,244,57553,1,0,0:0:0:0:
209,128,57710,1,0,0:0:0:0:
146,253,57868,1,0,0:0:0:0:
357,241,58026,1,0,0:0:0:0:
280,124,58184,1,0,0:0:0:0:
217,249,58342,1,0,0:0:0:0:
140,133,58499,1,0,0:0:0:0:
77,258,58658,22,0,L|218:249,1,100,4|0,0:0|0:0,0:0:0:0:
140,133,58974,2,0,L|281:124,1,100
146,253,59289,2,0,L|287:244,1,100
209,128,59605,2,0,L|350:119,1,100
486,174,59921,1,0,0:0:0:0:
428,47,60079,1,0,0:0:0:0:
368,250,60237,1,0,0:0:0:0:
426,377,60395,1,0,0:0:0:0:
458,282,60553,21,0,0:0:0:0:
331,340,60711,1,2,0:0:0:0:
458,282,60868,1,0,0:0:0:0:
331,340,61026,1,2,0:0:0:0:
214,262,61184,2,0,B|212:174|212:174|218:151|218:151|216:55,1,200,4|0,0:0|0:0,0:0:0:0:
116,62,61658,1,2,0:0:0:0:
116,62,61816,2,0,L|216:62,1,100,0|2,0:0|0:0,0:0:0:0:
313,261,62131,2,0,L|214:262,1,100,0|2,0:0|0:0,0:0:0:0:
73,270,62447,21,0,0:0:0:0:
175,365,62605,1,2,0:0:0:0:
67,283,62763,1,0,0:0:0:0:
122,154,62921,1,2,0:0:0:0:
158,12,63079,1,0,0:0:0:0:
46,104,63237,1,2,0:0:0:0:
191,97,63395,1,0,0:0:0:0:
69,17,63553,1,2,0:0:0:0:
122,154,63710,21,4,0:0:0:0:
122,154,64026,1,0,0:0:0:0:
73,270,64184,2,0,B|174:278|174:278|244:348,1,200,2|2,0:0|0:0,0:0:0:0:
430,311,64658,2,0,B|329:303|329:303|259:233,1,200
266,133,65131,1,2,0:0:0:0:
345,71,65289,1,0,0:0:0:0:
445,73,65447,21,2,0:0:0:0:
445,82,65526,1,2,0:0:0:0:
445,91,65605,1,2,0:0:0:0:
445,100,65684,1,2,0:0:0:0:
445,109,65763,1,2,0:0:0:0:
445,118,65842,1,0,0:0:0:0:
445,127,65921,1,0,0:0:0:0:
445,136,66000,1,0,0:0:0:0:
445,145,66079,1,0,0:0:0:0:
445,154,66158,1,0,0:0:0:0:
445,163,66237,22,0,B|445:219|445:219|422:257,1,100,4|2,0:0|0:0,0:0:0:0:
67,163,66553,2,0,B|67:219|67:219|90:257,1,100,0|2,0:0|0:0,0:0:0:0:
476,341,66868,1,0,0:0:0:0:
256,384,67026,1,2,0:0:0:0:
36,341,67184,1,0,0:0:0:0:
256,283,67342,2,0,B|264:268|264:268|256:252|256:252|256:86,1,200,2|2,0:0|0:0,0:0:0:0:
378,173,67816,1,0,0:0:0:0:
134,173,67974,21,2,0:0:0:0:
134,162,68053,1,2,0:0:0:0:
134,152,68131,1,2,0:0:0:0:
134,141,68210,1,0,0:0:0:0:
134,130,68289,1,0,0:0:0:0:
134,120,68368,1,0,0:0:0:0:
134,110,68447,1,0,0:0:0:0:
134,100,68526,1,0,0:0:0:0:
134,90,68605,1,0,0:0:0:0:
134,80,68684,1,0,0:0:0:0:
134,70,68763,2,0,B|219:70|219:70|244:83|244:83|330:83,2,200,4|0|0,0:0|0:0|0:0,0:0:0:0:
158,215,69553,1,2,0:0:0:0:
29,164,69710,1,0,0:0:0:0:
99,342,69868,22,0,B|231:305|231:305|243:274|270:256,1,200,6|2,0:0|0:0,0:0:0:0:
398,218,70342,1,0,0:0:0:0:
448,349,70500,1,2,0:0:0:0:
310,327,70658,1,0,0:0:0:0:
348,87,70816,1,2,0:0:0:0:
398,218,70974,1,0,0:0:0:0:
260,196,71132,1,2,0:0:0:0:
348,87,71289,22,0,L|412:8,1,100,0|2,0:0|0:0,0:0:0:0:
398,218,71605,2,0,P|451:218|512:177,1,100,0|2,0:0|0:0,0:0:0:0:
164,87,71921,2,0,L|100:8,1,100,0|2,0:0|0:0,0:0:0:0:
114,218,72158,1,0,0:0:0:0:
114,218,72237,2,0,P|61:218|0:177,1,100,0|2,0:0|0:0,0:0:0:0:
84,127,72553,21,0,0:0:0:0:
428,127,72710,1,2,0:0:0:0:
256,27,72868,1,0,0:0:0:0:
256,227,73026,1,2,0:0:0:0:
256,127,73184,1,0,0:0:0:0:
256,127,73263,1,0,0:0:0:0:
256,127,73342,1,2,0:0:0:0:
256,327,73500,1,0,0:0:0:0:
256,327,73579,1,0,0:0:0:0:
256,327,73658,1,2,0:0:0:0:
256,327,73737,1,0,0:0:0:0:
256,327,73816,21,4,0:0:0:0:
256,327,73974,1,2,0:0:0:0:
480,193,74131,1,0,0:0:0:0:
480,193,74289,1,2,0:0:0:0:
256,57,74447,1,0,0:0:0:0:
256,57,74605,1,2,0:0:0:0:
32,193,74763,1,0,0:0:0:0:
32,193,74921,1,2,0:0:0:0:
394,302,75079,21,0,0:0:0:0:
118,82,75237,1,2,0:0:0:0:
118,302,75395,1,4,0:0:0:0:
394,82,75553,1,0,0:0:0:0:
328,302,75868,21,0,0:0:0:0:
339,302,75947,1,0,0:0:0:0:
350,302,76026,1,0,0:0:0:0:
361,302,76105,1,0,0:0:0:0:
372,302,76184,1,0,0:0:0:0:
383,302,76263,1,0,0:0:0:0:
394,302,76342,2,0,L|451:302,3,50,0|0|0|0,0:0|0:0|0:0|0:0,0:0:0:0:
355,212,76658,2,0,L|298:212,3,50,0|0|0|0,0:0|0:0|0:0|0:0,0:0:0:0:
395,123,76974,2,0,L|445:123,3,50,0|0|0|0,0:0|0:0|0:0|0:0,0:0:0:0:
345,115,77289,21,0,0:0:0:0:
299,136,77368,1,0,0:0:0:0:
251,119,77447,1,0,0:0:0:0:
204,101,77526,1,0,0:0:0:0:
159,123,77605,2,0,L|176:53,3,50,4|0|0|0,0:0|0:0|0:0|0:0,0:0:0:0:
91,173,77921,2,0,L|79:221,3,50,0|0|0|0,0:0|0:0|0:0|0:0,0:0:0:0:
47,99,78237,2,0,L|58:50,3,50
15,138,78553,21,0,0:0:0:0:
8,186,78631,1,0,0:0:0:0:
30,230,78710,1,0,0:0:0:0:
73,254,78789,1,0,0:0:0:0:
122,250,78868,2,0,L|172:250,3,50,0|0|0|0,0:0|0:0|0:0|0:0,0:0:0:0:
237,202,79184,2,0,L|286:201,3,50
197,326,79500,2,0,L|246:325,3,50
145,317,79816,21,0,0:0:0:0:
96,328,79895,1,0,0:0:0:0:
47,340,79974,1,0,0:0:0:0:
80,303,80053,1,0,0:0:0:0:
73,254,80131,2,0,L|53:197,1,50,4|0,0:0|0:0,0:0:0:0:
41,63,80289,2,0,L|25:111,1,50
172,244,80447,2,0,L|156:197,1,50
141,53,80605,2,0,L|125:101,1,50
273,232,80763,2,0,L|257:185,1,50
241,42,80921,2,0,L|225:90,1,50,0|0,0:0|0:0,0:0:0:0:
373,223,81079,2,0,L|357:176,1,50
341,32,81237,2,0,L|325:80,1,50
423,101,81395,21,0,0:0:0:0:
423,101,81474,1,0,0:0:0:0:
423,101,81553,1,0,0:0:0:0:
423,101,81631,1,0,0:0:0:0:
423,101,81710,2,0,L|472:93,3,50,0|0|0|0,0:0|0:0|0:0|0:0,0:0:0:0:
368,164,82026,1,0,0:0:0:0:
365,167,82105,1,0,0:0:0:0:
362,170,82184,1,0,0:0:0:0:
359,173,82263,1,0,0:0:0:0:
357,176,82343,2,0,L|307:168,3,50,0|0|0|0,0:0|0:0|0:0|0:0,0:0:0:0:
426,249,82658,22,0,L|475:256,1,50,4|0,0:0|0:0,0:0:0:0:
275,270,82816,2,0,L|225:277,1,50,0|0,0:0|0:0,0:0:0:0:
447,377,82974,2,0,L|440:328,1,50,0|0,0:0|0:0,0:0:0:0:
357,176,83131,2,0,L|307:183,1,50,0|0,0:0|0:0,0:0:0:0:
364,347,83289,2,0,L|356:297,1,50,0|0,0:0|0:0,0:0:0:0:
457,129,83447,2,0,L|465:179,1,50,0|0,0:0|0:0,0:0:0:0:
283,319,83605,2,0,L|275:269,1,50,0|0,0:0|0:0,0:0:0:0:
349,127,83763,2,0,L|357:177,1,50,0|0,0:0|0:0,0:0:0:0:
465,179,83921,21,0,0:0:0:0:
498,215,84000,1,0,0:0:0:0:
504,264,84079,1,0,0:0:0:0:
480,307,84158,1,0,0:0:0:0:
436,328,84237,1,0,0:0:0:0:
388,343,84316,1,0,0:0:0:0:
338,346,84395,1,0,0:0:0:0:
291,331,84474,21,0,0:0:0:0:
252,300,84553,1,0,0:0:0:0:
224,258,84632,1,0,0:0:0:0:
195,218,84711,1,0,0:0:0:0:
157,186,84790,1,0,0:0:0:0:
111,167,84869,1,0,0:0:0:0:
61,163,84948,1,0,0:0:0:0:
12,171,85027,22,0,B|44:290|44:290|11:373,1,200,4|0,0:0|0:0,0:0:0:0:
95,288,85501,1,0,0:0:0:0:
153,76,85658,1,0,0:0:0:0:
0,0,85816,21,2,0:0:0:0:
12,171,85974,1,0,0:0:0:0:
12,171,86053,1,0,0:0:0:0:
12,171,86131,1,0,0:0:0:0:
157,186,86289,1,0,0:0:0:0:
293,123,86447,6,0,P|300:74|291:25,1,100,0|2,0:0|0:0,0:0:0:0:
151,174,86763,2,0,P|144:125|153:76,1,100,0|2,0:0|0:0,0:0:0:0:
299,234,87079,2,0,P|306:184|298:135,1,100,0|2,0:0|0:0,0:0:0:0:
155,284,87395,2,0,P|148:235|157:186,1,100,0|2,0:0|0:0,0:0:0:0:
306,245,87710,5,0,0:0:0:0:
161,295,87868,1,2,0:0:0:0:
312,255,88026,1,0,0:0:0:0:
167,305,88184,1,2,0:0:0:0:
428,290,88342,1,0,0:0:0:0:
300,346,88500,1,2,0:0:0:0:
477,158,88658,1,0,0:0:0:0:
511,314,88816,1,2,0:0:0:0:
393,129,88974,22,0,P|344:122|295:131,1,100,4|2,0:0|0:0,0:0:0:0:
59,126,89289,1,0,0:0:0:0:
276,136,89448,2,0,P|177:150|79:133,1,200,2|2,0:0|0:0,0:0:0:0:
140,259,89921,2,0,P|127:308|98:347,1,100,0|2,0:0|0:0,0:0:0:0:
0,248,90237,1,0,0:0:0:0:
139,240,90395,1,2,0:0:0:0:
272,282,90553,1,0,0:0:0:0:
388,355,90710,2,0,P|409:260|361:175,1,200,2|2,0:0|0:0,0:0:0:0:
124,37,91184,1,0,0:0:0:0:
388,37,91342,1,2,0:0:0:0:
360,175,91500,6,0,P|358:224|376:270,1,100,0|2,0:0|0:0,0:0:0:0:
150,208,91816,2,0,P|152:158|134:112,1,100,0|2,0:0|0:0,0:0:0:0:
361,175,92131,2,0,P|410:176|457:159,1,100,0|2,0:0|0:0,0:0:0:0:
150,208,92447,2,0,P|100:206|53:223,1,100,0|2,0:0|0:0,0:0:0:0:
361,175,92763,5,0,0:0:0:0:
150,208,92921,1,2,0:0:0:0:
358,177,93079,1,0,0:0:0:0:
154,207,93237,1,2,0:0:0:0:
458,160,93395,1,0,0:0:0:0:
53,223,93553,1,2,0:0:0:0:
377,271,93710,1,0,0:0:0:0:
134,112,93868,1,2,0:0:0:0:
461,60,94026,22,0,L|458:160,1,100,4|2,0:0|0:0,0:0:0:0:
50,323,94342,2,0,L|53:223,1,100,0|2,0:0|0:0,0:0:0:0:
365,76,94658,2,0,L|362:176,1,100,0|2,0:0|0:0,0:0:0:0:
146,307,94974,2,0,L|150:208,1,100,0|2,0:0|0:0,0:0:0:0:
195,187,95210,1,2,0:0:0:0:
224,148,95289,5,2,0:0:0:0:
230,98,95368,1,2,0:0:0:0:
210,53,95447,1,2,0:0:0:0:
171,23,95526,1,0,0:0:0:0:
122,17,95605,1,0,0:0:0:0:
289,230,95921,5,2,0:0:0:0:
319,191,96000,1,2,0:0:0:0:
365,172,96079,1,2,0:0:0:0:
414,178,96158,1,0,0:0:0:0:
453,207,96237,1,0,0:0:0:0:
377,271,96395,1,2,0:0:0:0:
355,72,96553,21,0,0:0:0:0:
224,148,96710,1,2,0:0:0:0:
171,23,96868,1,0,0:0:0:0:
40,99,97026,1,2,0:0:0:0:
154,219,97184,1,0,0:0:0:0:
313,191,97342,1,2,0:0:0:0:
224,148,97500,1,0,0:0:0:0:
200,308,97658,2,0,P|262:367|298:289,1,200,2|2,0:0|0:0,0:0:0:0:
311,75,98131,2,0,L|212:94,1,100,0|2,0:0|0:0,0:0:0:0:
298,289,98447,5,0,0:0:0:0:
494,355,98605,1,2,0:0:0:0:
416,266,98763,1,2,0:0:0:0:
298,289,98921,1,0,0:0:0:0:
96,266,99079,5,6,0:0:0:0:
18,355,99237,1,2,0:0:0:0:
213,289,99395,1,0,0:0:0:0:
58,153,99553,1,0,0:0:0:0:
72,12,99710,2,0,L|136:114,1,100,0|2,0:0|0:0,0:0:0:0:
148,182,99947,1,0,0:0:0:0:
148,182,100026,2,0,P|99:181|58:153,1,100,0|2,0:0|0:0,0:0:0:0:
364,181,100342,1,0,0:0:0:0:
256,131,100500,1,2,0:0:0:0:
256,331,100658,37,0,0:0:0:0:
256,331,100816,2,0,L|256:131,1,200,2|2,0:0|0:0,0:0:0:0:
439,12,101289,2,0,L|376:114,1,100,0|2,0:0|0:0,0:0:0:0:
208,62,101605,6,0,P|255:49|303:62,1,100,4|2,0:0|0:0,0:0:0:0:
452,166,101921,1,0,0:0:0:0:
444,172,102000,1,0,0:0:0:0:
436,178,102079,1,2,0:0:0:0:
304,221,102237,2,0,P|256:208|208:221,1,100,0|2,0:0|0:0,0:0:0:0:
62,327,102553,1,0,0:0:0:0:
70,333,102632,1,0,0:0:0:0:
78,339,102710,2,0,P|175:349|255:294,1,200,2|2,0:0|0:0,0:0:0:0:
410,109,103184,22,0,L|451:57,2,66.6666666666667,2|2|2,0:0|0:0|0:0,0:0:0:0:
359,172,103500,1,2,0:0:0:0:
332,247,103605,2,0,P|328:282|340:318,1,66.6666666666667,2|2,0:0|0:0,0:0:0:0:
383,377,103816,1,2,0:0:0:0:
383,377,103921,2,0,L|449:371,1,66.6666666666667,2|2,0:0|0:0,0:0:0:0:
302,384,104131,6,0,P|313:336|351:305,1,100,6|2,0:0|0:0,0:0:0:0:
452,294,104368,1,0,0:0:0:0:
470,301,104447,2,0,L|461:199,1,100,0|2,0:0|0:0,0:0:0:0:
341,165,104684,1,0,0:0:0:0:
359,172,104763,2,0,L|350:72,1,100,0|2,0:0|0:0,0:0:0:0:
117,301,105079,1,0,0:0:0:0:
211,338,105237,2,0,L|193:139,1,200,2|2,0:0|0:0,0:0:0:0:
191,119,105631,1,2,0:0:0:0:
189,99,105710,1,2,0:0:0:0:
187,79,105789,1,2,0:0:0:0:
185,59,105868,1,2,0:0:0:0:
184,39,105947,1,2,0:0:0:0:
181,19,106027,5,0,0:0:0:0:
134,33,106105,1,0,0:0:0:0:
97,66,106184,1,0,0:0:0:0:
75,110,106263,1,0,0:0:0:0:
74,160,106342,1,0,0:0:0:0:
94,206,106421,1,0,0:0:0:0:
130,240,106500,1,0,0:0:0:0:
177,256,106579,1,0,0:0:0:0:
226,252,106658,22,0,P|250:257|269:272,3,50,4|0|0|0,0:0|0:0|0:0|0:0,0:0:0:0:
305,345,106974,2,0,L|360:335,3,50,0|0|0|0,0:0|0:0|0:0|0:0,0:0:0:0:
432,320,107289,2,0,L|429:369,1,50
330,254,107447,2,0,L|332:204,1,50,0|0,0:0|0:0,0:0:0:0:
512,225,107605,2,0,L|510:275,1,50
356,250,107763,2,0,B|360:163|360:163|349:144|349:144|354:52,1,200,4|0,0:0|0:0,0:0:0:0:
498,9,108237,2,0,B|502:61|502:61|354:53,1,200
306,221,108710,5,0,0:0:0:0:
304,240,108789,1,0,0:0:0:0:
302,259,108868,2,0,B|434:236|434:236|398:158,1,200,0|4,0:0|0:0,0:0:0:0:
382,219,109262,1,0,0:0:0:0:
384,268,109341,1,0,0:0:0:0:
413,308,109420,1,0,0:0:0:0:
459,328,109500,5,0,0:0:0:0:
410,318,109578,1,0,0:0:0:0:
360,325,109657,1,0,0:0:0:0:
316,347,109736,1,0,0:0:0:0:
280,382,109816,1,0,0:0:0:0:
247,371,109894,1,0,0:0:0:0:
219,351,109973,1,0,0:0:0:0:
196,325,110052,1,0,0:0:0:0:
182,293,110131,1,0,0:0:0:0:
177,258,110210,1,0,0:0:0:0:
181,224,110289,22,0,P|200:136|112:118,1,200,4|0,0:0|0:0,0:0:0:0:
340,271,110763,2,0,P|366:356|280:382,1,200
247,371,111158,1,0,0:0:0:0:
219,351,111237,1,0,0:0:0:0:
196,325,111316,1,0,0:0:0:0:
182,293,111395,1,4,0:0:0:0:
177,258,111474,1,0,0:0:0:0:
181,224,111553,5,0,0:0:0:0:
181,224,111631,1,0,0:0:0:0:
181,224,111710,2,0,L|124:234,3,50,0|0|0|0,0:0|0:0|0:0|0:0,0:0:0:0:
68,312,112026,2,0,P|88:326|112:332,3,50,0|0|0|0,0:0|0:0|0:0|0:0,0:0:0:0:
25,369,112342,5,0,0:0:0:0:
23,339,112420,1,0,0:0:0:0:
22,309,112499,1,0,0:0:0:0:
20,279,112578,1,0,0:0:0:0:
19,249,112657,1,0,0:0:0:0:
17,219,112736,1,0,0:0:0:0:
16,189,112816,2,0,B|165:168|165:168|98:134,1,200,4|0,0:0|0:0,0:0:0:0:
256,230,113289,22,0,P|194:299|111:257,1,200
99,220,113684,1,0,0:0:0:0:
100,180,113763,1,0,0:0:0:0:
120,145,113842,1,0,0:0:0:0:
154,124,113921,1,0,0:0:0:0:
177,91,114000,1,0,0:0:0:0:
171,51,114079,1,0,0:0:0:0:
145,20,114158,1,0,0:0:0:0:
105,16,114237,6,0,L|55:22,3,50,4|0|0|0,0:0|0:0|0:0|0:0,0:0:0:0:
28,99,114553,2,0,P|23:123|23:148,3,50
69,237,114868,2,0,L|142:242,1,50
145,142,115026,2,0,L|218:137,1,50,0|0,0:0|0:0,0:0:0:0:
217,248,115184,2,0,L|290:253,1,50
292,134,115342,2,0,L|491:118,1,200,4|0,0:0|0:0,0:0:0:0:
264,230,115816,2,0,P|195:162|214:69,1,200
262,57,116210,1,0,0:0:0:0:
310,44,116289,1,0,0:0:0:0:
358,32,116368,1,0,0:0:0:0:
406,20,116447,2,0,L|332:16,2,66.6666666666667,0|0|0,0:0|0:0|0:0,0:0:0:0:
219,6,116763,6,0,L|159:3,3,50
306,120,117079,2,0,L|371:117,3,55.0000016784668,0|0|0|0,0:0|0:0|0:0|0:0,0:0:0:0:
184,212,117395,2,0,L|118:208,3,59.9999981689454,0|0|0|0,0:0|0:0|0:0|0:0,0:0:0:0:
323,314,117710,2,0,L|389:310,3,64.9999970245363,0|0|4|0,0:0|0:0|0:0|0:0,0:0:0:0:
167,375,118026,22,0,L|96:371,3,69.9999978637696
184,212,118342,2,0,L|189:136,3,75.0000028610231,0|0|0|0,0:0|0:0|0:0|0:0,0:0:0:0:
227,237,118658,1,0,0:0:0:0:
227,237,118738,1,0,0:0:0:0:
261,216,118816,1,0,0:0:0:0:
298,202,118895,1,0,0:0:0:0:
338,200,118974,5,0,0:0:0:0:
377,208,119053,1,0,0:0:0:0:
416,213,119132,1,0,0:0:0:0:
456,209,119211,1,0,0:0:0:0:
493,194,119290,1,0,0:0:0:0:
493,194,128131,5,4,0:0:0:0:
19,190,128289,1,2,0:0:0:0:
19,190,128605,1,2,0:0:0:0:
352,193,128921,1,2,0:0:0:0:
352,193,129000,1,0,0:0:0:0:
352,193,129079,1,0,0:0:0:0:
19,190,129237,1,2,0:0:0:0:
75,318,129395,22,0,P|144:248|151:151,1,200,4|0,0:0|0:0,0:0:0:0:
121,56,129868,1,2,0:0:0:0:
23,39,130026,2,0,P|27:88|53:129,1,100,0|2,0:0|0:0,0:0:0:0:
219,77,130342,1,0,0:0:0:0:
315,106,130500,2,0,P|245:172|151:151,1,200,6|2,0:0|0:0,0:0:0:0:
102,346,130974,2,0,P|171:280|265:300,1,200
375,350,131447,1,2,0:0:0:0:
375,350,131526,1,0,0:0:0:0:
375,350,131605,1,0,0:0:0:0:
487,308,131763,1,2,0:0:0:0:
425,94,131921,22,0,P|504:81|462:149,2,200,4|0|0,0:0|0:0|0:0,0:0:0:0:
256,160,132710,1,2,0:0:0:0:
256,160,132868,1,0,0:0:0:0:
86,94,133026,2,0,P|7:81|49:149,1,200,6|2,0:0|0:0,0:0:0:0:
303,241,133500,1,0,0:0:0:0:
256,55,133658,1,2,0:0:0:0:
209,241,133816,1,0,0:0:0:0:
398,303,133974,1,2,0:0:0:0:
256,160,134131,1,0,0:0:0:0:
110,303,134289,1,2,0:0:0:0:
293,382,134447,21,0,0:0:0:0:
201,342,134605,2,0,L|397:303,1,200,2|2,0:0|0:0,0:0:0:0:
256,160,135079,1,0,0:0:0:0:
201,342,135237,1,2,0:0:0:0:
493,270,135395,1,0,0:0:0:0:
493,270,135553,2,0,B|461:364|461:364|363:384,1,200,6|2,0:0|0:0,0:0:0:0:
19,270,136026,2,0,B|51:364|51:364|149:384,1,200
256,348,136500,1,2,0:0:0:0:
256,348,136579,1,0,0:0:0:0:
256,348,136658,2,0,B|280:305|256:260|256:260|256:201,1,150
256,160,136974,22,0,B|404:139|404:139|367:173,1,200,4|0,0:0|0:0,0:0:0:0:
175,305,137447,1,2,0:0:0:0:
337,284,137605,1,0,0:0:0:0:
256,160,137763,1,2,0:0:0:0:
256,160,137842,1,0,0:0:0:0:
256,160,137921,1,0,0:0:0:0:
336,43,138079,22,0,B|320:12|320:12|256:-10|192:12|192:12|176:43,1,200,6|2,0:0|0:0,0:0:0:0:
168,61,138474,1,0,0:0:0:0:
159,79,138553,2,0,B|88:92|88:92|62:81,1,100,0|2,0:0|0:0,0:0:0:0:
402,164,138868,2,0,B|426:96|426:96|448:79,1,100,0|2,0:0|0:0,0:0:0:0:
148,199,139184,2,0,B|195:254|195:254|206:332,1,150
210,372,139500,22,0,P|260:391|311:376,1,100,4|2,0:0|0:0,0:0:0:0:
436,238,139816,2,0,P|455:188|440:137,1,100,0|2,0:0|0:0,0:0:0:0:
302,12,140131,2,0,P|252:-7|201:8,1,100,0|2,0:0|0:0,0:0:0:0:
76,146,140447,2,0,P|57:196|72:247,1,100,0|2,0:0|0:0,0:0:0:0:
263,299,140763,1,0,0:0:0:0:
248,84,140921,1,2,0:0:0:0:
148,199,141079,1,4,0:0:0:0:
363,184,141237,1,6,0:0:0:0:
184,82,141553,21,0,0:0:0:0:
173,82,141632,1,0,0:0:0:0:
162,82,141711,1,0,0:0:0:0:
151,82,141790,1,0,0:0:0:0:
140,82,141869,1,0,0:0:0:0:
129,82,141948,1,0,0:0:0:0:
118,82,142027,2,0,L|61:82,3,50,4|0|0|0,0:0|0:0|0:0|0:0,0:0:0:0:
157,172,142343,2,0,L|214:172,3,50,0|0|0|0,0:0|0:0|0:0|0:0,0:0:0:0:
117,261,142659,2,0,L|67:261,3,50,0|0|0|0,0:0|0:0|0:0|0:0,0:0:0:0:
167,269,142974,21,0,0:0:0:0:
213,248,143053,1,0,0:0:0:0:
261,265,143132,1,0,0:0:0:0:
308,283,143211,1,0,0:0:0:0:
353,261,143290,2,0,L|336:331,3,50,4|0|0|0,0:0|0:0|0:0|0:0,0:0:0:0:
421,211,143606,2,0,L|433:163,3,50,0|0|0|0,0:0|0:0|0:0|0:0,0:0:0:0:
465,285,143922,2,0,L|454:334,3,50,0|0|0|0,0:0|0:0|0:0|0:0,0:0:0:0:
497,246,144238,21,0,0:0:0:0:
504,198,144316,1,0,0:0:0:0:
482,154,144395,1,0,0:0:0:0:
439,130,144474,1,0,0:0:0:0:
390,134,144553,2,0,L|340:134,3,50,4|0|0|0,0:0|0:0|0:0|0:0,0:0:0:0:
275,182,144869,2,0,L|226:183,3,50,0|0|0|0,0:0|0:0|0:0|0:0,0:0:0:0:
315,58,145185,2,0,L|266:59,3,50
367,67,145501,21,0,0:0:0:0:
416,56,145580,1,0,0:0:0:0:
465,44,145659,1,0,0:0:0:0:
432,81,145738,1,0,0:0:0:0:
439,130,145816,2,0,L|459:187,1,50,4|0,0:0|0:0,0:0:0:0:
471,321,145974,2,0,L|487:273,1,50
340,140,146132,2,0,L|356:187,1,50
371,331,146290,2,0,L|387:283,1,50
239,152,146448,2,0,L|255:199,1,50
271,342,146606,2,0,L|287:294,1,50,0|0,0:0|0:0,0:0:0:0:
139,161,146764,2,0,L|155:208,1,50
171,352,146922,2,0,L|187:304,1,50
89,283,147080,21,4,0:0:0:0:
89,283,147159,1,0,0:0:0:0:
89,283,147238,1,0,0:0:0:0:
89,283,147316,1,0,0:0:0:0:
89,283,147395,2,0,L|40:291,3,50,0|0|0|0,0:0|0:0|0:0|0:0,0:0:0:0:
144,220,147711,1,0,0:0:0:0:
147,217,147790,1,0,0:0:0:0:
150,214,147869,1,0,0:0:0:0:
153,211,147948,1,0,0:0:0:0:
155,208,148026,2,0,L|205:216,3,50
86,135,148343,22,0,L|37:128,1,50,4|0,0:0|0:0,0:0:0:0:
237,114,148501,2,0,L|287:107,1,50,0|0,0:0|0:0,0:0:0:0:
65,7,148659,2,0,L|72:56,1,50,0|0,0:0|0:0,0:0:0:0:
155,208,148816,2,0,L|205:201,1,50,0|0,0:0|0:0,0:0:0:0:
148,37,148974,2,0,L|156:87,1,50,0|0,0:0|0:0,0:0:0:0:
55,255,149132,2,0,L|47:205,1,50,0|0,0:0|0:0,0:0:0:0:
229,65,149290,2,0,L|237:115,1,50
163,257,149448,2,0,L|155:207,1,50
126,165,149605,21,4,0:0:0:0:
115,150,149683,1,0,0:0:0:0:
108,133,149762,1,0,0:0:0:0:
105,114,149841,1,0,0:0:0:0:
106,96,149920,1,0,0:0:0:0:
111,78,149999,1,0,0:0:0:0:
120,61,150078,1,0,0:0:0:0:
132,47,150157,1,0,0:0:0:0:
147,37,150237,21,0,0:0:0:0:
167,32,150316,1,0,0:0:0:0:
186,31,150395,2,0,B|217:38|217:38|256:22,1,50
379,165,150553,2,0,B|385:181|385:181|378:212,1,50
190,110,150710,2,0,B|238:139|287:121|287:121|313:70|364:66,1,200,4|2,0:0|0:0,0:0:0:0:
457,102,151184,1,0,0:0:0:0:
433,300,151342,1,2,0:0:0:0:
416,135,151500,1,0,0:0:0:0:
392,333,151658,1,2,0:0:0:0:
390,323,151737,1,0,0:0:0:0:
388,313,151816,1,0,0:0:0:0:
386,303,151895,1,0,0:0:0:0:
384,293,151974,1,2,0:0:0:0:
382,283,152053,1,0,0:0:0:0:
380,273,152131,22,0,B|371:224|371:224|380:72,1,200,4|0,0:0|0:0,0:0:0:0:
421,208,152605,1,2,0:0:0:0:
287,249,152763,1,0,0:0:0:0:
246,115,152921,1,2,0:0:0:0:
226,301,153079,2,0,B|220:351|220:351|143:298|167:213,1,200
287,249,153553,1,2,0:0:0:0:
45,260,153710,1,0,0:0:0:0:
301,328,153868,1,2,0:0:0:0:
185,195,154026,2,0,B|214:216|214:216|314:201,1,100,0|2,0:0|0:0,0:0:0:0:
345,132,154263,1,0,0:0:0:0:
345,132,154342,2,0,B|365:197|365:197|341:350,1,200,0|4,0:0|0:0,0:0:0:0:
277,206,154816,5,2,0:0:0:0:
474,171,154974,2,0,B|452:167|452:167|435:173|435:173|428:166|428:166|377:158,1,100,0|2,0:0|0:0,0:0:0:0:
277,134,155289,1,0,0:0:0:0:
277,134,155447,1,2,0:0:0:0:
449,89,155605,1,0,0:0:0:0:
402,261,155763,1,2,0:0:0:0:
340,170,155921,6,0,B|299:166|299:166|264:183|264:183|198:177,1,119.999996337891,0|2,0:0|0:0,0:0:0:0:
8,71,156237,1,0,0:0:0:0:
8,71,156394,1,2,0:0:0:0:
246,81,156553,2,0,L|141:74,1,100,0|2,0:0|0:0,0:0:0:0:
111,110,156789,1,0,0:0:0:0:
94,156,156868,1,0,0:0:0:0:
94,206,156947,1,0,0:0:0:0:
113,252,157026,1,2,0:0:0:0:
100,300,157105,1,0,0:0:0:0:
52,315,157184,22,0,B|100:330|100:330|262:302,1,200,4|0,0:0|0:0,0:0:0:0:
475,316,157658,1,2,0:0:0:0:
340,170,157816,1,0,0:0:0:0:
329,289,157974,1,2,0:0:0:0:
321,149,158131,2,0,P|320:96|444:93,1,200,0|4,0:0|0:0,0:0:0:0:
512,272,158605,5,2,0:0:0:0:
383,122,158763,1,0,0:0:0:0:
329,289,158921,1,2,0:0:0:0:
237,182,159079,1,0,0:0:0:0:
237,182,159158,1,0,0:0:0:0:
237,182,159237,1,2,0:0:0:0:
191,314,159395,1,0,0:0:0:0:
100,271,159553,1,2,0:0:0:0:
10,99,159710,6,0,P|104:94|143:180,2,200
201,65,160500,1,2,0:0:0:0:
100,271,160658,1,0,0:0:0:0:
65,162,160816,22,0,B|149:140|149:140|213:167|256:132,1,200,6|2,0:0|0:0,0:0:0:0:
393,207,161289,1,0,0:0:0:0:
201,65,161447,1,2,0:0:0:0:
173,303,161605,1,0,0:0:0:0:
393,207,161763,2,0,L|344:200,1,50,2|0,0:0|0:0,0:0:0:0:
367,298,161921,1,0,0:0:0:0:
401,301,161999,1,0,0:0:0:0:
435,291,162078,1,2,0:0:0:0:
462,270,162157,1,0,0:0:0:0:
480,241,162237,6,0,B|485:150|485:150|471:169,1,100,4|0,0:0|0:0,0:0:0:0:
173,219,162553,2,0,B|168:310|168:310|182:291,1,100,0|0,0:0|0:0,0:0:0:0:
339,165,162868,2,0,B|344:74|344:74|330:93,1,100,0|0,0:0|0:0,0:0:0:0:
32,143,163184,2,0,B|27:234|27:234|41:215,1,100,0|0,0:0|0:0,0:0:0:0:
270,296,163500,6,0,B|221:288|221:288|173:303,1,100,4|0,0:0|0:0,0:0:0:0:
241,87,163816,2,0,B|291:96|291:96|338:80,1,100
129,137,164131,2,0,B|79:128|79:128|32:143,1,100,0|0,0:0|0:0,0:0:0:0:
383,247,164447,2,0,B|432:255|432:255|479:240,1,100,0|0,0:0|0:0,0:0:0:0:
465,73,164763,22,0,B|452:95|445:135|467:159|489:141,1,100,4|0,0:0|0:0,0:0:0:0:
46,310,165079,2,0,B|60:289|67:249|45:225|22:242,1,100
407,344,165395,2,0,B|385:330|345:323|321:345|339:368,1,100
105,40,165710,2,0,B|126:53|166:60|190:38|172:15,1,100
105,344,166026,6,0,B|140:337|168:356|168:356|219:349,1,100,4|0,0:0|0:0,0:0:0:0:
407,40,166342,2,0,B|372:47|344:28|344:28|293:35,1,100
153,127,166658,2,0,B|160:162|141:190|141:190|148:241,1,100
359,257,166974,2,0,B|352:222|371:194|371:194|364:143,1,100
75,145,167289,6,0,B|30:155|0:133|0:133|29:113,1,100,4|0,0:0|0:0,0:0:0:0:
437,239,167605,2,0,B|482:229|512:251|512:251|483:271,1,100
167,291,167921,2,0,B|122:301|92:279|92:279|121:259,1,100
345,93,168237,2,0,B|390:83|420:105|420:105|391:125,1,100
254,296,168553,22,0,B|262:330|262:330|284:352|284:352|292:384,1,100,4|0,0:0|0:0,0:0:0:0:
258,88,168868,2,0,B|250:54|250:54|228:32|228:32|220:0,1,100
365,191,169184,2,0,B|416:195|416:195|466:171,1,100
147,193,169500,2,0,B|96:189|96:189|46:213,1,100
0,82,169816,6,0,B|95:90|95:90|190:45,1,200
383,97,170289,1,2,0:0:0:0:
226,221,170447,2,0,L|229:121,1,100,0|2,0:0|0:0,0:0:0:0:
274,49,170763,1,0,0:0:0:0:
289,298,170921,2,0,P|196:318|129:249,1,200,6|2,0:0|0:0,0:0:0:0:
17,82,171395,2,0,B|0:230|0:230|13:296,1,200
104,384,171868,5,2,0:0:0:0:
104,384,171947,1,0,0:0:0:0:
104,384,172026,1,0,0:0:0:0:
153,382,172104,1,0,0:0:0:0:
197,359,172183,1,2,0:0:0:0:
226,318,172262,1,0,0:0:0:0:
234,270,172342,2,0,B|241:249|258:237|258:237|234:220|234:220|270:148|226:85,1,200,4|0,0:0|0:0,0:0:0:0:
331,197,172816,1,2,0:0:0:0:
129,158,172974,21,0,0:0:0:0:
283,32,173131,1,2,0:0:0:0:
250,147,173289,1,0,0:0:0:0:
381,23,173447,1,6,0:0:0:0:
221,149,173605,5,0,0:0:0:0:
418,66,173763,1,2,0:0:0:0:
192,152,173921,1,0,0:0:0:0:
447,203,174079,1,2,0:0:0:0:
163,155,174237,1,0,0:0:0:0:
283,32,174395,1,2,0:0:0:0:
338,249,174553,2,0,P|418:287|447:203,1,200
450,212,174947,5,0,0:0:0:0:
453,221,175026,1,0,0:0:0:0:
456,230,175105,1,0,0:0:0:0:
459,239,175184,1,0,0:0:0:0:
447,287,175262,1,0,0:0:0:0:
414,323,175341,1,0,0:0:0:0:
366,338,175420,1,0,0:0:0:0:
318,327,175500,6,0,B|299:321|283:310|283:310|256:334|219:337|219:337|201:317|173:312,1,150.000005722046,4|0,0:0|0:0,0:0:0:0:
117,327,175737,2,0,P|130:362|161:384,1,75.0000028610231
189,72,175974,6,0,P|242:153|225:250,1,200,2|2,0:0|0:0,0:0:0:0:
512,314,176447,2,0,P|414:319|362:240,1,200
404,44,176921,1,2,0:0:0:0:
459,234,177079,1,0,0:0:0:0:
292,166,177237,1,2,0:0:0:0:
387,135,177395,6,0,B|459:234|459:234|373:199,1,200,4|0,0:0|0:0,0:0:0:0:
337,196,177788,1,0,0:0:0:0:
287,197,177867,1,2,0:0:0:0:
239,210,177946,1,0,0:0:0:0:
194,231,178025,1,0,0:0:0:0:
149,253,178104,1,0,0:0:0:0:
101,266,178183,1,2,0:0:0:0:
51,267,178262,1,0,0:0:0:0:
2,259,178341,5,0,0:0:0:0:
5,255,178421,1,0,0:0:0:0:
8,251,178500,1,6,0:0:0:0:
195,44,179921,22,0,B|217:57|257:64|281:42|263:20,1,100,4|0,0:0|0:0,0:0:0:0:
317,340,180237,2,0,B|295:327|255:320|231:342|249:364,1,100
316,105,180553,6,0,B|356:76|356:76|363:26,1,100,4|0,0:0|0:0,0:0:0:0:
195,278,180868,2,0,B|156:308|156:308|149:358,1,100
375,226,181184,6,0,B|406:212|406:212|443:226|488:205,1,100,4|0,0:0|0:0,0:0:0:0:
137,158,181500,2,0,B|106:172|106:172|69:158|24:179,1,100
317,340,181816,2,0,P|364:354|413:348,1,100
457,325,182053,1,0,0:0:0:0:
488,286,182132,1,0,0:0:0:0:
503,239,182211,1,0,0:0:0:0:
498,189,182290,1,0,0:0:0:0:
475,145,182369,1,0,0:0:0:0:
437,113,182448,21,0,0:0:0:0:
97,273,182605,1,2,0:0:0:0:
256,20,182763,1,0,0:0:0:0:
256,319,182921,1,2,0:0:0:0:
177,182,183079,1,0,0:0:0:0:
335,182,183237,1,2,0:0:0:0:
256,228,183395,5,2,0:0:0:0:
256,228,183473,1,0,0:0:0:0:
256,228,183552,1,0,0:0:0:0:
414,273,183710,1,0,0:0:0:0:
98,111,183868,1,6,0:0:0:0:
64,308,184026,1,4,0:0:0:0:
448,76,184184,1,6,0:0:0:0:
256,192,184658,5,0,0:0:0:0:
256,192,184737,12,4,186710,0:0:0:0:
