osu file format v13

[General]
AudioFilename: IZAYOI.mp3
AudioLeadIn: 0
PreviewTime: 172180
Countdown: 0
SampleSet: Normal
StackLeniency: 0.7
Mode: 0
LetterboxInBreaks: 0
WidescreenStoryboard: 0

[Editor]
Bookmarks: 95598
DistanceSpacing: 1
BeatDivisor: 4
GridSize: 4
TimelineZoom: 3.999998

[Metadata]
Title:IZAYOI Girls Rage
TitleUnicode:IZAYOI Girls Rage
Artist:bibuko
ArtistUnicode:bibuko
Creator:val0108
Version:0108
Source:
Tags:vocaloid
BeatmapID:445192
BeatmapSetID:186323

[Difficulty]
HPDrainRate:5
CircleSize:4
OverallDifficulty:6.8
ApproachRate:9.3
SliderMultiplier:1.9
SliderTickRate:2

[Events]
//Background and Video events
0,0,"Konachan.com - 179661 bicolored_eyes black black_eyes collar drahtpuppe goggles green_hair gumi mask pink_eyes short_hair vocaloid.jpg",0,0
//Break Periods
2,77576,81626
2,130661,143033
//Storyboard Layer 0 (Background)
//Storyboard Layer 1 (Fail)
//Storyboard Layer 2 (Pass)
//Storyboard Layer 3 (Foreground)
//Storyboard Sound Samples
//Background Colour Transformations
3,100,163,162,255

[TimingPoints]
1087,234.375,4,1,1,60,1,0
61087,-100,4,1,1,60,0,1
77376,-100,4,1,1,60,0,0
172180,-100,4,1,1,60,0,1
186946,-100,4,1,1,60,0,0
187180,-100,4,1,1,60,0,1
195032,-133.333333333333,4,1,1,60,0,0
195383,-66.6666666666667,4,1,1,60,0,0
195618,-100,4,1,1,60,0,0

[Colours]
Combo1 : 0,255,64
Combo2 : 255,255,255
Combo3 : 226,46,226
Combo4 : 192,192,192

[HitObjects]
96,96,1556,5,0,0:0:0:0:
416,96,1790,1,0,0:0:0:0:
192,192,2024,5,0,0:0:0:0:
320,192,2142,1,0,0:0:0:0:
192,192,2259,1,0,0:0:0:0:
320,192,2377,1,0,0:0:0:0:
32,224,3899,5,0,0:0:0:0:
32,224,4017,1,0,0:0:0:0:
32,224,4134,1,0,0:0:0:0:
32,318,4251,1,0,0:0:0:0:
480,224,5774,5,0,0:0:0:0:
480,224,5892,1,0,0:0:0:0:
480,224,6009,1,0,0:0:0:0:
480,318,6126,1,0,0:0:0:0:
32,316,6360,1,0,0:0:0:0:
160,64,7649,5,0,0:0:0:0:
256,64,7767,1,0,0:0:0:0:
352,64,7884,1,0,0:0:0:0:
256,64,8001,1,0,0:0:0:0:
256,320,8587,1,0,0:0:0:0:
256,192,9056,5,0,0:0:0:0:
172,156,9173,1,0,0:0:0:0:
160,192,9231,1,0,0:0:0:0:
172,228,9290,1,0,0:0:0:0:
352,192,9407,1,0,0:0:0:0:
160,192,9524,2,0,L|24:192,1,95,0|0,0:0|0:0,0:0:0:0:
40,216,9876,6,0,L|240:216,1,190
266,119,10228,2,0,P|202:127|170:151,1,95
196,301,10462,2,0,P|223:262|230:216,1,95
176,48,10696,1,0,0:0:0:0:
128,224,10814,1,0,0:0:0:0:
266,119,10931,2,0,L|370:95,1,95
496,160,11165,2,0,L|392:184,1,95
344,256,11399,5,0,0:0:0:0:
440,80,11517,1,0,0:0:0:0:
267,119,11634,1,0,0:0:0:0:
344,48,11751,2,0,B|360:56|360:56|344:80|344:80|384:140|344:248,1,190
344,256,12044,1,0,0:0:0:0:
344,256,12103,2,0,L|256:192,1,95
436,208,12337,2,0,L|524:272,1,95
460,344,12571,1,0,0:0:0:0:
256,368,12689,1,0,0:0:0:0:
52,344,12806,5,0,0:0:0:0:
144,324,12923,1,0,0:0:0:0:
80,256,13040,1,0,0:0:0:0:
52,344,13157,1,0,0:0:0:0:
200,200,13274,1,0,0:0:0:0:
80,256,13392,2,0,L|121:232,2,47.5,0|0|0,0:0|0:0|0:0,0:0:0:0:
81,77,13626,6,0,P|53:165|101:281,1,190
209,285,13978,2,0,L|273:393,1,95
258,203,14212,2,0,L|194:311,1,95
210,121,14446,2,0,L|258:202,1,95
259,40,14681,6,0,L|210:121,1,95
156,200,14915,1,0,0:0:0:0:
304,120,15032,1,0,0:0:0:0:
80,76,15149,1,0,0:0:0:0:
40,172,15267,1,0,0:0:0:0:
60,276,15384,5,0,0:0:0:0:
60,276,15501,2,0,B|88:276|88:276|120:288|120:288|152:288|152:288|188:304|188:304|256:304,1,190
272,264,15794,1,0,0:0:0:0:
272,264,15853,2,0,P|288:204|280:160,1,95
114,114,16087,2,0,L|166:218,1,95
156,16,16321,1,0,0:0:0:0:
156,16,16439,1,0,0:0:0:0:
80,76,16556,5,0,0:0:0:0:
216,128,16673,1,0,0:0:0:0:
216,128,16731,1,0,0:0:0:0:
216,128,16790,1,0,0:0:0:0:
60,276,16907,1,0,0:0:0:0:
156,200,17024,1,0,0:0:0:0:
244,304,17142,1,0,0:0:0:0:
384,336,17259,1,0,0:0:0:0:
384,336,17376,6,0,B|436:256|352:224|436:148,1,190,0|0,0:0|0:0,0:0:0:0:
425,158,17728,2,0,P|400:128|336:108,1,95
244,304,17962,1,0,0:0:0:0:
244,304,18079,1,0,0:0:0:0:
197,217,18196,2,0,P|217:165|213:109,1,95
48,324,18431,2,0,L|144:292,1,95
440,79,18665,2,0,L|344:111,1,95
128,152,18899,1,0,0:0:0:0:
304,180,19017,1,0,0:0:0:0:
64,212,19134,1,0,0:0:0:0:
350,109,19251,6,0,P|390:173|332:264,1,190,0|0,0:0|0:0,0:0:0:0:
312,262,19544,1,0,0:0:0:0:
288,262,19603,2,0,L|344:368,1,95
259,96,19837,2,0,L|304:180,1,95
420,308,20071,1,0,0:0:0:0:
420,308,20188,1,0,0:0:0:0:
332,345,20305,2,0,L|288:262,1,95
259,96,20540,2,0,L|304:180,1,95
440,80,20774,1,0,0:0:0:0:
340,8,20892,1,0,0:0:0:0:
340,8,20950,1,0,0:0:0:0:
340,8,21009,1,0,0:0:0:0:
260,96,21126,6,0,B|355:117|355:117|454:74,1,190,0|0,0:0|0:0,0:0:0:0:
352,208,21478,2,0,L|456:168,1,95
176,228,21712,2,0,L|264:262,1,95
420,308,21946,1,0,0:0:0:0:
332,344,22064,1,0,0:0:0:0:
420,308,22181,1,0,0:0:0:0:
236,340,22298,2,0,P|190:353|143:352,2,95,0|0|0,0:0|0:0|0:0,0:0:0:0:
260,96,22649,1,0,0:0:0:0:
176,228,22767,1,0,0:0:0:0:
352,208,22884,1,0,0:0:0:0:
79,121,23001,6,0,B|183:133|183:133|275:89,1,190
332,32,23353,1,0,0:0:0:0:
412,80,23470,1,0,0:0:0:0:
452,164,23587,1,0,0:0:0:0:
420,252,23704,1,0,0:0:0:0:
332,284,23821,1,0,0:0:0:0:
244,248,23939,1,0,0:0:0:0:
148,236,24056,5,0,0:0:0:0:
60,272,24173,1,0,0:0:0:0:
44,308,24231,1,0,0:0:0:0:
48,348,24290,2,0,P|76:376|148:384,1,95
208,176,24524,1,0,0:0:0:0:
124,308,24642,1,0,0:0:0:0:
256,104,24759,1,0,0:0:0:0:
388,308,24876,6,0,P|332:340|200:324,1,190
333,230,25228,1,0,0:0:0:0:
333,230,25345,1,0,0:0:0:0:
333,230,25462,2,0,L|401:326,1,95
179,154,25696,2,0,L|111:58,1,95
120,224,25931,2,0,P|168:240|240:228,1,95
347,117,26165,2,0,P|299:101|227:113,1,95
120,224,26399,1,0,0:0:0:0:
288,184,26517,1,0,0:0:0:0:
124,75,26634,1,0,0:0:0:0:
212,238,26751,6,0,P|196:160|244:44,1,190
264,40,27044,1,0,0:0:0:0:
299,25,27103,2,0,L|405:25,1,95
213,359,27337,2,0,L|107:359,1,95
300,360,27571,1,0,0:0:0:0:
300,360,27689,1,0,0:0:0:0:
256,276,27806,5,0,0:0:0:0:
256,181,27923,2,0,L|196:180,2,47.5,0|0|0,0:0|0:0|0:0,0:0:0:0:
256,86,28157,1,0,0:0:0:0:
184,24,28274,5,0,0:0:0:0:
328,360,28391,2,0,L|352:312,2,47.5,0|0|0,0:0|0:0|0:0,0:0:0:0:
328,24,28626,6,0,B|271:58|271:58|255:180,1,190
256,276,28978,2,0,P|200:272|164:240,1,95
341,249,29212,2,0,P|302:275|256:276,1,95
197,105,29446,2,0,L|256:180,1,95
313,105,29681,5,0,0:0:0:0:
144,180,29798,2,0,L|84:180,2,47.5,0|0|0,0:0|0:0|0:0,0:0:0:0:
256,276,30032,1,0,0:0:0:0:
368,180,30149,2,0,L|428:180,2,47.5,0|0|0,0:0|0:0|0:0,0:0:0:0:
344,180,30325,1,0,0:0:0:0:
316,186,30383,1,0,0:0:0:0:
291,200,30442,1,0,0:0:0:0:
272,221,30500,1,0,0:0:0:0:
260,247,30559,1,0,0:0:0:0:
256,276,30618,6,0,B|224:332|224:332|160:372|80:312,1,190
405,326,30970,2,0,B|350:369|286:329|286:329|256:276,1,190
256,108,31321,6,0,B|224:52|224:52|160:12|80:72,1,190
405,57,31673,2,0,B|350:14|286:54|286:54|256:108,1,190
160,256,32024,5,0,0:0:0:0:
352,128,32142,1,0,0:0:0:0:
160,128,32493,5,0,0:0:0:0:
352,256,32728,1,0,0:0:0:0:
256,192,32962,5,0,0:0:0:0:
256,192,33196,6,0,B|236:184|236:184|216:200|216:200|188:192|188:192|56:192,1,190
8,264,33548,1,0,0:0:0:0:
4,360,33665,2,0,P|48:376|116:364,1,95
352,128,33899,2,0,P|308:112|240:124,1,95
176,264,34134,1,0,0:0:0:0:
171,361,34251,2,0,L|263:177,1,190
268,172,34544,1,0,0:0:0:0:
280,152,34603,1,0,0:0:0:0:
176,200,34720,6,0,L|352:128,1,190
104,152,35071,2,0,P|88:196|104:260,1,95
352,128,35306,2,0,P|368:84|352:20,1,95
133,114,35540,2,0,L|181:210,1,95
330,241,35774,2,0,L|282:145,1,95
12,138,36009,2,0,P|68:142|120:158,1,95
228,268,36243,1,0,0:0:0:0:
292,340,36360,1,0,0:0:0:0:
384,352,36477,1,0,0:0:0:0:
464,300,36595,6,0,B|496:220|496:220|480:88,1,190
340,35,36946,2,0,L|352:138,1,95
228,268,37181,2,0,L|215:164,1,95
112,52,37415,1,0,0:0:0:0:
24,192,37532,6,0,B|11:295|11:295|43:375,1,190
217,171,37884,2,0,L|228:76,1,95
412,216,38119,2,0,L|400:310,1,95
228,268,38353,1,0,0:0:0:0:
344,148,38470,6,0,P|416:128|504:204,1,190,0|0,0:0|0:0,0:0:0:0:
228,268,38821,2,0,L|348:256,2,95,0|0|0,0:0|0:0|0:0,0:0:0:0:
217,172,39173,1,0,0:0:0:0:
140,228,39290,2,0,P|132:272|144:320,1,95
228,360,39524,5,0,0:0:0:0:
344,148,39642,2,0,P|352:104|340:56,2,95,0|0|0,0:0|0:0|0:0,0:0:0:0:
260,100,39993,5,0,0:0:0:0:
56,240,40110,1,0,0:0:0:0:
284,336,40228,1,0,0:0:0:0:
168,369,40345,6,0,L|336:249,1,190
152,196,40696,2,0,P|199:197|245:210,1,95
392,312,40931,1,0,0:0:0:0:
284,336,41048,1,0,0:0:0:0:
356,180,41165,2,0,P|394:151|437:132,1,95,0|0,2:0|0:0,0:0:0:0:
512,192,41399,5,0,0:0:0:0:
332,248,41517,2,0,L|256:192,1,95
180,136,41751,1,0,0:0:0:0:
0,192,41868,1,0,0:0:0:0:
116,240,41985,2,0,L|116:300,2,47.5,0|0|0,0:0|0:0|0:0,0:0:0:0:
396,144,42220,6,0,B|376:56|376:56|264:8,1,190
351,228,42571,2,0,L|407:124,1,95
396,312,42806,2,0,L|340:208,1,95
312,357,43040,2,0,L|416:301,1,95
228,312,43274,2,0,L|332:368,1,95
273,228,43509,2,0,L|228:312,1,95
396,312,43743,1,0,0:0:0:0:
351,228,43860,1,0,0:0:0:0:
362,207,43918,1,0,0:0:0:0:
373,186,43977,1,0,0:0:0:0:
384,165,44035,1,0,0:0:0:0:
396,144,44095,6,0,B|311:103|311:103|200:155,1,190
228,312,44446,1,0,0:0:0:0:
396,312,44564,1,0,0:0:0:0:
273,228,44681,1,0,0:0:0:0:
312,356,44797,2,0,L|312:288,2,47.5,0|0|0,0:0|0:0|0:0,0:0:0:0:
351,228,45032,5,0,0:0:0:0:
396,312,45149,1,0,0:0:0:0:
312,356,45267,1,0,0:0:0:0:
228,312,45384,1,0,0:0:0:0:
273,228,45501,1,0,0:0:0:0:
223,144,45618,6,0,B|311:103|311:103|396:144,1,190
384,165,45911,1,0,0:0:0:0:
373,186,45970,2,0,L|256:16,1,190
138,197,46321,2,0,L|256:368,1,190
416,132,46673,2,0,L|213:91,1,190
96,252,47024,2,0,L|216:280,1,95
36,184,47259,5,0,0:0:0:0:
138,197,47376,1,0,0:0:0:0:
232,208,47493,1,0,0:0:0:0:
276,284,47610,5,0,0:0:0:0:
372,295,47727,1,0,0:0:0:0:
469,307,47844,1,0,0:0:0:0:
512,384,47962,5,0,0:0:0:0:
469,307,48196,6,0,L|424:200,1,95
344,28,48431,1,0,0:0:0:0:
256,64,48548,1,0,0:0:0:0:
168,28,48665,1,0,0:0:0:0:
168,124,48782,5,0,0:0:0:0:
256,160,48899,1,0,0:0:0:0:
344,124,49016,1,0,0:0:0:0:
344,220,49134,5,0,0:0:0:0:
256,256,49251,1,0,0:0:0:0:
168,220,49368,1,0,0:0:0:0:
168,316,49485,5,0,0:0:0:0:
256,352,49602,1,0,0:0:0:0:
344,316,49719,1,0,0:0:0:0:
256,256,49837,6,0,B|192:248|192:248|136:210|136:210|175:272,1,190
345,125,50188,2,0,B|376:174|376:174|320:136|320:136|256:128,1,190
84,212,50540,2,0,L|168:260,1,95,0|0,0:0|0:0,0:0:0:0:
428,172,50774,2,0,L|344:124,1,95,0|0,0:0|0:0,0:0:0:0:
100,132,51009,2,0,P|56:136|12:176,1,95
256,352,51243,1,0,0:0:0:0:
412,252,51360,2,0,P|456:248|480:108,1,190,0|0,0:0|0:0,0:0:0:0:
256,172,51712,6,0,B|348:132|348:132|428:171,1,190
175,315,52064,2,0,L|344:228,1,190
343,54,52415,2,0,L|256:92,1,95
83,171,52649,6,0,B|164:132|164:132|256:172,1,190
336,315,53001,2,0,L|168:228,1,190
168,54,53353,2,0,L|256:92,1,95
28,248,53587,6,0,L|90:160,1,95,0|0,0:0|0:0,0:0:0:0:
256,92,53821,1,0,0:0:0:0:
177,173,53939,2,0,L|53:169,1,95
335,211,54173,2,0,L|459:215,1,95
381,384,54407,2,0,B|393:304|393:304|323:189,1,190
308,172,54700,1,0,0:0:0:0:
280,132,54759,2,0,L|404:136,1,95
428,212,54993,5,0,0:0:0:0:
336,212,55110,1,0,0:0:0:0:
280,132,55227,2,0,L|340:40,1,95
426,52,55462,5,0,0:0:0:0:
483,134,55579,2,0,L|428:212,1,95
86,52,55814,5,0,0:0:0:0:
28,134,55931,2,0,L|84:212,1,95
384,128,56165,5,0,0:0:0:0:
336,212,56282,2,0,P|348:252|392:300,1,95
128,128,56517,5,0,0:0:0:0:
176,212,56634,2,0,P|164:252|120:300,1,95
82,215,56868,5,0,0:0:0:0:
256,164,56985,1,0,0:0:0:0:
431,216,57103,2,0,L|327:212,1,95
82,214,57337,6,0,L|176:212,1,95
384,128,57571,1,0,0:0:0:0:
173,294,57689,2,0,P|220:290|256:260,1,95
338,294,57923,2,0,P|291:290|255:259,1,95
256,164,58157,1,0,0:0:0:0:
416,240,58274,6,0,L|332:300,1,95
256,92,58509,1,0,0:0:0:0:
96,240,58626,2,0,L|180:300,1,95
256,364,58860,1,0,0:0:0:0:
256,364,58978,1,0,0:0:0:0:
256,364,59095,1,0,0:0:0:0:
256,364,59212,6,0,L|256:244,1,95
256,245,59388,1,0,0:0:0:0:
256,221,59446,1,0,0:0:0:0:
316,144,59564,2,0,L|432:144,1,95
196,144,59798,2,0,L|80:144,1,95
316,144,60032,1,0,0:0:0:0:
132,300,60267,5,0,0:0:0:0:
380,300,60384,1,0,0:0:0:0:
256,192,61087,6,0,B|288:268|200:292|260:376,1,190,0|0,0:0|0:0,0:0:0:0:
336,320,61439,1,0,0:0:0:0:
171,232,61556,2,0,L|118:152,2,95,0|0|0,0:0|0:0|0:0,0:0:0:0:
268,40,61907,6,0,B|192:24|192:24|79:66,1,190
36,144,62259,1,0,0:0:0:0:
60,236,62376,1,0,0:0:0:0:
128,300,62493,1,0,0:0:0:0:
220,312,62610,1,0,0:0:0:0:
308,276,62728,1,0,0:0:0:0:
392,320,62845,1,0,0:0:0:0:
304,356,62962,6,0,L|200:300,1,95
172,232,63196,1,0,0:0:0:0:
207,28,63314,2,0,L|311:84,1,95
451,163,63548,2,0,P|412:188|387:243,1,95
60,221,63782,2,0,B|104:204|121:142|121:142|116:48,1,190
116,55,64075,1,0,0:0:0:0:
116,55,64134,2,0,L|207:28,1,95
291,74,64368,1,0,0:0:0:0:
172,232,64485,1,0,0:0:0:0:
208,28,64603,1,0,0:0:0:0:
247,295,64720,6,0,P|337:310|397:241,1,190,0|0,0:0|0:0,0:0:0:0:
193,146,65071,2,0,P|262:206|248:296,1,190,0|0,0:0|0:0,0:0:0:0:
18,220,65423,1,0,0:0:0:0:
18,220,65540,1,0,0:0:0:0:
98,350,65657,2,0,P|158:281|248:296,1,190,0|0,0:0|0:0,0:0:0:0:
193,146,66009,6,0,L|18:220,1,190
18,220,66360,1,0,0:0:0:0:
68,100,66478,1,0,0:0:0:0:
192,145,66595,1,0,0:0:0:0:
152,268,66712,6,0,L|103:172,1,95
68,100,66946,1,0,0:0:0:0:
254,140,67064,6,0,L|205:236,1,95
152,344,67298,1,0,0:0:0:0:
152,344,67532,6,0,L|272:292,1,95
400,202,67767,2,0,L|212:224,1,190
68,100,68118,6,0,L|280:144,1,190
344,108,68470,1,0,0:0:0:0:
222,279,68587,1,0,0:0:0:0:
129,171,68704,2,0,P|103:131|68:100,1,95
152,344,68939,2,0,P|188:320|228:264,1,95
256,192,69173,5,0,0:0:0:0:
292,104,69290,1,0,0:0:0:0:
256,16,69407,1,0,0:0:0:0:
220,104,69524,1,0,0:0:0:0:
256,192,69642,5,0,0:0:0:0:
292,280,69759,1,0,0:0:0:0:
256,368,69876,1,0,0:0:0:0:
220,280,69993,2,0,L|296:92,1,190
180,192,70345,5,0,0:0:0:0:
256,368,70462,1,0,0:0:0:0:
332,192,70579,1,0,0:0:0:0:
256,16,70696,1,0,0:0:0:0:
220,103,70814,2,0,L|292:280,1,190
320,96,71165,2,0,L|368:0,1,95
192,288,71399,2,0,L|148:372,1,95
140,128,71634,1,0,0:0:0:0:
372,256,71751,1,0,0:0:0:0:
256,192,71868,6,0,L|160:192,1,95
104,268,72103,1,0,0:0:0:0:
190,123,72220,2,0,P|226:154|256:192,1,95
256,286,72454,1,0,0:0:0:0:
256,192,72571,2,0,L|256:80,1,95
256,1,72806,1,0,0:0:0:0:
321,123,72923,2,0,P|285:154|256:192,1,95
256,324,73157,1,0,0:0:0:0:
256,192,73274,2,0,L|352:192,1,95
349,309,73509,2,0,P|256:324|144:304,1,190
80,264,73860,5,0,0:0:0:0:
68,168,73978,1,0,0:0:0:0:
24,84,74095,1,0,0:0:0:0:
116,112,74212,1,0,0:0:0:0:
208,140,74329,1,0,0:0:0:0:
304,140,74446,1,0,0:0:0:0:
396,112,74563,1,0,0:0:0:0:
488,84,74681,1,0,0:0:0:0:
444,168,74798,1,0,0:0:0:0:
432,264,74916,1,0,0:0:0:0:
392,348,75032,6,0,L|288:280,1,95
120,348,75266,2,0,L|224:280,1,95,0|0,0:0|0:0,0:0:0:0:
256,48,75501,1,0,0:0:0:0:
256,192,75560,12,0,77376,0:0:0:0:
256,192,82180,5,0,0:0:0:0:
256,192,82297,2,0,L|256:252,2,47.5,0|0|0,0:0|0:0|0:0,0:0:0:0:
256,96,82532,1,0,0:0:0:0:
172,140,82649,5,0,0:0:0:0:
340,140,82766,1,0,0:0:0:0:
352,168,83001,6,0,L|162:168,1,190
184,60,83352,2,0,P|216:32|288:28,1,95
328,324,83587,2,0,P|296:352|224:356,1,95
352,64,83821,2,0,P|380:72|420:128,1,95
260,280,84055,2,0,P|232:272|192:216,1,95
340,140,84290,2,0,L|260:208,1,95
140,304,84524,1,0,0:0:0:0:
48,280,84641,1,0,0:0:0:0:
28,188,84758,1,0,0:0:0:0:
64,100,84876,6,0,B|188:56|188:56|256:96,1,190
120,160,85227,2,0,L|16:192,1,95
392,224,85462,2,0,L|496:192,1,95
340,140,85696,1,0,0:0:0:0:
340,140,85813,1,0,0:0:0:0:
302,251,85930,2,0,B|346:227|410:223,1,95
211,134,86165,2,0,B|167:158|103:162,1,95
140,68,86399,5,0,0:0:0:0:
256,192,86516,1,0,0:0:0:0:
372,316,86633,1,0,0:0:0:0:
295,369,86751,2,0,B|256:312|256:312|256:192,1,190
256,97,87102,6,0,L|256:192,1,95
176,248,87337,1,0,0:0:0:0:
176,248,87454,1,0,0:0:0:0:
80,260,87571,1,0,0:0:0:0:
80,260,87688,1,0,0:0:0:0:
16,192,87805,1,0,0:0:0:0:
16,192,87922,1,0,0:0:0:0:
80,124,88040,1,0,0:0:0:0:
80,124,88157,1,0,0:0:0:0:
178,137,88274,6,0,L|256:192,1,95,0|0,0:0|0:0,0:0:0:0:
296,193,88449,1,0,0:0:0:0:
334,192,88508,1,0,0:0:0:0:
372,192,88566,1,0,0:0:0:0:
410,192,88625,1,0,0:0:0:0:
448,192,88683,1,0,0:0:0:0:
486,192,88743,6,0,B|440:116|440:116|380:100|364:40,1,190
452,20,89094,2,0,L|367:206,1,190
181,192,89446,6,0,B|227:268|227:268|287:284|303:344,1,190
216,364,89797,2,0,L|301:178,1,190
48,128,90149,5,0,0:0:0:0:
144,291,90266,1,0,0:0:0:0:
16,208,90618,6,0,P|101:198|128:104,1,190,0|0,0:0|0:0,0:0:0:0:
64,40,90969,1,0,0:0:0:0:
16,208,91087,2,0,L|8:308,2,95,0|0|0,0:0|0:0|0:0,0:0:0:0:
8,112,91438,2,0,L|216:108,1,190
244,124,91731,1,0,0:0:0:0:
288,148,91790,2,0,L|416:144,1,95
208,232,92024,2,0,L|336:228,1,95
124,312,92258,1,0,0:0:0:0:
148,312,92317,1,0,0:0:0:0:
172,312,92376,1,0,0:0:0:0:
196,312,92434,1,0,0:0:0:0:
220,312,92493,6,0,L|288:308,3,47.5,0|0|0|0,0:0|0:0|0:0|0:0,0:0:0:0:
208,232,92727,2,0,L|176:184,3,47.5,0|0|0|0,0:0|0:0|0:0|0:0,0:0:0:0:
244,124,92962,2,0,L|256:56,3,47.5,0|0|0|0,0:0|0:0|0:0|0:0,0:0:0:0:
208,232,93196,2,0,P|156:236|92:216,1,95
160,70,93430,2,0,P|212:66|276:86,1,95
128,152,93665,1,0,0:0:0:0:
99,137,93723,1,0,0:0:0:0:
78,110,93782,1,0,0:0:0:0:
70,78,93840,1,0,0:0:0:0:
75,45,93899,2,0,L|300:16,1,190
337,144,94251,6,0,L|284:128,9,47.5,0|0|0|0|0|0|0|0|0|0,0:0|0:0|0:0|0:0|0:0|0:0|0:0|0:0|0:0|0:0,0:0:0:0:
404,84,94837,2,0,L|351:68,7,47.5,0|0|0|0|0|0|0|0,0:0|0:0|0:0|0:0|0:0|0:0|0:0|0:0,0:0:0:0:
448,152,95305,6,0,L|500:200,3,47.5,0|0|0|0,0:0|0:0|0:0|0:0,0:0:0:0:
372,212,95540,2,0,L|424:260,3,47.5,0|0|0|0,0:0|0:0|0:0|0:0,0:0:0:0:
296,272,95774,2,0,L|348:320,3,47.5,0|0|0|0,0:0|0:0|0:0|0:0,0:0:0:0:
216,320,96008,1,0,0:0:0:0:
216,320,96126,2,0,L|380:208,1,190
404,84,96477,6,0,L|432:36,3,47.5,0|0|0|0,0:0|0:0|0:0|0:0,0:0:0:0:
108,84,96712,2,0,L|80:36,3,47.5,0|0|0|0,0:0|0:0|0:0|0:0,0:0:0:0:
344,152,96946,2,0,L|396:160,3,47.5,0|0|0|0,0:0|0:0|0:0|0:0,0:0:0:0:
184,172,97180,6,0,L|132:180,1,47.5,0|0,0:0|0:0,0:0:0:0:
320,232,97297,2,0,L|372:268,1,47.5
228,276,97415,2,0,L|192:316,1,47.5
256,376,97532,2,0,L|256:248,1,95
256,104,97766,1,0,0:0:0:0:
256,104,98001,6,0,B|272:96|272:96|284:104|284:104|300:96|300:96|316:104|316:104|332:96|332:96|352:104|352:104|372:96|372:96|388:104|388:104|440:156,1,190,0|0,0:0|0:0,0:0:0:0:
418,229,98352,2,0,B|464:228|464:228|504:192,1,95
464,196,98528,1,0,0:0:0:0:
424,200,98587,1,0,0:0:0:0:
388,204,98645,1,0,0:0:0:0:
348,208,98704,1,0,0:0:0:0:
312,212,98762,1,0,0:0:0:0:
274,219,98821,1,0,0:0:0:0:
274,219,98879,1,0,0:0:0:0:
274,219,98938,6,0,L|354:155,2,95,0|0|0,0:0|0:0|0:0,0:0:0:0:
232,304,99290,2,0,L|136:248,1,95,0|0,0:0|0:0,0:0:0:0:
200,104,99524,1,0,0:0:0:0:
178,112,99583,1,0,0:0:0:0:
156,120,99641,1,0,0:0:0:0:
134,128,99700,1,0,0:0:0:0:
113,136,99758,2,0,L|209:183,1,95
176,188,99934,5,0,0:0:0:0:
154,196,99993,1,0,0:0:0:0:
132,204,100051,1,0,0:0:0:0:
110,212,100110,2,0,L|8:156,1,95
200,104,100344,1,0,0:0:0:0:
200,104,100403,1,0,0:0:0:0:
200,104,100462,2,0,L|283:149,1,95
312,280,100697,2,0,L|228:234,1,95
402,172,100931,6,0,L|504:228,1,95
312,280,101165,1,0,0:0:0:0:
136,272,101282,1,0,0:0:0:0:
25,166,101399,2,0,L|108:120,1,95
130,108,101575,1,0,0:0:0:0:
150,96,101633,1,0,0:0:0:0:
170,84,101692,1,0,0:0:0:0:
190,76,101751,6,0,P|256:56|332:60,1,142.5
396,100,101985,2,0,L|348:132,1,47.5
292,156,102102,2,0,L|224:140,1,47.5
184,120,102219,2,0,L|112:96,1,47.5
64,128,102337,6,0,P|26:185|16:264,1,142.5
60,316,102572,2,0,L|116:295,1,47.5
160,252,102688,2,0,L|224:260,1,47.5
264,300,102805,2,0,L|404:168,1,190
404,192,103098,1,0,0:0:0:0:
404,216,103157,1,0,0:0:0:0:
404,240,103215,1,0,0:0:0:0:
404,264,103274,1,0,0:0:0:0:
404,288,103333,1,0,0:0:0:0:
404,312,103391,1,0,0:0:0:0:
404,336,103450,1,0,0:0:0:0:
404,360,103508,2,0,L|492:280,1,95
464,96,103743,5,0,0:0:0:0:
440,92,103801,1,0,0:0:0:0:
416,88,103860,1,0,0:0:0:0:
392,84,103919,1,0,0:0:0:0:
368,80,103977,2,0,L|274:62,1,95
178,114,104211,5,0,0:0:0:0:
202,110,104270,1,0,0:0:0:0:
226,106,104328,1,0,0:0:0:0:
250,102,104387,1,0,0:0:0:0:
274,98,104445,2,0,L|367:80,1,95
464,96,104680,6,0,L|488:152,1,47.5
448,240,104797,2,0,L|424:184,1,47.5,0|0,0:0|0:0,0:0:0:0:
316,156,104915,2,0,L|340:212,1,47.5
304,328,105032,2,0,L|280:272,1,47.5,0|0,0:0|0:0,0:0:0:0:
208,184,105149,2,0,P|324:274|455:234,1,285
56,48,105618,5,0,0:0:0:0:
96,156,105735,1,0,0:0:0:0:
208,184,105852,1,0,0:0:0:0:
320,164,105969,1,0,0:0:0:0:
72,68,106204,5,0,0:0:0:0:
112,176,106321,1,0,0:0:0:0:
224,204,106438,1,0,0:0:0:0:
336,184,106555,1,0,0:0:0:0:
104,84,106790,5,0,0:0:0:0:
144,192,106907,1,0,0:0:0:0:
256,220,107024,1,0,0:0:0:0:
368,200,107141,2,0,P|320:192|252:196,1,95
204,296,107376,6,0,L|376:196,1,190
388,192,107669,1,0,0:0:0:0:
408,184,107727,2,0,P|424:228|416:296,1,95
296,316,107962,2,0,L|184:292,1,95
72,328,108196,2,0,L|128:320,2,47.5,0|0|0,0:0|0:0|0:0,0:0:0:0:
112,236,108430,2,0,L|16:160,1,95
32,152,108606,1,0,0:0:0:0:
24,128,108665,1,0,0:0:0:0:
20,104,108723,1,0,0:0:0:0:
12,80,108782,2,0,L|176:208,1,190
351,196,109133,1,0,0:0:0:0:
351,196,109368,5,0,0:0:0:0:
364,288,109485,1,0,0:0:0:0:
276,324,109602,1,0,0:0:0:0:
180,316,109720,1,0,0:0:0:0:
384,172,109954,5,0,0:0:0:0:
484,196,110071,1,0,0:0:0:0:
400,256,110187,1,0,0:0:0:0:
300,288,110304,1,0,0:0:0:0:
196,276,110422,1,0,0:0:0:0:
404,136,110657,5,0,0:0:0:0:
512,168,110774,1,0,0:0:0:0:
408,208,110890,1,0,0:0:0:0:
296,208,111007,1,0,0:0:0:0:
184,176,111125,1,0,0:0:0:0:
92,108,111243,2,0,P|136:92|204:84,1,95
404,136,111477,1,0,0:0:0:0:
184,176,111594,5,0,0:0:0:0:
444,28,111829,1,0,0:0:0:0:
148,224,112063,2,0,B|156:140|156:140|200:32,1,190
325,161,112415,2,0,L|225:201,1,95
112,313,112649,1,0,0:0:0:0:
157,324,112707,1,0,0:0:0:0:
204,313,112766,1,0,0:0:0:0:
239,283,112824,1,0,0:0:0:0:
258,240,112883,2,0,L|225:175,1,47.5
222,117,113001,2,0,L|166:81,1,47.5
112,40,113118,5,0,0:0:0:0:
64,172,113235,1,0,0:0:0:0:
180,92,113352,1,0,0:0:0:0:
36,92,113469,1,0,0:0:0:0:
155,262,113704,5,0,2:0:0:0:
291,226,113821,1,0,2:0:0:0:
160,180,113938,1,0,2:0:0:0:
240,295,114055,1,0,2:0:0:0:
294,69,114290,5,0,2:0:0:0:
388,172,114407,1,0,2:0:0:0:
250,144,114524,1,0,2:0:0:0:
388,84,114641,2,0,L|292:68,1,95
69,148,114876,6,0,P|141:170|265:134,1,190,0|0,0:0|0:0,0:0:0:0:
236,124,115169,1,0,0:0:0:0:
220,104,115227,2,0,L|112:56,1,95
36,68,115462,1,0,0:0:0:0:
240,228,115579,2,0,L|288:252,2,47.5,0|0|0,0:0|0:0|0:0,0:0:0:0:
68,148,115813,1,0,0:0:0:0:
128,240,115930,5,0,0:0:0:0:
256,80,116047,1,0,0:0:0:0:
256,328,116165,1,0,0:0:0:0:
384,240,116282,2,0,B|404:176|404:176|376:56,1,190
312,172,116633,1,0,0:0:0:0:
340,360,116751,1,0,0:0:0:0:
440,204,116868,6,0,L|392:0,1,190
440,204,117219,1,0,0:0:0:0:
384,272,117571,6,0,L|336:68,1,190
384,272,117922,1,0,0:0:0:0:
256,132,118274,6,0,L|256:240,1,95
72,204,118508,6,0,L|120:0,1,190
72,204,118859,1,0,0:0:0:0:
128,272,119212,6,0,L|176:68,1,190
128,272,119563,1,0,0:0:0:0:
256,133,119915,6,0,L|256:228,1,95
256,324,120149,6,0,B|124:360|124:360|64:332,1,190
256,324,120501,1,0,0:0:0:0:
256,324,120852,6,0,B|388:288|388:288|448:316,1,190
256,324,121204,1,0,0:0:0:0:
256,133,121555,6,0,L|256:228,1,95
168,168,121790,6,0,B|160:160|160:160|152:172|152:172|140:160|140:160|128:172|128:172|116:160|116:160|104:172|104:172|96:160|96:160|52:196|96:268,1,190,0|0,0:0|0:0,0:0:0:0:
168,168,122141,1,0,0:0:0:0:
344,168,122493,2,0,B|352:160|352:160|360:172|360:172|372:160|372:160|384:172|384:172|396:160|396:160|408:172|408:172|416:160|416:160|460:196|416:268,1,190,0|0,0:0|0:0,0:0:0:0:
344,168,122844,1,0,0:0:0:0:
180,312,123196,6,0,B|240:248|240:248|240:136,1,190
180,312,123547,1,0,0:0:0:0:
332,312,123899,6,0,B|272:248|272:248|272:145,1,190
332,312,124250,1,0,0:0:0:0:
208,56,124602,6,0,L|320:56,1,95
448,200,124837,6,0,B|352:180|352:180|336:128|400:80,1,190,0|0,0:0|0:0,0:0:0:0:
448,200,125188,1,0,0:0:0:0:
64,184,125540,6,0,B|160:204|160:204|176:256|112:304,1,190,0|0,0:0|0:0,0:0:0:0:
64,184,125891,1,0,0:0:0:0:
209,328,126243,6,0,L|304:328,1,95
296,98,126477,6,0,B|296:192|296:192|256:280,1,190
296,98,126829,1,0,0:0:0:0:
256,280,127180,6,0,B|216:192|216:192|216:98,1,190
256,280,127532,1,0,0:0:0:0:
400,288,127766,5,0,0:0:0:0:
400,288,127825,2,0,B|468:252|468:252|371:193,1,190,0|0,0:0|0:0,0:0:0:0:
336,256,128118,6,0,B|256:308|256:308|161:247,1,190
300,104,128469,2,0,B|256:164|256:164|256:288,1,190
140,193,128821,2,0,B|44:252|44:252|112:288,1,190,0|0,0:0|0:0,0:0:0:0:
176,256,129114,2,0,B|256:308|256:308|351:247,1,190
371,193,129407,2,0,B|468:252|468:252|400:288,1,190,0|0,0:0|0:0,0:0:0:0:
208,256,129758,6,0,B|255:262|255:262|302:255,1,95,0|0,0:0|0:0,0:0:0:0:
256,216,129993,6,0,B|260:208|260:208|248:196|248:196|264:176|264:176|248:160|248:160|276:136|276:136|252:84|252:84|304:36|304:36|240:-36|172:24,1,380
116,192,143587,5,0,0:0:0:0:
32,148,143704,1,0,0:0:0:0:
24,192,143762,1,0,0:0:0:0:
32,236,143821,2,0,L|120:192,1,95
211,193,144055,5,0,0:0:0:0:
305,193,144172,1,0,0:0:0:0:
400,193,144290,1,0,0:0:0:0:
494,193,144407,1,0,0:0:0:0:
494,193,144993,6,0,L|344:248,1,142.5
352,324,145227,2,0,L|464:284,1,95
400,192,145462,1,0,0:0:0:0:
296,312,145579,2,0,L|408:272,2,95,0|0|0,0:0|0:0|0:0,0:0:0:0:
208,244,145930,2,0,B|188:172|188:172|208:100|255:85,1,190
304,244,146282,2,0,B|324:172|324:172|304:100|253:84,1,190
256,300,146633,2,0,L|256:184,1,95,0|0,0:0|0:0,0:0:0:0:
18,193,146868,6,0,L|168:248,1,142.5
160,324,147102,2,0,L|48:284,1,95
112,192,147337,1,0,0:0:0:0:
216,312,147454,2,0,L|104:272,2,95,0|0|0,0:0|0:0|0:0,0:0:0:0:
208,80,147805,6,0,L|312:252,1,190
304,80,148157,2,0,L|200:252,1,190
152,152,148508,1,0,0:0:0:0:
360,152,148626,1,0,0:0:0:0:
152,152,148743,6,0,B|40:168|40:168|119:194,1,190
360,152,149212,1,0,0:0:0:0:
360,152,149329,2,0,B|472:168|472:168|393:194,1,190
62,329,149680,2,0,P|10:253|42:168,1,190
469,168,150032,2,0,P|501:253|450:329,1,190
312,256,150383,2,0,L|440:240,1,95
200,256,150618,6,0,L|72:240,2,95,0|0|0,0:0|0:0|0:0,0:0:0:0:
200,256,151087,2,0,L|136:152,2,95,0|0|0,0:0|0:0|0:0,0:0:0:0:
200,256,151438,1,0,0:0:0:0:
200,256,151555,2,0,L|256:74,1,190
255,74,151907,2,0,L|312:256,1,190
256,332,152258,1,0,0:0:0:0:
168,368,152376,1,0,0:0:0:0:
76,352,152493,6,0,B|84:336|84:336|68:308|68:308|88:280|88:280|44:248|44:248|88:180|72:124,1,253.333333333333
68,84,152883,5,0,0:0:0:0:
106,41,152961,1,0,0:0:0:0:
163,41,153039,1,0,0:0:0:0:
201,84,153117,1,0,0:0:0:0:
195,140,153195,1,0,0:0:0:0:
183,199,153273,5,0,0:0:0:0:
196,255,153351,1,0,0:0:0:0:
244,289,153429,1,0,0:0:0:0:
301,283,153507,1,0,0:0:0:0:
341,241,153585,1,0,0:0:0:0:
340,184,153665,2,0,P|324:128|332:80,1,95
416,44,153899,1,0,0:0:0:0:
416,44,154016,1,0,0:0:0:0:
416,44,154133,1,0,0:0:0:0:
416,44,154251,1,0,0:0:0:0:
416,44,154368,6,0,L|255:145,1,190
96,44,154719,2,0,L|256:145,1,190
433,156,155071,2,0,B|393:124|393:124|241:148,1,190
79,156,155422,2,0,B|119:124|119:124|271:148,1,190
16,88,155774,1,0,0:0:0:0:
144,216,155891,1,0,0:0:0:0:
295,61,156008,2,0,L|256:148,1,95
309,310,156243,6,0,L|133:210,1,190
368,216,156594,2,0,L|203:310,1,190
332,148,156946,2,0,P|404:188|540:172,1,190,0|0,0:0|0:0,0:0:0:0:
180,148,157297,2,0,P|108:188|-28:172,1,190,0|0,0:0|0:0,0:0:0:0:
396,104,157649,1,0,0:0:0:0:
116,104,157767,1,0,0:0:0:0:
256,256,158118,5,0,0:0:0:0:
96,352,158352,5,0,0:0:0:0:
96,352,158587,1,0,0:0:0:0:
156,280,158704,2,0,L|48:288,1,95
24,200,158938,1,0,0:0:0:0:
216,200,159055,2,0,L|121:207,1,95
80,120,159290,1,0,0:0:0:0:
268,124,159407,2,0,L|160:132,1,95
136,44,159641,1,0,0:0:0:0:
320,44,159758,2,0,L|212:52,1,95
39,45,159993,6,0,B|157:65|157:65|235:49,1,190,0|0,0:0|0:0,0:0:0:0:
112,205,160344,2,0,P|84:161|84:105,1,95
280,192,160579,1,0,0:0:0:0:
280,192,160696,2,0,L|180:256,1,95
212,336,160930,2,0,P|250:362|297:367,1,95
300,48,161165,2,0,P|261:21|214:16,1,95
40,44,161399,5,0,0:0:0:0:
40,232,161516,1,0,0:0:0:0:
40,138,161633,1,0,0:0:0:0:
40,326,161750,1,0,0:0:0:0:
84,240,161868,6,0,B|148:192|148:192|264:192,1,190
432,144,162219,2,0,B|368:192|368:192|258:192,1,190
352,100,162571,2,0,L|436:48,1,95
160,284,162805,6,0,L|76:336,2,95,0|0|0,0:0|0:0|0:0,0:0:0:0:
160,100,163157,2,0,L|76:48,2,95,0|0|0,0:0|0:0|0:0,0:0:0:0:
180,112,163450,1,0,0:0:0:0:
200,124,163508,1,0,0:0:0:0:
296,112,163626,1,0,0:0:0:0:
351,25,163743,5,0,0:0:0:0:
284,352,163860,5,0,0:0:0:0:
216,38,164094,5,0,0:0:0:0:
148,339,164329,5,0,0:0:0:0:
80,48,164563,6,0,L|288:108,1,190
292,140,164856,1,0,0:0:0:0:
324,176,164915,2,0,L|200:140,1,95
140,144,165149,5,0,0:0:0:0:
356,92,165266,1,0,0:0:0:0:
48,168,165383,1,0,0:0:0:0:
300,252,165501,1,0,0:0:0:0:
136,320,165618,6,0,P|64:256|48:168,1,190
80,48,165969,1,0,0:0:0:0:
140,144,166087,2,0,L|240:76,1,95
432,48,166321,1,0,0:0:0:0:
372,144,166438,2,0,L|272:76,2,95,0|0|0,0:0|0:0|0:0,0:0:0:0:
440,212,166790,6,0,L|400:280,2,63.3333333333333,0|0|0,0:0|0:0|0:0,0:0:0:0:
328,236,167024,2,0,L|304:308,2,63.3333333333333,0|0|0,0:0|0:0|0:0,0:0:0:0:
212,260,167258,2,0,L|204:364,1,95
264,164,167493,5,0,0:0:0:0:
128,304,167610,1,0,0:0:0:0:
180,180,167727,2,0,P|184:128|224:80,1,95
304,84,167962,1,0,0:0:0:0:
108,228,168079,1,0,0:0:0:0:
264,164,168196,5,0,0:0:0:0:
104,140,168313,2,0,L|288:244,1,190
292,244,168606,1,0,0:0:0:0:
312,256,168665,2,0,P|298:302|258:338,1,95
168,72,168899,5,0,0:0:0:0:
256,40,169016,1,0,0:0:0:0:
344,72,169133,1,0,0:0:0:0:
256,108,169251,1,0,0:0:0:0:
168,72,169368,6,0,L|240:72,1,47.5
344,72,169485,2,0,L|272:72,1,47.5
256,144,169602,1,0,0:0:0:0:
256,144,169719,2,0,L|256:280,1,95
432,144,169954,2,0,L|296:144,1,95
65,144,170188,6,0,L|256:144,1,190
324,212,170540,1,0,0:0:0:0:
348,236,170618,2,0,P|376:276|376:324,1,63.3333333333333,0|0,0:0|0:0,0:0:0:0:
188,212,170774,1,0,0:0:0:0:
164,236,170852,2,0,P|136:276|136:324,1,63.3333333333333,0|0,0:0|0:0,0:0:0:0:
256,296,171008,2,0,L|256:360,2,63.3333333333333,0|0|0,0:0|0:0|0:0,0:0:0:0:
256,296,171243,6,0,L|256:176,1,95
256,187,171419,1,0,0:0:0:0:
256,172,171477,1,0,0:0:0:0:
256,157,171536,1,0,0:0:0:0:
256,142,171594,2,0,L|200:48,1,95
234,60,171770,1,0,0:0:0:0:
255,60,171828,1,0,0:0:0:0:
276,60,171887,1,0,0:0:0:0:
302,59,171946,2,0,L|256:142,1,95
158,168,172180,6,0,L|378:168,1,190
254,0,172532,1,0,0:0:0:0:
122,100,172649,2,0,P|90:132|78:180,2,95,0|0|0,0:0|0:0|0:0,0:0:0:0:
348,168,173001,6,0,L|158:168,1,190
120,256,173352,1,0,0:0:0:0:
209,296,173469,1,0,0:0:0:0:
304,296,173587,1,0,0:0:0:0:
392,256,173704,1,0,0:0:0:0:
332,328,173821,1,0,0:0:0:0:
256,384,173938,1,0,0:0:0:0:
180,328,174055,6,0,L|254:269,1,95
392,256,174290,1,0,0:0:0:0:
120,256,174407,2,0,L|24:328,1,95
120,100,174641,2,0,P|156:140|168:208,1,95
308,72,174876,2,0,L|120:100,1,190
96,104,175169,1,0,0:0:0:0:
72,108,175227,2,0,L|136:32,1,95
253,162,175462,1,0,0:0:0:0:
36,16,175579,2,0,L|-20:72,2,47.5,0|0|0,0:0|0:0|0:0,0:0:0:0:
253,162,175813,6,0,L|72:108,1,190
118,284,176165,2,0,P|169:206|253:162,1,190
184,56,176516,1,0,0:0:0:0:
312,252,176633,1,0,0:0:0:0:
71,107,176751,2,0,P|116:190|118:284,1,190
44,344,177102,2,0,L|208:199,1,190
256,144,177454,1,0,0:0:0:0:
256,238,177571,1,0,0:0:0:0:
256,60,177688,1,0,0:0:0:0:
256,324,177805,6,0,L|320:248,1,95
297,230,177981,1,0,0:0:0:0:
276,211,178039,1,0,0:0:0:0:
254,191,178098,1,0,0:0:0:0:
233,172,178156,1,0,0:0:0:0:
212,152,178215,1,0,0:0:0:0:
194,132,178274,6,0,L|257:59,1,95,0|0,0:0|0:0,0:0:0:0:
352,60,178508,1,0,0:0:0:0:
352,60,178626,2,0,L|256:60,1,95
164,324,178861,2,0,B|260:324|260:324|320:252,1,190
352,60,179212,6,0,B|255:60|255:60|195:132,1,190
84,252,179563,1,0,0:0:0:0:
112,88,179680,1,0,0:0:0:0:
164,324,179797,2,0,P|100:352|56:348,1,95
184,224,180032,2,0,B|260:320|260:320|340:348,1,190,0|0,0:0|0:0,0:0:0:0:
416,320,180383,1,0,0:0:0:0:
464,236,180501,1,0,0:0:0:0:
456,141,180618,1,0,0:0:0:0:
365,110,180735,1,0,2:0:0:0:
297,39,180852,2,0,P|348:44|397:66,1,95,0|0,0:0|0:0,2:0:0:0:
456,141,181087,6,0,L|291:35,1,190,0|0,0:0|0:0,2:0:0:0:
227,100,181438,1,0,0:0:0:0:
285,283,181555,1,0,0:0:0:0:
256,192,181672,1,0,0:0:0:0:
215,345,181790,1,0,0:0:0:0:
215,345,181907,2,0,P|163:339|76:236,1,190,0|0,0:0|0:0,2:0:0:0:
256,192,182258,2,0,L|284:101,1,95
284,282,182493,2,0,L|256:192,1,95
163,167,182727,1,0,2:0:0:0:
348,216,182844,1,0,2:0:0:0:
148,144,182962,5,0,0:0:0:0:
216,80,183079,1,0,0:0:0:0:
124,52,183196,1,0,0:0:0:0:
148,144,183313,5,0,2:0:0:0:
234,108,183430,1,0,2:0:0:0:
158,49,183547,1,0,2:0:0:0:
148,144,183665,5,0,0:0:0:0:
240,133,183782,1,0,0:0:0:0:
184,55,183899,1,0,0:0:0:0:
232,200,184016,1,0,0:0:0:0:
348,216,184133,2,0,L|452:156,1,95
212,184,184368,2,0,L|288:276,1,95
348,316,184602,1,0,0:0:0:0:
320,340,184661,1,0,0:0:0:0:
284,348,184719,1,0,0:0:0:0:
248,344,184778,1,0,0:0:0:0:
212,328,184837,6,0,L|280:248,1,95
332,112,185071,1,0,0:0:0:0:
416,152,185188,1,0,0:0:0:0:
504,192,185305,1,0,0:0:0:0:
416,232,185422,1,0,0:0:0:0:
332,272,185540,1,0,0:0:0:0:
246,70,185657,6,0,L|332:112,1,95
332,272,185891,2,0,L|246:313,1,95
162,30,186126,6,0,L|247:71,1,95
247,312,186360,2,0,L|162:354,1,95
68,19,186594,6,0,L|173:32,1,95
352,188,186829,1,0,0:0:0:0:
162,353,186946,2,0,L|68:365,1,95
32,156,187180,5,0,0:0:0:0:
100,80,187297,1,0,0:0:0:0:
115,190,187415,1,0,0:0:0:0:
36,8,187532,1,0,0:0:0:0:
156,268,187649,5,0,0:0:0:0:
100,80,187766,1,0,0:0:0:0:
68,365,187883,1,0,0:0:0:0:
116,192,188001,2,0,B|152:168|152:168|292:260,1,190
492,208,188352,5,0,0:0:0:0:
412,80,188469,1,0,0:0:0:0:
428,280,188587,1,0,0:0:0:0:
476,8,188704,1,0,0:0:0:0:
350,353,188821,5,0,0:0:0:0:
412,80,188938,1,0,0:0:0:0:
396,192,189055,6,0,B|360:216|360:216|220:124,1,190
180,60,189407,1,0,0:0:0:0:
332,60,189524,1,0,0:0:0:0:
256,328,189641,1,0,0:0:0:0:
256,328,189758,1,0,0:0:0:0:
274,135,189876,6,0,B|152:216|152:216|116:192,1,190
256,244,190227,2,0,L|344:184,1,95
68,88,190462,2,0,P|124:104|156:132,1,95
136,324,190696,1,0,0:0:0:0:
68,88,190813,6,0,B|116:168|116:168|168:192|180:248,1,190,0|0,0:0|0:0,0:0:0:0:
180,60,191165,1,0,0:0:0:0:
76,260,191282,2,0,B|156:204|156:204|220:112,1,190
444,88,191633,5,0,0:0:0:0:
444,88,191751,2,0,B|396:168|396:168|344:192|332:248,1,190,0|0,0:0|0:0,0:0:0:0:
436,260,192102,2,0,B|356:204|356:204|292:112,1,190
444,88,192454,1,0,0:0:0:0:
436,260,192571,6,0,P|408:304|360:328,1,95
348,324,192747,1,0,0:0:0:0:
324,320,192805,2,0,P|280:304|216:308,1,95
208,304,192981,1,0,0:0:0:0:
184,308,193040,2,0,L|264:244,1,95
304,128,193274,1,0,0:0:0:0:
152,212,193391,2,0,L|72:276,1,95
77,271,193626,6,0,L|184:112,1,190
238,172,193977,1,0,0:0:0:0:
32,196,194094,1,0,0:0:0:0:
314,229,194212,1,0,0:0:0:0:
314,229,194446,6,0,L|218:157,1,95
216,160,194622,1,0,0:0:0:0:
200,144,194680,2,0,P|180:104|192:44,2,95,0|0|0,0:0|0:0|0:0,0:0:0:0:
355,260,195032,6,0,P|374:193|313:228,1,178.12500679493
265,290,195383,6,0,P|371:321|313:228,1,285.000010871888
220,228,195735,1,0,0:0:0:0:
128,360,195852,1,0,0:0:0:0:
185,57,195969,1,0,0:0:0:0:
148,188,196087,6,0,L|184:288,1,95
212,368,196321,1,0,0:0:0:0:
354,259,196438,2,0,P|307:268|266:291,1,95,0|0,0:0|0:0,0:0:0:0:
440,300,196672,1,0,0:0:0:0:
440,300,196907,6,0,P|356:224|344:124,1,190,0|0,0:0|0:0,0:0:0:0:
360,136,197200,1,0,0:0:0:0:
380,120,197258,2,0,L|276:104,1,95
148,188,197493,1,0,0:0:0:0:
216,72,197610,1,0,0:0:0:0:
256,284,197727,1,0,0:0:0:0:
104,52,197844,1,0,0:0:0:0:
80,320,197962,6,0,L|184:260,1,95
152,112,198196,1,0,0:0:0:0:
163,272,198313,2,0,P|208:285|256:284,1,95
256,152,198547,1,0,0:0:0:0:
256,284,198665,2,0,P|303:285|348:272,1,95
360,112,198899,1,0,0:0:0:0:
349,272,199016,2,0,L|432:320,1,95
512,224,199251,1,0,0:0:0:0:
304,168,199368,2,0,L|196:168,1,95
0,224,199602,2,0,P|89:210|168:284,1,190
68,292,199954,5,0,0:0:0:0:
0,224,200071,1,0,0:0:0:0:
84,180,200188,1,0,0:0:0:0:
168,136,200305,1,0,0:0:0:0:
256,96,200422,1,0,0:0:0:0:
344,136,200539,1,0,0:0:0:0:
428,180,200656,1,0,0:0:0:0:
512,224,200773,1,0,0:0:0:0:
444,292,200891,1,0,0:0:0:0:
350,269,201008,1,0,0:0:0:0:
304,352,201126,6,0,P|266:323|220:309,1,95
304,31,201360,2,0,P|266:60|220:74,1,95
0,192,201594,1,0,0:0:0:0:
256,192,201653,12,0,203469,0:0:0:0:
