osu file format v14

[General]
AudioFilename: Identic Conflict Full Version1.mp3
AudioLeadIn: 0
PreviewTime: 96474
Countdown: 0
SampleSet: Soft
StackLeniency: 0.7
Mode: 3
LetterboxInBreaks: 0
SpecialStyle: 0
WidescreenStoryboard: 0

[Editor]
DistanceSpacing: 0.9
BeatDivisor: 4
GridSize: 4
TimelineZoom: 1.3

[Metadata]
Title:Identic Conflict
TitleUnicode:Identic Conflict
Artist:bbn
ArtistUnicode:bbn
Creator:pporse
Version:Birdcage
Source:Oblivious Garden ~Carmina Burana
Tags:corypheesoft evening primrose marathon
BeatmapID:568463
BeatmapSetID:246853

[Difficulty]
HPDrainRate:8.5
CircleSize:7
OverallDifficulty:8
ApproachRate:5
SliderMultiplier:1.4
SliderTickRate:1

[Events]
//Background and Video events
0,0,"1232.jpg",0,0
//Break Periods
//Storyboard Layer 0 (Background)
//Storyboard Layer 1 (Fail)
//Storyboard Layer 2 (Pass)
//Storyboard Layer 3 (Foreground)
//Storyboard Sound Samples

[TimingPoints]
2769,337.078651685393,4,1,1,30,1,0
24677,337.078651685393,4,2,1,30,1,0
46250,-100,4,1,1,30,0,0
73553,337.078651685393,4,2,1,30,1,0
93778,-100,4,1,1,30,0,0
96474,-100,4,2,1,30,0,1
115351,-100,4,1,1,30,0,1
118047,-100,4,2,1,30,0,0
139957,337.078651685393,4,2,1,30,1,0
163215,337.078651685393,4,2,1,30,1,0
184789,-100,4,1,1,30,0,0
209731,-125,4,1,1,30,0,0
210743,337.078651685393,4,1,1,30,1,0
210743,-125,4,1,1,30,0,0
226922,-117.647058823529,4,1,1,30,0,0
228271,-111.111111111111,4,1,1,30,0,0
229619,-105.263157894737,4,1,1,30,0,0
232316,-100,4,1,1,30,0,0
255237,-100,4,2,1,30,0,1
271418,-100,4,1,1,30,0,1
276810,-100,4,1,1,30,0,0
287596,-100,4,2,1,30,0,1
298383,-100,4,1,1,30,0,0
321641,337.078651685393,4,1,1,30,1,0

[HitObjects]
36,192,2769,5,4,0:0:0:0:
475,192,2769,1,4,0:0:0:0:
109,192,2769,1,0,0:0:0:0:
402,192,2769,1,2,2:0:0:0:
256,192,2769,1,0,0:0:0:0:
402,192,4117,1,2,2:0:0:0:
329,192,4117,1,0,0:0:0:0:
256,192,5465,1,2,2:0:0:0:
182,192,5465,1,0,0:0:0:0:
182,192,6813,1,2,2:0:0:0:
109,192,6813,1,0,0:0:0:0:
402,192,7656,1,0,0:0:0:0:
402,192,7993,1,0,0:0:0:0:
402,192,8162,1,0,0:0:0:0:
256,192,8162,1,2,2:0:0:0:
109,192,8162,1,0,0:0:0:0:
182,192,9510,1,2,2:0:0:0:
36,192,9510,1,0,0:0:0:0:
256,192,10858,1,0,0:0:0:0:
402,192,10858,1,2,2:0:0:0:
329,192,12207,1,0,0:0:0:0:
475,192,12207,1,2,2:0:0:0:
36,192,12207,1,0,0:0:0:8:normal-hitnormal.wav
109,192,12291,1,0,0:0:0:10:normal-hitnormal.wav
182,192,12375,1,0,0:0:0:12:normal-hitnormal.wav
256,192,12460,1,0,0:0:0:14:normal-hitnormal.wav
329,192,12544,1,0,0:0:0:16:normal-hitnormal.wav
402,192,12628,1,0,0:0:0:18:normal-hitnormal.wav
475,192,12712,1,0,0:0:0:20:normal-hitnormal.wav
36,192,12797,1,0,0:0:0:22:normal-hitnormal.wav
109,192,12881,1,0,0:0:0:24:normal-hitnormal.wav
182,192,12965,1,0,0:0:0:26:normal-hitnormal.wav
256,192,13049,1,0,0:0:0:28:normal-hitnormal.wav
329,192,13134,1,0,0:0:0:30:normal-hitnormal.wav
402,192,13218,1,0,0:0:0:32:normal-hitnormal.wav
475,192,13302,1,0,0:0:0:34:normal-hitnormal.wav
36,192,13386,1,0,0:0:0:36:normal-hitnormal.wav
109,192,13471,1,0,0:0:0:38:normal-hitnormal.wav
182,192,13555,1,0,0:0:0:0:
475,192,13555,1,4,0:0:0:0:
329,192,13555,128,2,14903:2:0:0:0:
402,192,13555,1,0,0:0:0:0:
182,192,13892,1,0,0:0:0:0:
182,192,14229,1,0,0:0:0:0:
475,192,14229,128,2,14903:2:0:0:0:
182,192,14566,1,0,0:0:0:0:
256,192,14903,1,0,0:0:0:0:
36,192,14903,128,2,16252:2:0:0:0:
256,192,15240,1,0,0:0:0:0:
256,192,15577,1,0,0:0:0:0:
402,192,15577,128,2,16252:2:0:0:0:
256,192,15915,1,0,0:0:0:0:
475,192,16252,1,0,0:0:0:0:
256,192,16252,128,2,17600:2:0:0:0:
475,192,16589,1,0,0:0:0:0:
475,192,16926,1,0,0:0:0:0:
109,192,16926,128,2,17600:2:0:0:0:
475,192,17263,1,0,0:0:0:0:
402,192,17600,128,2,18948:2:0:0:0:
182,192,17600,1,0,0:0:0:0:
182,192,17937,1,0,0:0:0:0:
329,192,18274,128,2,18948:2:0:0:0:
182,192,18274,1,0,0:0:0:0:
109,192,18443,1,0,0:0:0:0:
109,192,18780,1,0,0:0:0:0:
182,192,18948,1,4,0:0:0:0:
36,192,18948,1,0,0:0:0:0:
256,192,18948,128,2,20297:2:0:0:0:
36,192,19285,1,0,0:0:0:0:
36,192,19622,1,0,0:0:0:0:
329,192,19622,128,2,20297:2:0:0:0:
36,192,19960,1,0,0:0:0:0:
475,192,20297,1,0,0:0:0:0:
182,192,20297,128,2,21645:2:0:0:0:
36,192,20297,1,4,0:0:0:0:
475,192,20634,1,0,0:0:0:0:
475,192,20971,1,0,0:0:0:0:
329,192,20971,128,2,21645:2:0:0:0:
475,192,21308,1,0,0:0:0:0:
475,192,21645,1,4,0:0:0:0:
109,192,21645,1,0,0:0:0:0:
256,192,21645,128,2,22993:2:0:0:0:
109,192,21982,1,0,0:0:0:0:
109,192,22319,1,0,0:0:0:0:
402,192,22319,128,2,22993:2:0:0:0:
109,192,22656,1,0,0:0:0:0:
36,192,22993,128,2,24342:2:0:0:0:
475,192,22993,1,0,0:0:0:8:normal-hitnormal.wav
329,192,23077,1,0,0:0:0:10:normal-hitnormal.wav
475,192,23162,1,0,0:0:0:12:normal-hitnormal.wav
329,192,23246,1,0,0:0:0:14:normal-hitnormal.wav
182,192,23330,1,0,0:0:0:16:normal-hitnormal.wav
329,192,23415,1,0,0:0:0:18:normal-hitnormal.wav
182,192,23499,1,0,0:0:0:20:normal-hitnormal.wav
329,192,23583,1,0,0:0:0:22:normal-hitnormal.wav
109,192,23667,1,0,0:0:0:24:normal-hitnormal.wav
256,192,23752,1,0,0:0:0:26:normal-hitnormal.wav
402,192,23836,1,0,0:0:0:28:normal-hitnormal.wav
256,192,23920,1,0,0:0:0:30:normal-hitnormal.wav
402,192,24004,1,0,0:0:0:0:
182,192,24004,1,0,0:0:0:32:normal-hitnormal.wav
109,192,24089,1,0,0:0:0:34:normal-hitnormal.wav
329,192,24089,1,0,0:0:0:0:
475,192,24173,1,0,0:0:0:0:
256,192,24173,1,0,0:0:0:36:normal-hitnormal.wav
182,192,24257,1,0,0:0:0:38:normal-hitnormal.wav
402,192,24257,1,0,0:0:0:0:
329,192,24677,1,0,0:0:0:0:
109,192,24677,1,0,1:0:0:0:
475,192,24677,1,4,0:0:0:0:
36,192,24677,1,4,1:0:0:0:
402,192,24761,1,0,0:0:0:0:
256,192,24845,1,0,0:0:0:0:
402,192,24929,1,0,0:0:0:0:
109,192,25014,1,0,0:0:0:0:
36,192,25014,1,8,1:0:0:0:
329,192,25098,1,0,0:0:0:0:
182,192,25182,1,0,0:0:0:0:
329,192,25266,1,0,0:0:0:0:
36,192,25351,1,0,0:0:0:0:
256,192,25435,1,0,0:0:0:0:
109,192,25519,1,0,0:0:0:0:
329,192,25603,1,0,0:0:0:0:
182,192,25688,1,0,0:0:0:0:
36,192,25688,1,8,1:0:0:0:
402,192,25772,1,0,0:0:0:0:
256,192,25856,1,0,0:0:0:0:
402,192,25941,1,0,0:0:0:0:
475,192,26025,1,0,0:0:0:0:
109,192,26109,1,0,0:0:0:0:
329,192,26193,1,0,0:0:0:0:
182,192,26278,1,0,0:0:0:0:
402,192,26362,1,8,1:0:0:0:
475,192,26362,1,0,0:0:0:0:
109,192,26446,1,0,0:0:0:0:
329,192,26530,1,0,0:0:0:0:
182,192,26615,1,0,0:0:0:0:
475,192,26699,1,0,0:0:0:0:
109,192,26783,1,0,0:0:0:0:
329,192,26868,1,0,0:0:0:0:
182,192,26952,1,0,0:0:0:0:
402,192,27036,1,8,1:0:0:0:
475,192,27036,1,0,0:0:0:0:
109,192,27120,1,0,0:0:0:0:
329,192,27205,1,0,0:0:0:0:
182,192,27289,1,0,0:0:0:0:
475,192,27373,1,0,0:0:0:0:
256,192,27457,1,0,0:0:0:0:
402,192,27542,1,0,0:0:0:0:
182,192,27626,1,0,0:0:0:0:
36,192,27710,1,8,1:0:0:0:
402,192,27710,1,0,0:0:0:0:
182,192,27794,1,0,0:0:0:0:
329,192,27879,1,0,0:0:0:0:
109,192,27963,1,0,0:0:0:0:
475,192,28047,1,0,0:0:0:0:
256,192,28132,1,0,0:0:0:0:
402,192,28216,1,0,0:0:0:0:
182,192,28300,1,0,0:0:0:0:
36,192,28384,1,8,1:0:0:0:
329,192,28384,1,0,0:0:0:0:
182,192,28469,1,0,0:0:0:0:
402,192,28553,1,0,0:0:0:0:
109,192,28637,1,0,0:0:0:0:
402,192,28721,128,0,29227:0:0:0:0:
475,192,28721,128,8,29227:0:0:0:0:
109,192,28890,128,8,29227:0:0:0:0:
36,192,28890,128,0,29227:0:0:0:0:
182,192,29059,1,8,1:0:0:0:
329,192,29059,1,0,0:0:0:0:
256,192,29227,1,0,0:0:0:0:
329,192,29311,1,0,0:0:0:0:
109,192,29396,1,0,0:0:0:0:
182,192,29480,1,0,0:0:0:0:
256,192,29564,1,0,0:0:0:0:
329,192,29648,1,0,0:0:0:0:
36,192,29733,1,8,1:0:0:0:
182,192,29733,1,0,0:0:0:0:
256,192,29817,1,0,0:0:0:0:
329,192,29901,1,0,0:0:0:0:
402,192,29985,1,0,0:0:0:0:
36,192,30070,1,0,0:0:0:0:
475,192,30070,1,8,0:0:0:0:
402,192,30196,1,8,0:0:0:0:
109,192,30196,1,0,0:0:0:0:
182,192,30238,1,0,0:0:0:0:
329,192,30238,1,8,0:0:0:0:
256,192,30407,1,8,1:0:0:0:
36,192,30407,1,0,0:0:0:0:
475,192,30407,1,8,0:0:0:0:
329,192,30533,1,8,0:0:0:0:
182,192,30533,1,0,0:0:0:0:
109,192,30575,1,0,0:0:0:0:
402,192,30575,1,8,0:0:0:0:
182,192,30744,1,0,0:0:0:0:
329,192,30744,1,8,0:0:0:0:
402,192,30870,1,8,0:0:0:0:
109,192,30870,1,0,0:0:0:0:
182,192,30912,1,0,0:0:0:0:
329,192,30912,1,8,0:0:0:0:
256,192,31081,1,8,1:0:0:0:
36,192,31081,1,0,0:0:0:0:
475,192,31081,1,8,0:0:0:0:
109,192,31207,1,0,0:0:0:0:
402,192,31207,1,8,0:0:0:0:
182,192,31250,1,0,0:0:0:0:
329,192,31250,1,8,0:0:0:0:
256,192,31418,1,0,0:0:0:0:
182,192,31502,1,0,0:0:0:0:
109,192,31587,1,0,0:0:0:0:
182,192,31671,1,0,0:0:0:0:
329,192,31755,1,0,0:0:0:0:
36,192,31755,1,8,1:0:0:0:
256,192,31839,1,0,0:0:0:0:
182,192,31924,1,0,0:0:0:0:
256,192,32008,1,0,0:0:0:0:
329,192,32092,1,0,0:0:0:0:
475,192,32092,1,2,0:0:0:0:
109,192,32261,1,0,0:0:0:0:
256,192,32261,1,2,0:0:0:0:
402,192,32429,1,0,0:0:0:0:
475,192,32429,1,2,0:0:0:0:
182,192,32429,1,8,1:0:0:0:
402,192,32598,1,0,0:0:0:0:
475,192,32598,1,2,0:0:0:0:
329,192,32682,1,2,0:0:0:0:
256,192,32682,1,0,0:0:0:0:
109,192,32766,1,2,0:0:0:0:
402,192,32766,1,0,0:0:0:0:
182,192,32851,1,0,0:0:0:0:
256,192,32935,1,0,0:0:0:0:
329,192,33019,1,0,0:0:0:0:
475,192,33103,1,8,1:0:0:0:
109,192,33103,1,8,0:0:0:0:
256,192,33103,1,0,0:0:0:0:
402,192,33188,1,0,0:0:0:0:
329,192,33272,1,0,0:0:0:0:
402,192,33356,1,0,0:0:0:0:
36,192,33441,1,0,0:0:0:0:
182,192,33441,1,8,0:0:0:0:
329,192,33441,1,0,0:0:0:0:
475,192,33525,1,0,0:0:0:0:
402,192,33609,1,0,0:0:0:0:
475,192,33693,1,0,0:0:0:0:
109,192,33778,1,8,1:0:0:0:
256,192,33778,1,8,0:0:0:0:
402,192,33778,1,0,0:0:0:0:
182,192,33862,1,0,0:0:0:0:
109,192,33946,1,0,0:0:0:0:
36,192,34030,1,0,0:0:0:0:
256,192,34115,1,0,1:0:0:0:
402,192,34115,1,8,0:0:0:0:
475,192,34115,1,0,0:0:0:0:
182,192,34199,1,0,1:0:0:0:
329,192,34199,1,0,0:0:0:0:
109,192,34283,1,0,1:0:0:0:
402,192,34283,1,0,0:0:0:0:
182,192,34368,1,0,1:0:0:0:
475,192,34368,1,0,0:0:0:0:
36,192,34452,1,0,1:0:0:0:
329,192,34452,1,8,1:0:0:0:
256,192,34452,1,8,0:0:0:0:
109,192,34536,1,0,1:0:0:0:
402,192,34536,1,0,0:0:0:0:
182,192,34620,1,0,1:0:0:0:
475,192,34620,1,0,0:0:0:0:
256,192,34705,1,0,0:0:0:0:
36,192,34705,1,0,1:0:0:0:
109,192,34789,1,0,1:0:0:0:
402,192,34789,1,0,0:0:0:0:
329,192,34789,1,8,0:0:0:0:
182,192,34873,1,0,1:0:0:0:
475,192,34873,1,0,0:0:0:0:
256,192,34957,1,0,0:0:0:0:
36,192,34957,1,0,1:0:0:0:
329,192,35042,1,0,0:0:0:0:
109,192,35042,1,0,1:0:0:0:
182,192,35126,1,0,1:0:0:0:
475,192,35126,1,8,1:0:0:0:
402,192,35126,1,8,0:0:0:0:
256,192,35210,1,0,0:0:0:0:
36,192,35210,1,0,1:0:0:0:
329,192,35294,1,0,0:0:0:0:
109,192,35294,1,0,1:0:0:0:
402,192,35379,1,0,0:0:0:0:
182,192,35379,1,0,1:0:0:0:
256,192,35463,1,0,0:0:0:0:
36,192,35463,1,4,1:0:0:0:
475,192,35463,1,4,0:0:0:0:
182,192,35547,1,0,0:0:0:0:
109,192,35632,1,0,0:0:0:0:
256,192,35716,1,0,0:0:0:0:
329,192,35800,1,0,0:0:0:0:
475,192,35800,1,8,1:0:0:0:
182,192,35884,1,0,0:0:0:0:
256,192,35969,1,0,0:0:0:0:
329,192,36053,1,0,0:0:0:0:
36,192,36137,1,0,0:0:0:0:
402,192,36137,1,8,0:0:0:0:
109,192,36221,1,0,0:0:0:0:
182,192,36306,1,0,0:0:0:0:
256,192,36390,1,0,0:0:0:0:
329,192,36474,1,0,0:0:0:0:
109,192,36474,1,8,1:0:0:0:
402,192,36559,1,0,0:0:0:0:
475,192,36643,1,0,0:0:0:0:
36,192,36727,1,0,0:0:0:0:
402,192,36811,1,8,0:0:0:0:
109,192,36811,1,0,0:0:0:0:
182,192,36980,1,0,0:0:0:0:
256,192,36980,1,8,0:0:0:0:
329,192,37148,1,8,0:0:0:0:
36,192,37148,1,0,0:0:0:0:
475,192,37148,1,8,1:0:0:0:
182,192,37317,1,8,0:0:0:0:
109,192,37317,1,0,0:0:0:0:
256,192,37485,1,8,0:0:0:0:
402,192,37485,1,0,0:0:0:0:
36,192,37654,1,0,0:0:0:0:
109,192,37654,1,8,0:0:0:0:
329,192,37823,1,8,0:0:0:0:
475,192,37823,1,8,1:0:0:0:
402,192,37823,1,0,0:0:0:0:
182,192,37991,1,8,0:0:0:0:
109,192,37991,1,0,0:0:0:0:
475,192,38160,1,0,0:0:0:0:
402,192,38244,1,0,0:0:0:0:
329,192,38328,1,0,0:0:0:0:
256,192,38412,1,0,0:0:0:0:
475,192,38497,1,0,0:0:0:0:
36,192,38497,1,8,1:0:0:0:
402,192,38581,1,0,0:0:0:0:
329,192,38665,1,0,0:0:0:0:
256,192,38750,1,0,0:0:0:0:
109,192,38834,1,0,0:0:0:0:
182,192,38918,1,0,0:0:0:0:
402,192,39002,1,0,0:0:0:0:
329,192,39087,1,0,0:0:0:0:
36,192,39171,1,8,1:0:0:0:
256,192,39171,1,0,0:0:0:0:
109,192,39255,1,0,0:0:0:0:
329,192,39339,1,0,0:0:0:0:
256,192,39424,1,0,0:0:0:0:
402,192,39508,1,0,0:0:0:0:
182,192,39592,1,0,0:0:0:0:
256,192,39676,1,0,0:0:0:0:
329,192,39761,1,0,0:0:0:0:
475,192,39845,1,8,1:0:0:0:
109,192,39845,1,0,0:0:0:0:
402,192,39929,1,0,0:0:0:0:
329,192,40014,1,0,0:0:0:0:
256,192,40098,1,0,0:0:0:0:
402,192,40182,1,0,1:0:0:0:
36,192,40182,1,0,0:0:0:0:
475,192,40182,1,0,1:0:0:0:
109,192,40266,1,0,0:0:0:0:
182,192,40351,1,0,0:0:0:0:
402,192,40351,1,0,1:0:0:0:
475,192,40351,1,0,1:0:0:0:
109,192,40435,1,0,0:0:0:0:
256,192,40519,1,0,0:0:0:0:
36,192,40519,1,8,1:0:0:0:
182,192,40603,1,0,0:0:0:0:
109,192,40688,1,0,1:0:0:0:
329,192,40688,1,0,0:0:0:0:
475,192,40688,1,0,1:0:0:0:
256,192,40772,1,0,0:0:0:0:
182,192,40856,1,4,1:0:0:0:
36,192,40856,1,0,0:0:0:0:
475,192,40856,1,8,0:0:0:0:
109,192,40983,1,0,0:0:0:0:
402,192,40983,1,8,0:0:0:0:
182,192,41025,1,0,0:0:0:0:
329,192,41025,1,8,0:0:0:0:
256,192,41193,1,8,1:0:0:0:
36,192,41193,1,0,0:0:0:0:
475,192,41193,1,8,0:0:0:0:
329,192,41320,1,8,0:0:0:0:
182,192,41320,1,0,0:0:0:0:
109,192,41362,1,0,0:0:0:0:
402,192,41362,1,8,0:0:0:0:
182,192,41530,1,0,0:0:0:0:
329,192,41530,1,8,0:0:0:0:
402,192,41657,1,8,0:0:0:0:
109,192,41657,1,0,0:0:0:0:
182,192,41699,1,0,0:0:0:0:
329,192,41699,1,8,0:0:0:0:
256,192,41868,1,8,1:0:0:0:
36,192,41868,1,0,0:0:0:0:
475,192,41868,1,8,0:0:0:0:
109,192,41952,1,0,0:0:0:0:
402,192,41952,1,8,0:0:0:0:
182,192,42036,1,0,0:0:0:0:
329,192,42036,1,8,0:0:0:0:
402,192,42205,1,4,1:0:0:0:
36,192,42205,1,0,0:0:0:0:
475,192,42205,1,8,0:0:0:0:
329,192,42331,1,8,0:0:0:0:
109,192,42331,1,0,0:0:0:0:
182,192,42373,1,0,0:0:0:0:
402,192,42373,1,8,0:0:0:0:
256,192,42542,1,8,1:0:0:0:
475,192,42542,1,8,0:0:0:0:
36,192,42542,1,0,0:0:0:0:
402,192,42668,1,8,0:0:0:0:
182,192,42668,1,0,0:0:0:0:
329,192,42710,1,8,0:0:0:0:
109,192,42710,1,0,0:0:0:0:
36,192,42879,1,0,0:0:0:0:
475,192,42879,1,8,0:0:0:0:
402,192,43005,1,8,0:0:0:0:
109,192,43005,1,0,0:0:0:0:
182,192,43047,1,0,0:0:0:0:
329,192,43047,1,8,0:0:0:0:
256,192,43216,1,8,1:0:0:0:
475,192,43216,1,8,0:0:0:0:
36,192,43216,1,0,0:0:0:0:
109,192,43384,1,0,0:0:0:0:
402,192,43384,1,8,0:0:0:0:
109,192,43553,1,0,1:0:0:0:
182,192,43553,1,0,0:0:0:0:
329,192,43553,1,4,1:0:0:0:
402,192,43637,1,0,1:0:0:0:
109,192,43721,1,0,1:0:0:0:
182,192,43721,1,0,0:0:0:0:
402,192,43806,1,0,1:0:0:0:
109,192,43890,1,0,1:0:0:0:
182,192,43890,1,8,1:0:0:0:
402,192,43974,1,0,1:0:0:0:
36,192,44059,1,0,1:0:0:0:
182,192,44059,1,0,0:0:0:0:
256,192,44143,1,0,1:0:0:0:
402,192,44227,1,0,0:0:0:0:
329,192,44227,1,0,1:0:0:0:
109,192,44311,1,0,1:0:0:0:
402,192,44396,1,0,0:0:0:0:
329,192,44396,1,0,1:0:0:0:
109,192,44480,1,0,1:0:0:0:
402,192,44564,1,8,1:0:0:0:
329,192,44564,1,0,1:0:0:0:
109,192,44648,1,0,1:0:0:0:
329,192,44733,1,0,0:0:0:0:
475,192,44733,1,0,1:0:0:0:
256,192,44817,1,0,1:0:0:0:
36,192,44901,128,8,45575:0:0:0:0:
402,192,44901,1,0,1:0:0:0:
182,192,44985,1,0,1:0:0:0:
329,192,45070,1,0,1:0:0:0:
109,192,45154,1,0,1:0:0:0:
402,192,45238,1,0,1:0:0:0:
256,192,45238,1,8,1:0:0:0:
109,192,45323,1,0,1:0:0:0:
329,192,45407,1,0,1:0:0:0:
402,192,45491,1,0,1:0:0:0:
109,192,45575,128,8,46250:0:0:0:0:
256,192,45575,1,0,1:0:0:0:
475,192,45575,1,0,1:0:0:0:
182,192,45660,1,0,1:0:0:0:
402,192,45744,1,0,1:0:0:0:
329,192,45744,1,0,1:0:0:0:
256,192,45828,1,0,1:0:0:0:
182,192,45912,128,8,46250:0:0:0:0:
402,192,45912,1,0,1:0:0:0:
475,192,45912,1,8,1:0:0:0:
329,192,45997,1,0,1:0:0:0:
475,192,46081,1,0,1:0:0:0:
402,192,46081,1,0,1:0:0:0:
329,192,46165,1,0,1:0:0:0:
402,192,46250,1,0,0:0:0:0:
475,192,46250,1,6,0:0:0:0:
256,192,46250,128,0,46418:0:0:0:0:
36,192,46250,1,4,0:0:0:0:
329,192,46418,1,0,2:0:0:0:
402,192,46587,1,0,0:0:0:0:
36,192,46587,128,8,46755:0:0:0:0:
182,192,46587,1,0,2:0:0:0:
329,192,46755,1,0,2:0:0:0:
256,192,46924,128,0,47092:0:0:0:0:
109,192,46924,1,0,2:0:0:0:
329,192,47092,1,0,2:0:0:0:
402,192,47261,1,0,0:0:0:0:
36,192,47261,128,8,47429:0:0:0:0:
182,192,47261,1,0,2:0:0:0:
329,192,47429,1,0,2:0:0:0:
256,192,47598,1,0,2:0:0:0:
109,192,47598,128,0,47766:0:0:0:0:
402,192,47766,1,0,2:0:0:0:
182,192,47935,1,0,2:0:0:0:
109,192,47935,1,0,0:0:0:0:
329,192,47935,128,8,48103:0:0:0:0:
402,192,48103,1,0,2:0:0:0:
256,192,48272,1,0,2:0:0:0:
109,192,48272,128,0,48441:0:0:0:0:
402,192,48441,1,0,2:0:0:0:
182,192,48609,1,0,2:0:0:0:
109,192,48609,1,0,0:0:0:0:
329,192,48609,128,8,48778:0:0:0:0:
402,192,48778,1,0,2:0:0:0:
329,192,48946,1,0,2:0:0:0:
182,192,48946,128,0,49115:0:0:0:0:
475,192,49115,1,0,2:0:0:0:
256,192,49283,1,0,2:0:0:0:
36,192,49283,1,0,0:0:0:0:
402,192,49283,128,8,49452:0:0:0:0:
475,192,49452,1,0,2:0:0:0:
329,192,49620,1,0,2:0:0:0:
182,192,49620,128,0,49789:0:0:0:0:
475,192,49789,1,0,2:0:0:0:
256,192,49957,1,0,2:0:0:0:
36,192,49957,1,0,0:0:0:0:
402,192,49957,128,8,50126:0:0:0:0:
475,192,50126,1,0,2:0:0:0:
36,192,50294,1,0,2:0:0:0:
109,192,50294,128,0,50463:0:0:0:0:
402,192,50463,1,0,2:0:0:0:
182,192,50632,1,0,0:0:0:0:
475,192,50632,1,0,2:0:0:0:
256,192,50632,128,8,50800:0:0:0:0:
402,192,50800,1,0,2:0:0:0:
109,192,50969,128,0,51053:0:0:0:0:
36,192,50969,128,0,51053:0:0:0:0:
329,192,50969,1,0,2:0:0:0:
402,192,51137,1,0,2:0:0:0:
36,192,51137,128,0,51221:0:0:0:0:
109,192,51137,128,0,51221:0:0:0:0:
182,192,51306,1,0,0:0:0:0:
475,192,51306,1,0,2:0:0:0:
256,192,51306,128,8,51474:0:0:0:0:
109,192,51474,1,0,0:0:0:0:
402,192,51474,1,0,2:0:0:0:
256,192,51643,1,0,2:0:0:0:
475,192,51643,128,0,51811:0:0:0:0:
182,192,51811,1,0,2:0:0:0:
402,192,51980,1,0,0:0:0:0:
109,192,51980,1,0,2:0:0:0:
329,192,51980,128,8,52148:0:0:0:0:
182,192,52148,1,0,2:0:0:0:
256,192,52317,1,0,2:0:0:0:
475,192,52317,128,0,52485:0:0:0:0:
182,192,52485,1,0,2:0:0:0:
402,192,52654,1,0,0:0:0:0:
109,192,52654,1,0,2:0:0:0:
329,192,52654,128,8,52823:0:0:0:0:
182,192,52823,1,0,2:0:0:0:
402,192,52991,1,0,2:0:0:0:
182,192,52991,128,0,53160:0:0:0:0:
109,192,53160,1,0,2:0:0:0:
256,192,53328,1,0,0:0:0:0:
36,192,53328,1,0,2:0:0:0:
329,192,53328,128,8,53497:0:0:0:0:
109,192,53497,1,0,2:0:0:0:
402,192,53665,1,0,2:0:0:0:
182,192,53665,128,0,53834:0:0:0:0:
109,192,53834,1,0,2:0:0:0:
256,192,54002,1,0,0:0:0:0:
36,192,54002,1,0,2:0:0:0:
329,192,54002,128,8,54171:0:0:0:0:
109,192,54171,1,0,2:0:0:0:
402,192,54339,1,0,2:0:0:0:
256,192,54339,128,0,54508:0:0:0:0:
182,192,54508,1,0,2:0:0:0:
329,192,54676,1,0,2:0:0:0:
475,192,54676,1,0,0:0:0:0:
36,192,54676,128,8,54845:0:0:0:0:
182,192,54845,1,0,2:0:0:0:
402,192,55014,1,0,2:0:0:0:
256,192,55014,128,0,55182:0:0:0:0:
182,192,55182,1,0,2:0:0:0:
329,192,55351,1,0,2:0:0:0:
475,192,55351,1,0,0:0:0:0:
36,192,55351,128,8,55519:0:0:0:0:
182,192,55519,1,0,2:0:0:0:
475,192,55688,1,0,0:0:0:0:
329,192,55772,1,0,0:0:0:0:
475,192,55856,1,0,0:0:0:0:
329,192,55941,1,0,0:0:0:0:
182,192,56025,1,0,0:0:0:0:
475,192,56025,1,0,0:0:0:0:
36,192,56025,1,8,0:0:0:0:
329,192,56109,1,0,0:0:0:0:
182,192,56193,1,0,0:0:0:0:
329,192,56278,1,0,0:0:0:0:
182,192,56362,1,0,0:0:0:0:
329,192,56446,1,0,0:0:0:0:
36,192,56446,1,0,0:0:0:0:
475,192,56446,1,8,0:0:0:0:
182,192,56530,1,0,0:0:0:0:
36,192,56615,1,0,0:0:0:0:
329,192,56699,1,0,0:0:0:0:
182,192,56699,1,0,0:0:0:0:
475,192,56699,1,8,0:0:0:0:
109,192,56783,1,0,0:0:0:0:
256,192,56868,1,0,0:0:0:0:
36,192,56952,1,0,0:0:0:0:
182,192,57036,1,0,0:0:0:0:
475,192,57036,1,4,0:0:0:0:
329,192,57036,128,2,58384:0:0:0:0:
36,192,57205,1,0,2:0:0:0:
109,192,57373,1,8,0:0:0:0:
256,192,57373,1,0,2:0:0:0:
36,192,57542,1,0,2:0:0:0:
182,192,57710,1,0,0:0:0:0:
36,192,57879,1,0,2:0:0:0:
256,192,58047,1,8,0:0:0:0:
109,192,58047,1,0,2:0:0:0:
36,192,58216,1,0,2:0:0:0:
475,192,58384,1,0,0:0:0:0:
182,192,58384,1,0,2:0:0:0:
109,192,58553,1,0,2:0:0:0:
402,192,58721,1,8,0:0:0:0:
256,192,58721,1,0,2:0:0:0:
109,192,58890,1,0,2:0:0:0:
402,192,59059,128,2,59396:0:0:0:0:
36,192,59059,1,0,0:0:0:0:
182,192,59227,1,0,2:0:0:0:
475,192,59396,1,8,0:0:0:0:
329,192,59396,128,0,59733:0:0:0:0:
109,192,59396,1,0,0:0:0:0:
182,192,59564,1,0,2:0:0:0:
475,192,59733,128,2,60238:0:0:0:0:
256,192,59733,1,0,0:0:0:0:
36,192,59901,1,0,2:0:0:0:
256,192,60070,1,8,0:0:0:0:
109,192,60070,1,0,2:0:0:0:
402,192,60238,1,2,0:0:0:0:
36,192,60238,1,0,2:0:0:0:
402,192,60407,128,2,60744:0:0:0:0:
182,192,60407,1,0,0:0:0:0:
256,192,60575,1,0,2:0:0:0:
329,192,60744,128,2,61081:0:0:0:0:
109,192,60744,1,8,0:0:0:0:
36,192,60744,1,0,2:0:0:0:
182,192,60912,1,0,2:0:0:0:
256,192,61081,128,2,61418:0:0:0:0:
475,192,61081,1,0,0:0:0:0:
36,192,61250,1,0,2:0:0:0:
329,192,61418,128,2,61587:0:0:0:0:
109,192,61418,1,8,0:0:0:0:
182,192,61418,1,0,2:0:0:0:
402,192,61587,128,2,61755:0:0:0:0:
36,192,61587,1,0,2:0:0:0:
256,192,61755,128,2,62092:0:0:0:0:
109,192,61755,1,0,0:0:0:0:
109,192,61924,1,0,0:0:0:0:
329,192,62092,128,2,62261:0:0:0:0:
475,192,62092,1,8,0:0:0:0:
36,192,62092,1,0,0:0:0:0:
402,192,62261,128,2,62429:0:0:0:0:
109,192,62261,1,0,0:0:0:0:
475,192,62429,128,2,64452:0:0:0:0:
256,192,62429,1,0,0:0:0:0:
36,192,62429,1,4,0:0:0:0:
182,192,62598,1,0,2:0:0:0:
329,192,62766,1,8,0:0:0:0:
402,192,62766,1,0,2:0:0:0:
109,192,62935,1,0,2:0:0:0:
256,192,63103,1,0,0:0:0:0:
182,192,63272,1,0,2:0:0:0:
329,192,63441,1,8,0:0:0:0:
402,192,63441,1,0,2:0:0:0:
182,192,63609,1,0,2:0:0:0:
402,192,63778,1,0,0:0:0:0:
256,192,63778,1,4,0:0:0:0:
36,192,63778,1,0,2:0:0:0:
109,192,63946,1,0,2:0:0:0:
329,192,64115,1,8,0:0:0:0:
182,192,64115,1,0,0:0:0:0:
109,192,64283,1,0,2:0:0:0:
256,192,64368,1,0,2:0:0:0:
182,192,64452,1,0,0:0:0:0:
329,192,64452,128,0,64789:0:0:0:0:
402,192,64452,1,0,0:0:0:0:
36,192,64536,1,8,0:0:0:0:
256,192,64620,1,8,0:0:0:0:
402,192,64789,128,0,65126:0:0:0:0:
109,192,64789,1,8,0:0:0:0:
182,192,64789,1,0,0:0:0:0:
36,192,64957,1,0,2:0:0:0:
475,192,65126,128,0,67148:0:0:0:0:
109,192,65126,1,0,0:0:0:0:
256,192,65126,1,4,0:0:0:0:
182,192,65294,1,0,2:0:0:0:
402,192,65463,1,8,0:0:0:0:
256,192,65463,1,0,0:0:0:0:
36,192,65632,1,0,2:0:0:0:
182,192,65716,1,0,2:0:0:0:
329,192,65800,1,0,0:0:0:0:
109,192,65884,1,8,0:0:0:0:
182,192,65969,1,8,0:0:0:0:
402,192,66137,1,8,0:0:0:0:
109,192,66137,1,0,0:0:0:0:
256,192,66306,1,0,2:0:0:0:
36,192,66474,1,0,0:0:0:0:
329,192,66559,1,0,0:0:0:0:
109,192,66643,1,0,0:0:0:0:
256,192,66727,1,0,0:0:0:0:
36,192,66811,1,0,0:0:0:0:
329,192,66896,1,0,0:0:0:0:
109,192,66980,1,0,0:0:0:0:
256,192,67064,1,0,0:0:0:0:
329,192,67148,128,0,67823:0:0:0:0:
36,192,67148,1,0,0:0:0:0:
182,192,67233,1,0,0:0:0:0:
36,192,67317,1,0,0:0:0:0:
182,192,67401,1,0,0:0:0:0:
475,192,67485,1,0,0:0:0:0:
109,192,67485,1,0,0:0:0:0:
402,192,67570,1,0,0:0:0:0:
182,192,67570,1,0,0:0:0:0:
475,192,67654,1,0,0:0:0:0:
36,192,67654,1,0,0:0:0:0:
402,192,67738,1,0,0:0:0:0:
182,192,67738,1,0,0:0:0:0:
475,192,67823,1,0,0:0:0:0:
36,192,67823,1,4,0:0:0:0:
256,192,67823,128,0,73553:0:0:0:0:
109,192,69002,1,0,2:0:0:0:
402,192,69002,1,2,2:0:0:0:
109,192,69845,1,2,2:0:0:0:
36,192,69845,1,0,2:0:0:0:
182,192,70182,1,2,2:0:0:0:
329,192,70182,1,0,2:0:0:0:
475,192,70519,1,2,2:0:0:0:
402,192,70519,1,0,2:0:0:0:
36,192,72542,128,2,72879:2:0:0:0:
475,192,72542,128,2,72879:1:0:0:0:
109,192,72879,128,2,73216:2:0:0:0:
402,192,72879,128,2,73216:1:0:0:0:
182,192,73216,128,2,73553:2:0:0:0:
329,192,73216,128,2,73553:1:0:0:0:
36,192,73553,1,0,0:0:0:0:
475,192,73553,1,4,0:0:0:0:
109,192,73553,1,0,0:0:0:0:
402,192,73553,1,0,0:0:0:0:
182,192,73721,1,2,1:0:0:0:
329,192,73721,1,2,0:0:0:0:
109,192,73890,1,2,1:0:0:0:
402,192,73890,1,2,0:0:0:0:
182,192,74058,1,2,1:0:0:0:
329,192,74058,1,2,0:0:0:0:
36,192,74227,1,2,1:0:0:0:
256,192,74227,1,8,0:0:0:0:
402,192,74227,1,2,0:0:0:0:
109,192,74395,1,2,1:0:0:0:
329,192,74395,1,8,0:0:0:0:
475,192,74395,1,2,0:0:0:0:
182,192,74564,1,8,0:0:0:0:
402,192,74564,1,2,0:0:0:0:
36,192,74564,1,2,1:0:0:0:
329,192,74732,1,2,0:0:0:0:
109,192,74732,1,2,1:0:0:0:
256,192,74901,1,2,0:0:0:0:
329,192,75069,1,2,0:0:0:0:
109,192,75069,1,2,1:0:0:0:
402,192,75238,1,2,0:0:0:0:
256,192,75238,1,2,1:0:0:0:
182,192,75406,1,2,1:0:0:0:
329,192,75406,1,2,0:0:0:0:
36,192,75575,1,2,1:0:0:0:
256,192,75575,1,8,0:0:0:0:
402,192,75575,1,2,0:0:0:0:
109,192,75744,1,2,1:0:0:0:
329,192,75744,1,8,0:0:0:0:
475,192,75744,1,2,0:0:0:0:
36,192,75912,1,2,1:0:0:0:
402,192,75912,1,2,0:0:0:0:
182,192,75912,1,8,0:0:0:0:
329,192,76081,1,2,0:0:0:0:
256,192,76249,1,2,0:0:0:0:
36,192,76249,1,2,1:0:0:0:
329,192,76418,1,2,0:0:0:0:
109,192,76418,1,2,1:0:0:0:
402,192,76586,1,2,0:0:0:0:
182,192,76586,1,2,1:0:0:0:
109,192,76755,1,2,1:0:0:0:
329,192,76755,1,2,0:0:0:0:
36,192,76923,1,2,1:0:0:0:
256,192,76923,1,8,0:0:0:0:
402,192,76923,1,2,0:0:0:0:
109,192,77092,1,2,1:0:0:0:
329,192,77092,1,8,0:0:0:0:
475,192,77092,1,2,0:0:0:0:
256,192,77260,1,8,0:0:0:0:
402,192,77260,1,2,0:0:0:0:
36,192,77260,1,2,1:0:0:0:
182,192,77429,1,8,0:0:0:0:
329,192,77429,1,2,0:0:0:0:
109,192,77429,1,2,1:0:0:0:
256,192,77597,1,2,1:0:0:0:
475,192,77597,1,2,0:0:0:0:
402,192,77766,1,2,0:0:0:0:
182,192,77766,1,2,1:0:0:0:
109,192,77935,1,2,1:0:0:0:
329,192,77935,1,2,0:0:0:0:
182,192,78103,1,2,1:0:0:0:
402,192,78103,1,2,0:0:0:0:
475,192,78272,1,2,0:0:0:0:
256,192,78272,1,2,1:0:0:0:
36,192,78272,1,0,1:0:0:0:
402,192,78440,1,2,0:0:0:0:
182,192,78440,1,2,1:0:0:0:
36,192,78440,1,0,1:0:0:0:
329,192,78609,1,2,0:0:0:0:
256,192,78609,1,2,1:0:0:0:
402,192,78777,1,2,0:0:0:0:
182,192,78777,1,2,1:0:0:0:
36,192,78777,1,0,1:0:0:0:
36,192,78946,1,0,1:0:0:0:
256,192,78946,1,2,1:0:0:0:
475,192,78946,1,2,0:0:0:0:
182,192,79114,1,2,1:0:0:0:
402,192,79114,1,2,0:0:0:0:
109,192,79283,1,2,1:0:0:0:
475,192,79283,1,2,0:0:0:0:
182,192,79451,1,2,1:0:0:0:
402,192,79451,1,2,0:0:0:0:
36,192,79620,1,2,1:0:0:0:
329,192,79620,1,2,0:0:0:0:
182,192,79620,1,8,0:0:0:0:
109,192,79788,1,2,1:0:0:0:
402,192,79788,1,2,0:0:0:0:
256,192,79788,1,8,0:0:0:0:
475,192,79957,1,2,0:0:0:0:
182,192,79957,1,2,1:0:0:0:
329,192,79957,1,8,0:0:0:0:
109,192,80126,1,2,1:0:0:0:
402,192,80126,1,2,0:0:0:0:
329,192,80294,1,2,0:0:0:0:
402,192,80463,1,2,0:0:0:0:
109,192,80463,1,2,1:0:0:0:
256,192,80631,1,2,1:0:0:0:
475,192,80631,1,2,0:0:0:0:
182,192,80800,1,2,1:0:0:0:
402,192,80800,1,2,0:0:0:0:
36,192,80968,1,2,1:0:0:0:
329,192,80968,1,2,0:0:0:0:
182,192,80968,1,8,0:0:0:0:
109,192,81137,1,2,1:0:0:0:
402,192,81137,1,2,0:0:0:0:
256,192,81137,1,8,0:0:0:0:
182,192,81305,1,2,1:0:0:0:
475,192,81305,1,2,0:0:0:0:
329,192,81305,1,8,0:0:0:0:
402,192,81474,1,2,0:0:0:0:
329,192,81642,1,2,0:0:0:0:
36,192,81642,1,2,1:0:0:0:
109,192,81811,1,2,1:0:0:0:
402,192,81811,1,2,0:0:0:0:
475,192,81979,1,2,0:0:0:0:
182,192,81979,1,2,1:0:0:0:
109,192,82148,1,2,1:0:0:0:
402,192,82148,1,2,0:0:0:0:
36,192,82317,1,2,1:0:0:0:
329,192,82317,1,2,0:0:0:0:
182,192,82317,1,8,0:0:0:0:
109,192,82485,1,2,1:0:0:0:
402,192,82485,1,2,0:0:0:0:
256,192,82485,1,8,0:0:0:0:
475,192,82654,1,2,0:0:0:0:
182,192,82654,1,2,1:0:0:0:
329,192,82654,1,8,0:0:0:0:
109,192,82822,1,2,1:0:0:0:
402,192,82822,1,2,0:0:0:0:
36,192,82991,1,0,0:0:0:8:normal-hitnormal.wav
109,192,83075,1,0,0:0:0:10:normal-hitnormal.wav
182,192,83159,1,0,0:0:0:12:normal-hitnormal.wav
256,192,83244,1,0,0:0:0:14:normal-hitnormal.wav
329,192,83328,1,0,0:0:0:16:normal-hitnormal.wav
402,192,83412,1,0,0:0:0:18:normal-hitnormal.wav
475,192,83496,1,0,0:0:0:20:normal-hitnormal.wav
36,192,83581,1,0,0:0:0:22:normal-hitnormal.wav
109,192,83665,1,0,0:0:0:24:normal-hitnormal.wav
329,192,83665,1,0,1:0:0:0:
182,192,83749,1,0,0:0:0:26:normal-hitnormal.wav
402,192,83749,1,0,1:0:0:0:
256,192,83833,1,0,0:0:0:28:normal-hitnormal.wav
475,192,83833,1,0,1:0:0:0:
329,192,83918,1,0,0:0:0:30:normal-hitnormal.wav
36,192,83918,1,0,1:0:0:0:
402,192,84002,1,0,0:0:0:32:normal-hitnormal.wav
109,192,84002,1,0,1:0:0:0:
475,192,84086,1,0,0:0:0:34:normal-hitnormal.wav
182,192,84086,1,0,1:0:0:0:
36,192,84170,1,0,0:0:0:36:normal-hitnormal.wav
256,192,84170,1,0,1:0:0:0:
109,192,84255,1,0,0:0:0:38:normal-hitnormal.wav
329,192,84255,1,0,1:0:0:0:
182,192,84339,1,0,0:0:0:0:
402,192,84339,1,0,1:0:0:0:
475,192,84339,1,4,0:0:0:0:
36,192,84508,1,2,1:0:0:0:
402,192,84676,1,0,1:0:0:0:
109,192,84676,1,2,1:0:0:0:
182,192,84845,1,2,1:0:0:0:
402,192,85013,1,0,1:0:0:0:
109,192,85013,1,8,0:0:0:0:
36,192,85013,1,2,1:0:0:0:
182,192,85182,1,8,0:0:0:0:
109,192,85182,1,2,1:0:0:0:
402,192,85350,1,0,1:0:0:0:
256,192,85350,1,8,0:0:0:0:
182,192,85350,1,2,1:0:0:0:
109,192,85519,1,2,1:0:0:0:
402,192,85687,1,0,1:0:0:0:
109,192,85856,1,2,1:0:0:0:
402,192,86024,1,0,1:0:0:0:
182,192,86024,1,2,1:0:0:0:
256,192,86193,1,2,1:0:0:0:
402,192,86361,1,0,1:0:0:0:
109,192,86361,1,8,0:0:0:0:
36,192,86361,1,2,1:0:0:0:
182,192,86530,1,8,0:0:0:0:
109,192,86530,1,2,1:0:0:0:
402,192,86699,1,0,1:0:0:0:
256,192,86699,1,8,0:0:0:0:
182,192,86699,1,2,1:0:0:0:
402,192,87036,1,0,1:0:0:0:
109,192,87036,1,2,1:0:0:0:
36,192,87204,1,2,1:0:0:0:
402,192,87373,1,0,1:0:0:0:
182,192,87373,1,2,1:0:0:0:
109,192,87541,1,2,1:0:0:0:
402,192,87710,1,0,1:0:0:0:
36,192,87710,1,2,1:0:0:0:
182,192,87710,1,8,0:0:0:0:
109,192,87878,1,2,1:0:0:0:
256,192,87878,1,8,0:0:0:0:
402,192,88047,1,0,1:0:0:0:
182,192,88047,1,2,1:0:0:0:
329,192,88047,1,8,0:0:0:0:
109,192,88215,1,2,1:0:0:0:
402,192,88384,1,0,1:0:0:0:
256,192,88384,1,2,1:0:0:0:
182,192,88552,1,2,1:0:0:0:
402,192,88721,1,0,1:0:0:0:
109,192,88721,1,2,1:0:0:0:
36,192,88890,1,2,1:0:0:0:
402,192,89058,1,0,1:0:0:0:
182,192,89058,1,2,1:0:0:0:
402,192,89227,1,0,1:0:0:0:
109,192,89227,1,2,1:0:0:0:
36,192,89395,1,2,1:0:0:0:
402,192,89564,1,0,1:0:0:0:
109,192,89564,1,2,1:0:0:0:
475,192,89732,1,0,1:0:0:0:
402,192,89732,1,4,1:0:0:0:
256,192,89732,1,2,1:0:0:0:
36,192,89732,1,0,0:0:0:0:
182,192,89901,1,2,1:0:0:0:
475,192,90069,1,0,1:0:0:0:
109,192,90069,1,2,1:0:0:0:
256,192,90238,1,2,1:0:0:0:
475,192,90406,1,0,1:0:0:0:
182,192,90406,1,8,0:0:0:0:
36,192,90406,1,2,1:0:0:0:
109,192,90575,1,2,1:0:0:0:
256,192,90575,1,8,0:0:0:0:
475,192,90744,1,0,1:0:0:0:
182,192,90744,1,2,1:0:0:0:
329,192,90744,1,8,0:0:0:0:
256,192,90912,1,2,1:0:0:0:
475,192,91081,1,4,1:0:0:0:
36,192,91081,1,0,1:0:0:0:
402,192,91081,1,0,1:0:0:0:
256,192,91249,1,2,1:0:0:0:
36,192,91418,1,0,1:0:0:0:
182,192,91418,1,2,1:0:0:0:
256,192,91586,1,2,1:0:0:0:
36,192,91755,1,0,1:0:0:0:
182,192,91755,1,2,1:0:0:0:
329,192,91755,1,8,0:0:0:0:
402,192,91923,1,8,0:0:0:0:
256,192,91923,1,2,1:0:0:0:
36,192,92092,1,0,1:0:0:0:
475,192,92092,1,8,0:0:0:0:
329,192,92092,1,2,1:0:0:0:
256,192,92429,1,0,1:0:0:0:
182,192,92429,1,0,1:0:0:0:
475,192,92429,1,2,1:0:0:0:
36,192,92429,1,4,1:0:0:0:
402,192,92597,1,2,1:0:0:0:
256,192,92766,1,0,1:0:0:0:
329,192,92766,1,2,1:0:0:0:
109,192,92935,1,2,1:0:0:0:
256,192,93103,1,0,1:0:0:0:
329,192,93103,1,8,0:0:0:0:
182,192,93103,1,2,1:0:0:0:
109,192,93272,1,2,1:0:0:0:
402,192,93272,1,8,0:0:0:0:
256,192,93440,1,0,1:0:0:0:
475,192,93440,1,8,0:0:0:0:
36,192,93440,1,2,1:0:0:0:
329,192,93609,1,8,0:0:0:0:
182,192,93609,1,2,1:0:0:0:
256,192,93777,1,0,1:0:0:0:
109,192,93861,1,0,0:0:0:0:
402,192,93946,1,0,0:0:0:0:
182,192,94030,1,0,0:0:0:0:
329,192,94114,1,0,0:0:0:0:
109,192,94199,1,0,0:0:0:0:
402,192,94283,1,0,0:0:0:0:
182,192,94367,1,0,0:0:0:0:
329,192,94451,1,0,0:0:0:0:
109,192,94536,1,0,0:0:0:0:
402,192,94620,1,0,0:0:0:0:
182,192,94704,1,0,0:0:0:0:
329,192,94788,1,0,0:0:0:0:
109,192,94873,1,0,0:0:0:0:
475,192,94957,1,0,0:0:0:0:
182,192,95041,1,0,0:0:0:0:
402,192,95126,1,0,0:0:0:0:
475,192,95126,1,0,0:0:0:0:
256,192,95126,1,4,0:0:0:0:
36,192,95210,1,0,0:0:0:0:
109,192,95210,1,0,0:0:0:0:
329,192,95294,1,0,0:0:0:0:
402,192,95294,1,0,0:0:0:0:
109,192,95378,1,0,0:0:0:0:
182,192,95378,1,0,0:0:0:0:
402,192,95463,1,0,0:0:0:0:
475,192,95463,1,0,0:0:0:0:
36,192,95547,1,0,0:0:0:0:
109,192,95547,1,0,0:0:0:0:
329,192,95631,1,0,0:0:0:0:
402,192,95631,1,0,0:0:0:0:
182,192,95715,1,0,0:0:0:0:
109,192,95715,1,0,0:0:0:0:
402,192,95800,1,0,0:0:0:0:
475,192,95800,1,0,0:0:0:0:
329,192,95800,1,0,0:0:0:0:
109,192,95884,1,0,0:0:0:0:
36,192,95884,1,0,0:0:0:0:
182,192,95884,1,0,0:0:0:0:
329,192,95968,1,0,0:0:0:0:
402,192,95968,1,0,0:0:0:0:
256,192,95968,1,0,0:0:0:0:
182,192,96052,1,0,0:0:0:0:
109,192,96052,1,0,0:0:0:0:
36,192,96052,1,0,0:0:0:0:
402,192,96137,1,0,0:0:0:0:
475,192,96137,1,0,0:0:0:0:
329,192,96137,1,0,0:0:0:0:
109,192,96221,1,0,0:0:0:0:
256,192,96221,1,0,0:0:0:0:
182,192,96221,1,0,0:0:0:0:
329,192,96305,1,0,0:0:0:0:
402,192,96305,1,0,0:0:0:0:
475,192,96305,1,0,0:0:0:0:
182,192,96390,1,0,0:0:0:0:
109,192,96390,1,0,0:0:0:0:
36,192,96390,1,0,0:0:0:0:
256,192,96474,1,4,1:0:0:0:
329,192,96474,1,0,0:0:0:0:
475,192,96474,1,0,0:0:0:0:
182,192,96558,1,0,0:0:0:0:
36,192,96642,1,0,0:0:0:0:
182,192,96727,1,0,0:0:0:0:
402,192,96811,1,0,0:0:0:0:
256,192,96895,1,0,0:0:0:0:
109,192,96979,1,0,0:0:0:0:
256,192,97064,1,0,0:0:0:0:
475,192,97148,128,8,97401:0:0:0:0:
402,192,97148,128,2,97401:0:0:0:0:
109,192,97148,1,0,0:0:0:0:
182,192,97232,1,0,0:0:0:0:
256,192,97317,1,0,0:0:0:0:
109,192,97401,128,8,97654:0:0:0:0:
36,192,97401,128,2,97654:0:0:0:0:
329,192,97401,1,0,0:0:0:0:
182,192,97485,1,0,0:0:0:0:
329,192,97569,1,0,0:0:0:0:
475,192,97654,1,8,0:0:0:0:
402,192,97654,1,2,0:0:0:0:
256,192,97654,1,0,0:0:0:0:
182,192,97738,1,0,0:0:0:0:
109,192,97822,1,8,0:0:0:0:
36,192,97822,1,2,0:0:0:0:
329,192,97822,1,0,0:0:0:0:
256,192,97906,1,0,0:0:0:0:
402,192,97991,1,0,0:0:0:0:
256,192,98075,1,0,0:0:0:0:
475,192,98159,1,0,0:0:0:0:
329,192,98244,1,0,0:0:0:0:
182,192,98328,1,0,0:0:0:0:
329,192,98412,1,0,0:0:0:0:
36,192,98496,128,2,98749:0:0:0:0:
109,192,98496,128,8,98749:0:0:0:0:
402,192,98496,1,0,0:0:0:0:
329,192,98581,1,0,0:0:0:0:
256,192,98665,1,0,0:0:0:0:
402,192,98749,128,2,99002:0:0:0:0:
475,192,98749,128,8,99002:0:0:0:0:
182,192,98749,1,0,0:0:0:0:
329,192,98833,1,0,0:0:0:0:
182,192,98918,1,0,0:0:0:0:
109,192,99002,1,8,0:0:0:0:
36,192,99002,1,2,0:0:0:0:
256,192,99002,1,0,0:0:0:0:
329,192,99086,1,0,0:0:0:0:
402,192,99170,1,2,0:0:0:0:
475,192,99170,1,8,0:0:0:0:
182,192,99170,1,0,0:0:0:0:
256,192,99255,1,0,0:0:0:0:
109,192,99339,1,0,0:0:0:0:
329,192,99423,1,0,0:0:0:0:
182,192,99508,1,0,0:0:0:0:
402,192,99592,1,0,0:0:0:0:
256,192,99676,1,0,0:0:0:0:
109,192,99760,1,0,0:0:0:0:
475,192,99845,128,8,100097:0:0:0:0:
36,192,99845,128,2,100097:0:0:0:0:
182,192,99845,1,0,0:0:0:0:
329,192,99929,1,0,0:0:0:0:
256,192,100013,1,0,0:0:0:0:
402,192,100097,128,8,100350:0:0:0:0:
109,192,100097,128,2,100350:0:0:0:0:
182,192,100097,1,0,0:0:0:0:
329,192,100182,1,0,0:0:0:0:
256,192,100266,1,0,0:0:0:0:
475,192,100350,1,8,0:0:0:0:
182,192,100350,1,2,0:0:0:0:
329,192,100435,1,0,0:0:0:0:
256,192,100519,1,2,0:0:0:0:
36,192,100519,1,0,0:0:0:0:
402,192,100519,1,8,0:0:0:0:
109,192,100603,1,0,0:0:0:0:
182,192,100687,1,0,0:0:0:0:
256,192,100772,1,0,0:0:0:0:
109,192,100856,1,0,0:0:0:0:
182,192,100940,1,0,0:0:0:0:
256,192,101024,1,0,0:0:0:0:
329,192,101109,1,0,0:0:0:0:
36,192,101193,128,2,101446:0:0:0:0:
109,192,101193,128,8,101446:0:0:0:0:
475,192,101193,1,0,0:0:0:0:
402,192,101277,1,0,0:0:0:0:
329,192,101361,1,0,0:0:0:0:
182,192,101446,128,2,101699:0:0:0:0:
256,192,101446,128,8,101699:0:0:0:0:
402,192,101446,1,0,0:0:0:0:
475,192,101530,1,0,0:0:0:0:
402,192,101614,1,0,0:0:0:0:
329,192,101699,1,8,0:0:0:0:
109,192,101699,1,2,0:0:0:0:
402,192,101783,1,0,0:0:0:0:
256,192,101867,1,8,0:0:0:0:
475,192,101867,1,0,0:0:0:0:
36,192,101867,1,2,0:0:0:0:
329,192,101951,1,0,0:0:0:0:
182,192,102036,1,0,0:0:0:0:
36,192,102120,1,0,0:0:0:0:
402,192,102204,1,0,0:0:0:0:
329,192,102288,1,0,0:0:0:0:
182,192,102373,1,0,0:0:0:0:
109,192,102457,1,0,0:0:0:0:
475,192,102541,1,8,0:0:0:0:
256,192,102541,1,2,0:0:0:0:
36,192,102541,1,0,0:0:0:0:
329,192,102626,1,0,0:0:0:0:
109,192,102710,1,0,0:0:0:0:
182,192,102794,1,0,0:0:0:0:
402,192,102794,1,2,0:0:0:0:
475,192,102794,1,8,0:0:0:0:
256,192,102878,1,0,0:0:0:0:
36,192,102963,1,0,0:0:0:0:
329,192,103047,1,2,0:0:0:0:
109,192,103047,1,0,0:0:0:0:
402,192,103047,1,8,0:0:0:0:
182,192,103131,1,0,0:0:0:0:
402,192,103215,1,0,0:0:0:0:
36,192,103215,1,8,0:0:0:0:
109,192,103215,1,2,0:0:0:0:
329,192,103300,1,0,0:0:0:0:
256,192,103384,1,0,0:0:0:0:
109,192,103468,1,8,0:0:0:0:
475,192,103468,1,0,0:0:0:0:
182,192,103468,1,2,0:0:0:0:
402,192,103552,1,0,0:0:0:0:
329,192,103637,1,0,0:0:0:0:
182,192,103721,1,8,0:0:0:0:
256,192,103721,1,2,0:0:0:0:
475,192,103721,1,0,0:0:0:0:
329,192,103805,1,0,0:0:0:0:
36,192,103890,1,8,0:0:0:0:
182,192,103890,1,2,0:0:0:0:
402,192,103890,1,0,0:0:0:0:
256,192,103974,1,0,0:0:0:0:
329,192,104058,1,0,0:0:0:0:
109,192,104142,1,8,0:0:0:0:
256,192,104142,1,2,0:0:0:0:
475,192,104142,1,0,0:0:0:0:
329,192,104227,1,0,0:0:0:0:
402,192,104311,1,0,0:0:0:0:
182,192,104395,1,8,0:0:0:0:
329,192,104395,1,2,0:0:0:0:
36,192,104395,1,0,0:0:0:0:
402,192,104479,1,0,0:0:0:0:
475,192,104564,1,8,0:0:0:0:
109,192,104564,1,0,0:0:0:0:
256,192,104564,1,2,0:0:0:0:
182,192,104648,1,0,0:0:0:0:
329,192,104732,1,0,0:0:0:0:
475,192,104817,1,0,0:0:0:0:
109,192,104901,1,0,0:0:0:0:
256,192,104985,1,0,0:0:0:0:
402,192,105069,1,0,0:0:0:0:
36,192,105154,1,0,0:0:0:0:
329,192,105238,1,0,0:0:0:0:
475,192,105238,1,8,0:0:0:0:
182,192,105238,1,2,0:0:0:0:
109,192,105322,1,0,0:0:0:0:
256,192,105406,1,0,0:0:0:0:
36,192,105491,1,2,0:0:0:0:
182,192,105491,1,8,0:0:0:0:
402,192,105491,1,0,0:0:0:0:
475,192,105575,1,0,0:0:0:0:
329,192,105659,1,0,0:0:0:0:
402,192,105744,1,0,0:0:0:0:
109,192,105744,1,2,0:0:0:0:
256,192,105744,1,8,0:0:0:0:
182,192,105828,1,0,0:0:0:0:
36,192,105912,1,0,1:0:0:0:
475,192,105912,1,8,0:0:0:0:
329,192,105912,1,2,0:0:0:0:
109,192,105996,1,0,1:0:0:0:
182,192,106081,1,0,1:0:0:0:
256,192,106165,1,0,1:0:0:0:
402,192,106165,1,8,0:0:0:0:
36,192,106165,1,2,0:0:0:0:
182,192,106249,1,0,1:0:0:0:
256,192,106333,1,0,1:0:0:0:
109,192,106418,1,2,0:0:0:0:
329,192,106418,1,0,1:0:0:0:
475,192,106418,1,8,0:0:0:0:
402,192,106502,1,0,1:0:0:0:
329,192,106586,1,0,1:0:0:0:
36,192,106586,1,2,0:0:0:0:
182,192,106586,1,8,0:0:0:0:
402,192,106670,1,0,1:0:0:0:
329,192,106755,1,0,1:0:0:0:
109,192,106839,1,8,0:0:0:0:
256,192,106839,1,0,1:0:0:0:
475,192,106839,1,2,0:0:0:0:
329,192,106923,1,0,1:0:0:0:
256,192,107008,1,0,1:0:0:0:
475,192,107092,1,8,0:0:0:0:
182,192,107092,1,0,1:0:0:0:
329,192,107092,1,2,0:0:0:0:
109,192,107176,1,0,1:0:0:0:
402,192,107260,1,4,1:0:0:0:
36,192,107260,1,8,0:0:0:0:
182,192,107260,1,0,1:0:0:0:
256,192,107345,1,0,0:0:0:0:
402,192,107429,1,0,0:0:0:0:
256,192,107513,1,0,0:0:0:0:
109,192,107513,1,8,0:0:0:0:
475,192,107597,1,0,0:0:0:0:
329,192,107682,1,0,0:0:0:0:
475,192,107766,1,0,0:0:0:0:
182,192,107766,1,8,0:0:0:0:
256,192,107850,1,0,0:0:0:0:
475,192,107935,128,2,108187:1:0:0:0:
329,192,107935,128,0,108187:0:0:0:0:
36,192,107935,1,0,0:0:0:0:
109,192,108019,1,0,0:0:0:0:
182,192,108103,1,0,0:0:0:0:
402,192,108187,128,2,108440:1:0:0:0:
256,192,108187,128,0,108440:0:0:0:0:
36,192,108187,1,0,0:0:0:0:
182,192,108272,1,0,0:0:0:0:
109,192,108356,1,0,0:0:0:0:
329,192,108440,1,2,1:0:0:0:
36,192,108440,1,0,0:0:0:0:
109,192,108524,1,0,0:0:0:0:
475,192,108609,1,8,0:0:0:0:
182,192,108609,1,2,1:0:0:0:
329,192,108693,1,0,0:0:0:0:
109,192,108777,1,0,0:0:0:0:
402,192,108861,1,8,0:0:0:0:
256,192,108861,1,0,0:0:0:0:
36,192,108946,1,0,0:0:0:0:
182,192,109030,1,0,0:0:0:0:
36,192,109114,1,0,0:0:0:0:
402,192,109114,1,8,0:0:0:0:
329,192,109199,1,0,0:0:0:0:
36,192,109283,128,2,109536:1:0:0:0:
182,192,109283,128,0,109536:0:0:0:0:
475,192,109283,1,0,0:0:0:0:
329,192,109367,1,0,0:0:0:0:
402,192,109451,1,0,0:0:0:0:
109,192,109536,128,2,109788:1:0:0:0:
256,192,109536,128,0,109788:0:0:0:0:
475,192,109536,1,0,0:0:0:0:
402,192,109620,1,0,0:0:0:0:
329,192,109704,1,0,0:0:0:0:
182,192,109788,1,2,1:0:0:0:
475,192,109788,1,0,0:0:0:0:
329,192,109873,1,0,0:0:0:0:
36,192,109957,1,8,0:0:0:0:
475,192,109957,1,2,1:0:0:0:
402,192,110041,1,0,0:0:0:0:
329,192,110126,1,0,0:0:0:0:
109,192,110210,1,8,0:0:0:0:
402,192,110210,1,0,0:0:0:0:
256,192,110294,1,0,0:0:0:0:
329,192,110378,1,0,0:0:0:0:
182,192,110463,1,8,0:0:0:0:
402,192,110463,1,0,0:0:0:0:
329,192,110547,1,0,0:0:0:0:
36,192,110631,128,0,110884:0:0:0:0:
475,192,110631,128,2,110884:1:0:0:0:
182,192,110631,1,0,0:0:0:0:
256,192,110715,1,0,0:0:0:0:
329,192,110800,1,0,0:0:0:0:
109,192,110884,128,0,111137:0:0:0:0:
402,192,110884,128,2,111137:1:0:0:0:
256,192,110884,1,0,0:0:0:0:
182,192,110968,1,0,0:0:0:0:
256,192,111052,1,0,0:0:0:0:
329,192,111137,1,0,0:0:0:0:
475,192,111137,1,2,1:0:0:0:
182,192,111221,1,0,0:0:0:0:
36,192,111305,1,8,0:0:0:0:
256,192,111305,1,2,1:0:0:0:
109,192,111390,1,0,0:0:0:0:
182,192,111474,1,0,0:0:0:0:
109,192,111558,1,0,0:0:0:0:
402,192,111558,1,8,0:0:0:0:
256,192,111642,1,0,0:0:0:0:
182,192,111727,1,0,0:0:0:0:
329,192,111811,1,8,0:0:0:0:
109,192,111811,1,0,0:0:0:0:
256,192,111895,1,0,0:0:0:0:
329,192,111979,1,0,0:0:0:0:
402,192,111979,128,0,112232:0:0:0:0:
109,192,111979,128,2,112232:1:0:0:0:
182,192,112064,1,0,0:0:0:0:
256,192,112148,1,0,0:0:0:0:
475,192,112232,128,0,112485:0:0:0:0:
329,192,112232,1,0,0:0:0:0:
36,192,112232,128,2,112485:1:0:0:0:
182,192,112317,1,0,0:0:0:0:
329,192,112401,1,0,0:0:0:0:
402,192,112485,1,0,0:0:0:0:
109,192,112485,1,2,1:0:0:0:
182,192,112569,1,0,0:0:0:0:
109,192,112654,1,0,0:0:0:0:
475,192,112654,1,8,0:0:0:0:
256,192,112654,128,4,113328:1:0:0:0:
36,192,112738,1,0,0:0:0:0:
402,192,112738,1,8,0:0:0:0:
109,192,112822,1,0,0:0:0:0:
329,192,112822,1,8,0:0:0:0:
182,192,112906,1,0,0:0:0:0:
402,192,112906,1,8,0:0:0:0:
475,192,112991,1,8,0:0:0:0:
109,192,112991,1,0,0:0:0:0:
402,192,113075,1,8,0:0:0:0:
36,192,113075,1,0,0:0:0:0:
329,192,113159,1,8,0:0:0:0:
109,192,113159,1,0,0:0:0:0:
402,192,113244,1,8,0:0:0:0:
182,192,113244,1,0,0:0:0:0:
475,192,113328,1,2,0:0:0:0:
36,192,113328,1,0,0:0:0:0:
402,192,113412,1,2,0:0:0:0:
109,192,113412,1,0,0:0:0:0:
329,192,113496,1,2,0:0:0:0:
182,192,113496,1,0,0:0:0:0:
256,192,113581,1,0,0:0:0:0:
475,192,113581,1,2,0:0:0:0:
182,192,113665,1,0,0:0:0:0:
402,192,113665,1,2,0:0:0:0:
109,192,113749,1,0,0:0:0:0:
329,192,113749,1,2,0:0:0:0:
36,192,113833,1,0,0:0:0:0:
256,192,113833,1,2,0:0:0:0:
182,192,113918,1,0,0:0:0:0:
329,192,113918,1,2,0:0:0:0:
402,192,114002,1,0,0:0:0:0:
36,192,114002,1,8,0:0:0:0:
256,192,114002,128,4,114676:1:0:0:0:
475,192,114086,1,0,0:0:0:0:
109,192,114086,1,8,0:0:0:0:
329,192,114170,1,0,0:0:0:0:
182,192,114170,1,8,0:0:0:0:
36,192,114255,1,8,0:0:0:0:
402,192,114255,1,0,0:0:0:0:
109,192,114339,1,8,0:0:0:0:
475,192,114339,1,0,0:0:0:0:
182,192,114423,1,8,0:0:0:0:
402,192,114423,1,0,0:0:0:0:
109,192,114508,1,8,0:0:0:0:
329,192,114508,1,0,0:0:0:0:
36,192,114592,1,8,0:0:0:0:
402,192,114592,1,0,0:0:0:0:
182,192,114676,1,2,0:0:0:0:
475,192,114676,1,0,0:0:0:0:
109,192,114760,1,2,0:0:0:0:
402,192,114760,1,0,0:0:0:0:
182,192,114845,1,2,0:0:0:0:
329,192,114845,1,0,0:0:0:0:
256,192,114929,1,0,0:0:0:0:
36,192,114929,1,2,0:0:0:0:
329,192,115013,1,0,0:0:0:0:
109,192,115013,1,2,0:0:0:0:
182,192,115097,1,2,0:0:0:0:
402,192,115097,1,0,0:0:0:0:
256,192,115182,1,2,0:0:0:0:
475,192,115182,1,0,0:0:0:0:
182,192,115266,1,2,0:0:0:0:
329,192,115266,1,0,0:0:0:0:
256,192,115350,128,4,116699:1:0:0:0:
36,192,115350,1,0,0:0:0:0:
475,192,115350,1,8,2:0:0:0:
182,192,115519,1,0,0:0:0:0:
329,192,115519,1,8,2:0:0:0:
109,192,115687,1,0,0:0:0:0:
402,192,115687,1,8,2:0:0:0:
36,192,115856,1,0,0:0:0:0:
475,192,115856,1,8,2:0:0:0:
182,192,115940,1,0,0:0:0:0:
329,192,115940,1,8,2:0:0:0:
109,192,116109,1,0,0:0:0:0:
402,192,116109,1,8,2:0:0:0:
36,192,116193,1,0,0:0:0:0:
475,192,116193,1,8,2:0:0:0:
109,192,116361,1,0,0:0:0:0:
402,192,116361,1,8,2:0:0:0:
182,192,116530,1,0,0:0:0:0:
329,192,116530,1,8,2:0:0:0:
475,192,116699,1,0,0:0:0:0:
329,192,116783,1,0,0:0:0:0:
475,192,116867,1,0,0:0:0:0:
329,192,116951,1,0,0:0:0:0:
475,192,117036,1,0,0:0:0:0:
182,192,117036,1,8,0:0:0:0:
329,192,117120,1,0,0:0:0:0:
182,192,117204,1,0,0:0:0:0:
329,192,117288,1,0,0:0:0:0:
182,192,117373,1,0,0:0:0:0:
36,192,117457,1,0,0:0:0:0:
182,192,117541,1,0,0:0:0:0:
36,192,117626,1,0,0:0:0:0:
182,192,117710,1,0,0:0:0:0:
475,192,117710,1,8,0:0:0:0:
329,192,117794,1,0,0:0:0:0:
182,192,117878,1,0,0:0:0:0:
329,192,117963,1,0,0:0:0:0:
36,192,118047,1,4,1:0:0:0:
475,192,118047,1,2,0:0:0:0:
182,192,118047,1,2,0:0:0:0:
402,192,118159,1,2,0:0:0:0:
256,192,118159,1,2,0:0:0:0:
329,192,118272,1,2,0:0:0:0:
109,192,118384,1,2,0:0:0:0:
402,192,118384,1,2,0:0:0:0:
329,192,118496,1,2,0:0:0:0:
182,192,118496,1,2,0:0:0:0:
256,192,118609,1,2,0:0:0:0:
182,192,118721,1,2,0:0:0:0:
475,192,118721,1,2,0:0:0:0:
402,192,118833,1,2,0:0:0:0:
256,192,118833,1,2,0:0:0:0:
329,192,118946,1,2,0:0:0:0:
109,192,119058,1,2,0:0:0:0:
402,192,119058,1,2,0:0:0:0:
182,192,119170,1,2,0:0:0:0:
329,192,119170,1,2,0:0:0:0:
256,192,119283,1,2,0:0:0:0:
109,192,119395,1,2,0:0:0:0:
329,192,119395,1,2,0:0:0:0:
475,192,119508,1,2,0:0:0:0:
256,192,119508,1,2,0:0:0:0:
402,192,119620,1,2,0:0:0:0:
182,192,119620,1,2,0:0:0:0:
329,192,119732,1,2,0:0:0:0:
109,192,119732,1,2,0:0:0:0:
402,192,119845,1,2,0:0:0:0:
182,192,119845,1,2,0:0:0:0:
329,192,119957,1,2,0:0:0:0:
109,192,119957,1,2,0:0:0:0:
36,192,120069,1,2,0:0:0:0:
256,192,120069,1,2,0:0:0:0:
329,192,120182,1,2,0:0:0:0:
109,192,120182,1,2,0:0:0:0:
36,192,120294,1,2,0:0:0:0:
256,192,120294,1,2,0:0:0:0:
182,192,120406,1,2,0:0:0:0:
402,192,120406,1,2,0:0:0:0:
256,192,120519,1,2,0:0:0:0:
475,192,120519,1,2,0:0:0:0:
402,192,120631,1,2,0:0:0:0:
182,192,120631,1,2,0:0:0:0:
36,192,120744,1,2,0:0:0:0:
329,192,120744,1,2,0:0:0:0:
256,192,120856,1,2,0:0:0:0:
109,192,120856,1,2,0:0:0:0:
182,192,120968,1,2,0:0:0:0:
109,192,121081,1,2,0:0:0:0:
402,192,121081,1,2,0:0:0:0:
182,192,121193,1,2,0:0:0:0:
329,192,121193,1,2,0:0:0:0:
256,192,121305,1,2,0:0:0:0:
329,192,121418,1,2,0:0:0:0:
36,192,121418,1,2,0:0:0:0:
256,192,121530,1,2,0:0:0:0:
109,192,121530,1,2,0:0:0:0:
182,192,121642,1,2,0:0:0:0:
109,192,121755,1,2,0:0:0:0:
402,192,121755,1,2,0:0:0:0:
329,192,121867,1,2,0:0:0:0:
182,192,121867,1,2,0:0:0:0:
256,192,121979,1,2,0:0:0:0:
182,192,122092,1,2,0:0:0:0:
402,192,122092,1,2,0:0:0:0:
256,192,122204,1,2,0:0:0:0:
36,192,122204,1,2,0:0:0:0:
109,192,122317,1,2,0:0:0:0:
329,192,122317,1,2,0:0:0:0:
182,192,122429,1,2,0:0:0:0:
402,192,122429,1,2,0:0:0:0:
329,192,122541,1,2,0:0:0:0:
109,192,122541,1,2,0:0:0:0:
182,192,122654,1,2,0:0:0:0:
402,192,122654,1,2,0:0:0:0:
256,192,122766,1,2,0:0:0:0:
475,192,122766,1,2,0:0:0:0:
182,192,122878,1,2,0:0:0:0:
402,192,122878,1,2,0:0:0:0:
256,192,122991,1,2,0:0:0:0:
475,192,122991,1,2,0:0:0:0:
329,192,123103,1,2,0:0:0:0:
109,192,123103,1,2,0:0:0:0:
36,192,123215,1,2,0:0:0:0:
256,192,123215,1,2,0:0:0:0:
109,192,123328,1,2,0:0:0:0:
329,192,123328,1,2,0:0:0:0:
402,192,123440,1,2,0:0:0:0:
182,192,123440,1,2,0:0:0:0:
329,192,123552,1,2,0:0:0:0:
109,192,123552,1,2,0:0:0:0:
256,192,123665,1,2,0:0:0:0:
36,192,123665,1,2,0:0:0:0:
402,192,123777,1,2,0:0:0:0:
475,192,123777,1,2,0:0:0:0:
329,192,123890,1,2,0:0:0:0:
256,192,123890,1,2,0:0:0:0:
182,192,124002,1,2,0:0:0:0:
36,192,124002,1,2,0:0:0:0:
109,192,124114,1,2,0:0:0:0:
329,192,124114,1,2,0:0:0:0:
402,192,124227,1,2,0:0:0:0:
182,192,124227,1,2,0:0:0:0:
182,192,124339,1,2,0:0:0:0:
402,192,124339,1,2,0:0:0:0:
329,192,124451,1,2,0:0:0:0:
475,192,124451,1,2,0:0:0:0:
402,192,124564,1,2,0:0:0:0:
256,192,124564,1,2,0:0:0:0:
182,192,124676,1,2,0:0:0:0:
329,192,124676,1,2,0:0:0:0:
36,192,124788,1,2,0:0:0:0:
475,192,124788,1,2,0:0:0:0:
402,192,124901,1,2,0:0:0:0:
109,192,124901,1,2,0:0:0:0:
182,192,125013,1,2,0:0:0:0:
329,192,125013,1,2,0:0:0:0:
109,192,125126,1,2,0:0:0:0:
402,192,125126,1,2,0:0:0:0:
182,192,125238,1,2,0:0:0:0:
329,192,125238,1,2,0:0:0:0:
256,192,125350,1,2,0:0:0:0:
182,192,125463,1,2,0:0:0:0:
329,192,125463,1,2,0:0:0:0:
402,192,125575,1,2,0:0:0:0:
109,192,125575,1,2,0:0:0:0:
402,192,125687,1,2,0:0:0:0:
109,192,125687,1,2,0:0:0:0:
36,192,125800,1,2,0:0:0:0:
475,192,125800,1,2,0:0:0:0:
402,192,125912,1,2,0:0:0:0:
109,192,125912,1,2,0:0:0:0:
182,192,126024,1,2,0:0:0:0:
329,192,126024,1,2,0:0:0:0:
36,192,126137,1,2,0:0:0:0:
109,192,126137,1,2,0:0:0:0:
329,192,126249,1,2,0:0:0:0:
256,192,126249,1,2,0:0:0:0:
109,192,126361,1,2,0:0:0:0:
36,192,126361,1,2,0:0:0:0:
475,192,126474,1,2,0:0:0:0:
402,192,126474,1,2,0:0:0:0:
256,192,126586,1,2,0:0:0:0:
182,192,126586,1,2,0:0:0:0:
402,192,126699,1,2,0:0:0:0:
475,192,126699,1,2,0:0:0:0:
36,192,126811,1,2,0:0:0:0:
182,192,126811,1,2,0:0:0:0:
256,192,126923,1,2,0:0:0:0:
402,192,126923,1,2,0:0:0:0:
36,192,127036,1,2,0:0:0:0:
182,192,127036,1,2,0:0:0:0:
475,192,127148,1,2,0:0:0:0:
329,192,127148,1,2,0:0:0:0:
256,192,127260,1,2,0:0:0:0:
109,192,127260,1,2,0:0:0:0:
329,192,127373,1,2,0:0:0:0:
475,192,127373,1,2,0:0:0:0:
109,192,127485,1,8,0:0:0:0:
402,192,127485,1,8,0:0:0:0:
182,192,127597,1,8,0:0:0:0:
329,192,127597,1,8,0:0:0:0:
256,192,127710,1,8,0:0:0:0:
36,192,127822,1,8,0:0:0:0:
475,192,127822,1,8,0:0:0:0:
329,192,127935,1,8,0:0:0:0:
182,192,127935,1,8,0:0:0:0:
36,192,128047,1,8,0:0:0:0:
475,192,128047,1,8,0:0:0:0:
182,192,128159,1,8,0:0:0:0:
329,192,128159,1,8,0:0:0:0:
402,192,128272,1,8,0:0:0:0:
109,192,128272,1,8,0:0:0:0:
329,192,128384,1,8,0:0:0:0:
182,192,128384,1,8,0:0:0:0:
36,192,128496,1,8,0:0:0:0:
475,192,128496,1,8,0:0:0:0:
402,192,128609,1,8,0:0:0:0:
109,192,128609,1,8,0:0:0:0:
475,192,128721,1,8,0:0:0:0:
36,192,128721,1,8,0:0:0:0:
182,192,128833,1,2,0:0:0:0:
329,192,128833,1,2,0:0:0:0:
109,192,128833,1,4,1:0:0:0:
402,192,128946,1,2,0:0:0:0:
256,192,128946,1,2,0:0:0:0:
329,192,129058,1,2,0:0:0:0:
475,192,129058,1,2,0:0:0:0:
402,192,129170,1,2,0:0:0:0:
182,192,129170,1,2,0:0:0:0:
109,192,129283,1,2,0:0:0:0:
256,192,129283,1,2,0:0:0:0:
182,192,129395,1,2,0:0:0:0:
402,192,129395,1,2,0:0:0:0:
36,192,129508,1,2,0:0:0:0:
329,192,129508,1,2,0:0:0:0:
182,192,129620,1,2,0:0:0:0:
109,192,129620,1,2,0:0:0:0:
256,192,129732,1,2,0:0:0:0:
329,192,129732,1,2,0:0:0:0:
402,192,129845,1,2,0:0:0:0:
182,192,129845,1,2,0:0:0:0:
109,192,129957,1,2,0:0:0:0:
329,192,129957,1,2,0:0:0:0:
36,192,130069,1,2,0:0:0:0:
256,192,130069,1,2,0:0:0:0:
475,192,130182,1,2,0:0:0:0:
329,192,130182,1,2,0:0:0:0:
402,192,130294,1,2,0:0:0:0:
256,192,130294,1,2,0:0:0:0:
329,192,130406,1,2,0:0:0:0:
182,192,130406,1,2,0:0:0:0:
256,192,130519,1,2,0:0:0:0:
475,192,130519,1,2,0:0:0:0:
402,192,130631,1,2,0:0:0:0:
182,192,130631,1,2,0:0:0:0:
329,192,130744,1,2,0:0:0:0:
109,192,130744,1,2,0:0:0:0:
182,192,130856,1,2,0:0:0:0:
402,192,130856,1,2,0:0:0:0:
329,192,130968,1,2,0:0:0:0:
109,192,130968,1,2,0:0:0:0:
256,192,131081,1,2,0:0:0:0:
36,192,131081,1,2,0:0:0:0:
109,192,131193,1,2,0:0:0:0:
329,192,131193,1,2,0:0:0:0:
256,192,131305,1,2,0:0:0:0:
36,192,131305,1,2,0:0:0:0:
182,192,131418,1,2,0:0:0:0:
402,192,131418,1,2,0:0:0:0:
36,192,131530,1,2,0:0:0:0:
256,192,131530,1,2,0:0:0:0:
109,192,131642,1,2,0:0:0:0:
329,192,131642,1,2,0:0:0:0:
182,192,131755,1,2,0:0:0:0:
402,192,131755,1,2,0:0:0:0:
36,192,131867,1,2,0:0:0:0:
329,192,131867,1,2,0:0:0:0:
109,192,131979,1,2,0:0:0:0:
402,192,131979,1,2,0:0:0:0:
182,192,132092,1,2,0:0:0:0:
475,192,132092,1,2,0:0:0:0:
36,192,132204,1,2,0:0:0:0:
329,192,132204,1,2,0:0:0:0:
109,192,132317,1,2,0:0:0:0:
256,192,132317,1,2,0:0:0:0:
182,192,132429,1,2,0:0:0:0:
402,192,132429,1,2,0:0:0:0:
475,192,132541,1,2,0:0:0:0:
36,192,132541,1,2,0:0:0:0:
109,192,132654,1,2,0:0:0:0:
402,192,132654,1,2,0:0:0:0:
182,192,132766,1,2,0:0:0:0:
329,192,132766,1,2,0:0:0:0:
36,192,132878,1,2,0:0:0:0:
256,192,132878,1,2,0:0:0:0:
109,192,132991,1,2,0:0:0:0:
329,192,132991,1,2,0:0:0:0:
182,192,133103,1,2,0:0:0:0:
402,192,133103,1,2,0:0:0:0:
36,192,133215,1,2,0:0:0:0:
256,192,133215,1,2,0:0:0:0:
109,192,133328,1,2,0:0:0:0:
329,192,133328,1,2,0:0:0:0:
182,192,133440,1,2,0:0:0:0:
402,192,133440,1,2,0:0:0:0:
256,192,133552,1,2,0:0:0:0:
475,192,133552,1,2,0:0:0:0:
402,192,133665,1,2,0:0:0:0:
182,192,133665,1,2,0:0:0:0:
329,192,133777,1,2,0:0:0:0:
109,192,133777,1,2,0:0:0:0:
402,192,133890,1,2,0:0:0:0:
182,192,133890,1,2,0:0:0:0:
109,192,134002,1,2,0:0:0:0:
329,192,134002,1,2,0:0:0:0:
36,192,134114,1,2,0:0:0:0:
256,192,134114,1,2,0:0:0:0:
475,192,134227,1,8,0:0:0:0:
109,192,134227,1,8,0:0:0:0:
329,192,134227,1,4,1:0:0:0:
402,192,134339,1,8,0:0:0:0:
182,192,134339,1,8,0:0:0:0:
329,192,134451,1,8,0:0:0:0:
256,192,134451,1,8,0:0:0:0:
475,192,134564,1,8,0:0:0:0:
109,192,134564,1,8,0:0:0:0:
402,192,134676,1,8,0:0:0:0:
182,192,134676,1,8,0:0:0:0:
329,192,134788,1,8,0:0:0:0:
256,192,134788,1,8,0:0:0:0:
36,192,134901,1,2,0:0:0:0:
402,192,134901,1,2,0:0:0:0:
109,192,135013,1,2,0:0:0:0:
329,192,135013,1,2,0:0:0:0:
182,192,135126,1,2,0:0:0:0:
402,192,135126,1,2,0:0:0:0:
36,192,135238,1,2,0:0:0:0:
475,192,135238,1,2,0:0:0:0:
109,192,135350,1,2,0:0:0:0:
329,192,135350,1,2,0:0:0:0:
182,192,135463,1,2,0:0:0:0:
402,192,135463,1,2,0:0:0:0:
475,192,135575,1,8,0:0:0:0:
36,192,135575,1,8,0:0:0:0:
256,192,135575,1,4,1:0:0:0:
109,192,135687,1,8,0:0:0:0:
402,192,135687,1,8,0:0:0:0:
329,192,135800,1,8,0:0:0:0:
182,192,135800,1,8,0:0:0:0:
36,192,135912,1,8,0:0:0:0:
256,192,135912,1,8,0:0:0:0:
109,192,136024,1,8,0:0:0:0:
402,192,136024,1,8,0:0:0:0:
182,192,136137,1,8,0:0:0:0:
475,192,136137,1,8,0:0:0:0:
402,192,136249,1,2,0:0:0:0:
329,192,136249,1,2,0:0:0:0:
256,192,136361,1,2,0:0:0:0:
182,192,136361,1,2,0:0:0:0:
109,192,136474,1,2,0:0:0:0:
36,192,136474,1,2,0:0:0:0:
475,192,136586,1,2,0:0:0:0:
402,192,136586,1,2,0:0:0:0:
256,192,136699,1,2,0:0:0:0:
329,192,136699,1,2,0:0:0:0:
182,192,136811,1,2,0:0:0:0:
109,192,136811,1,2,0:0:0:0:
475,192,136923,1,2,0:0:0:0:
329,192,136923,1,4,1:0:0:0:
36,192,136923,1,4,0:0:0:0:
402,192,137036,1,2,0:0:0:0:
256,192,137036,1,2,0:0:0:0:
329,192,137148,1,2,0:0:0:0:
182,192,137148,1,2,0:0:0:0:
36,192,137260,1,2,0:0:0:0:
256,192,137260,1,2,0:0:0:0:
329,192,137373,1,2,0:0:0:0:
109,192,137373,1,2,0:0:0:0:
182,192,137485,1,2,0:0:0:0:
402,192,137485,1,2,0:0:0:0:
329,192,137597,1,2,0:0:0:0:
109,192,137597,1,2,0:0:0:0:
182,192,137710,1,2,0:0:0:0:
402,192,137710,1,2,0:0:0:0:
109,192,137822,1,2,0:0:0:0:
329,192,137822,1,2,0:0:0:0:
36,192,137935,1,2,0:0:0:0:
475,192,137935,1,2,0:0:0:0:
402,192,138047,1,2,0:0:0:0:
109,192,138047,1,2,0:0:0:0:
182,192,138159,1,2,0:0:0:0:
329,192,138159,1,2,0:0:0:0:
402,192,138272,1,8,0:0:0:0:
109,192,138272,1,8,0:0:0:0:
109,192,138384,1,8,0:0:0:0:
402,192,138384,1,8,0:0:0:0:
36,192,138496,1,8,0:0:0:0:
475,192,138496,1,8,0:0:0:0:
329,192,138609,1,8,0:0:0:0:
182,192,138609,1,8,0:0:0:0:
329,192,138721,1,8,0:0:0:0:
182,192,138721,1,8,0:0:0:0:
36,192,138833,1,8,0:0:0:0:
475,192,138833,1,8,0:0:0:0:
182,192,138946,1,8,0:0:0:0:
329,192,138946,1,8,0:0:0:0:
402,192,139030,1,8,0:0:0:0:
109,192,139030,1,8,0:0:0:0:
182,192,139114,1,8,0:0:0:0:
329,192,139114,1,8,0:0:0:0:
402,192,139199,1,8,0:0:0:0:
109,192,139199,1,8,0:0:0:0:
36,192,139283,1,8,0:0:0:0:
475,192,139283,1,8,0:0:0:0:
329,192,139367,1,8,0:0:0:0:
182,192,139367,1,8,0:0:0:0:
109,192,139451,1,8,0:0:0:0:
402,192,139451,1,8,0:0:0:0:
329,192,139536,1,8,0:0:0:0:
182,192,139536,1,8,0:0:0:0:
475,192,139620,1,8,0:0:0:0:
36,192,139620,1,8,0:0:0:0:
256,192,139620,128,0,139957:0:0:0:0:
109,192,139676,1,8,0:0:0:0:
402,192,139676,1,8,0:0:0:0:
329,192,139732,1,8,0:0:0:0:
182,192,139732,1,8,0:0:0:0:
36,192,139788,1,8,0:0:0:0:
475,192,139788,1,8,0:0:0:0:
109,192,139845,1,8,0:0:0:0:
402,192,139845,1,8,0:0:0:0:
329,192,139901,1,8,0:0:0:0:
182,192,139901,1,8,0:0:0:0:
36,192,139957,1,4,0:0:0:0:
475,192,139957,1,4,1:0:0:0:
109,192,139957,1,8,0:0:0:0:
402,192,139957,1,8,0:0:0:0:
402,192,140294,1,8,0:0:0:0:
109,192,140294,1,8,0:0:0:0:
109,192,140631,1,8,0:0:0:0:
402,192,140631,1,8,0:0:0:0:
109,192,140968,1,8,0:0:0:0:
402,192,140968,1,8,0:0:0:0:
402,192,141136,1,8,0:0:0:0:
109,192,141136,1,8,0:0:0:0:
329,192,141221,1,8,0:0:0:0:
182,192,141221,1,8,0:0:0:0:
402,192,141305,1,8,0:0:0:0:
109,192,141305,1,8,0:0:0:0:
109,192,141642,1,8,0:0:0:0:
402,192,141642,1,8,0:0:0:0:
402,192,141979,1,8,0:0:0:0:
109,192,141979,1,8,0:0:0:0:
109,192,142316,1,8,0:0:0:0:
402,192,142316,1,8,0:0:0:0:
402,192,142485,1,8,0:0:0:0:
109,192,142485,1,8,0:0:0:0:
475,192,142569,1,8,0:0:0:0:
36,192,142569,1,8,0:0:0:0:
402,192,142653,1,8,0:0:0:0:
109,192,142653,1,8,0:0:0:0:
109,192,142990,1,8,0:0:0:0:
402,192,142990,1,8,0:0:0:0:
109,192,143327,1,8,0:0:0:0:
402,192,143327,1,8,0:0:0:0:
109,192,143664,1,8,0:0:0:0:
402,192,143664,1,8,0:0:0:0:
402,192,143833,1,8,0:0:0:0:
109,192,143833,1,8,0:0:0:0:
329,192,143917,1,8,0:0:0:0:
182,192,143917,1,8,0:0:0:0:
402,192,144001,128,8,144339:0:0:0:0:
109,192,144001,128,8,144339:0:0:0:0:
329,192,144339,1,8,0:0:0:0:
182,192,144339,1,8,0:0:0:0:
475,192,144423,1,8,0:0:0:0:
36,192,144423,1,8,0:0:0:0:
329,192,144507,1,8,0:0:0:0:
182,192,144507,1,8,0:0:0:0:
475,192,144591,1,8,0:0:0:0:
36,192,144591,1,8,0:0:0:0:
329,192,144676,1,8,0:0:0:0:
182,192,144676,1,8,0:0:0:0:
475,192,144844,1,8,0:0:0:0:
256,192,144844,1,8,0:0:0:0:
402,192,145013,1,8,0:0:0:0:
182,192,145013,1,8,0:0:0:0:
329,192,145181,1,8,0:0:0:0:
109,192,145181,1,8,0:0:0:0:
402,192,145350,1,8,0:0:0:0:
182,192,145350,1,8,0:0:0:0:
402,192,145687,1,8,0:0:0:0:
182,192,145687,1,8,0:0:0:0:
402,192,146024,1,8,0:0:0:0:
182,192,146024,1,8,0:0:0:0:
182,192,146361,1,8,0:0:0:0:
402,192,146361,1,8,0:0:0:0:
182,192,146530,1,8,0:0:0:0:
402,192,146530,1,8,0:0:0:0:
109,192,146614,1,8,0:0:0:0:
329,192,146614,1,8,0:0:0:0:
402,192,146698,1,8,0:0:0:0:
182,192,146698,1,8,0:0:0:0:
402,192,147035,1,8,0:0:0:0:
182,192,147035,1,8,0:0:0:0:
402,192,147372,1,8,0:0:0:0:
182,192,147372,1,8,0:0:0:0:
182,192,147709,1,8,0:0:0:0:
402,192,147709,1,8,0:0:0:0:
182,192,147878,1,8,0:0:0:0:
402,192,147878,1,8,0:0:0:0:
475,192,147962,1,8,0:0:0:0:
256,192,147962,1,8,0:0:0:0:
182,192,148046,1,8,0:0:0:0:
402,192,148046,1,8,0:0:0:0:
402,192,148383,1,8,0:0:0:0:
182,192,148383,1,8,0:0:0:0:
402,192,148721,1,8,0:0:0:0:
182,192,148721,1,8,0:0:0:0:
402,192,149058,1,8,0:0:0:0:
182,192,149058,1,8,0:0:0:0:
182,192,149226,1,8,0:0:0:0:
402,192,149226,1,8,0:0:0:0:
256,192,149310,1,8,0:0:0:0:
36,192,149310,1,8,0:0:0:0:
402,192,149395,128,8,149732:0:0:0:0:
182,192,149395,128,8,149732:0:0:0:0:
329,192,149732,1,8,0:0:0:0:
256,192,149732,1,8,0:0:0:0:
109,192,149816,1,8,0:0:0:0:
475,192,149816,1,8,0:0:0:0:
256,192,149900,1,8,0:0:0:0:
329,192,149900,1,8,0:0:0:0:
109,192,149985,1,8,0:0:0:0:
475,192,149985,1,8,0:0:0:0:
329,192,150069,1,8,0:0:0:0:
256,192,150069,1,8,0:0:0:0:
36,192,150237,1,8,0:0:0:0:
402,192,150237,1,8,0:0:0:0:
329,192,150406,1,8,0:0:0:0:
109,192,150406,1,8,0:0:0:0:
182,192,150574,1,8,0:0:0:0:
256,192,150574,1,8,0:0:0:0:
109,192,150743,1,8,0:0:0:0:
475,192,150743,1,4,1:0:0:0:
329,192,150743,1,8,0:0:0:0:
329,192,151080,1,8,0:0:0:0:
109,192,151080,1,8,0:0:0:0:
329,192,151417,1,8,0:0:0:0:
109,192,151417,1,8,0:0:0:0:
329,192,151754,1,8,0:0:0:0:
109,192,151754,1,8,0:0:0:0:
329,192,151923,1,8,0:0:0:0:
109,192,151923,1,8,0:0:0:0:
402,192,152007,1,8,0:0:0:0:
182,192,152007,1,8,0:0:0:0:
329,192,152091,1,8,0:0:0:0:
109,192,152091,1,8,0:0:0:0:
109,192,152428,1,8,0:0:0:0:
329,192,152428,1,8,0:0:0:0:
109,192,152765,1,8,0:0:0:0:
329,192,152765,1,8,0:0:0:0:
109,192,153103,1,8,0:0:0:0:
329,192,153103,1,8,0:0:0:0:
109,192,153271,1,8,0:0:0:0:
329,192,153271,1,8,0:0:0:0:
36,192,153355,1,8,0:0:0:0:
256,192,153355,1,8,0:0:0:0:
109,192,153440,1,8,0:0:0:0:
329,192,153440,1,8,0:0:0:0:
109,192,153777,1,8,0:0:0:0:
329,192,153777,1,8,0:0:0:0:
329,192,154114,1,8,0:0:0:0:
109,192,154114,1,8,0:0:0:0:
329,192,154451,1,8,0:0:0:0:
109,192,154451,1,8,0:0:0:0:
329,192,154619,1,8,0:0:0:0:
109,192,154619,1,8,0:0:0:0:
475,192,154704,1,8,0:0:0:0:
256,192,154704,1,8,0:0:0:0:
329,192,154788,128,8,155125:0:0:0:0:
109,192,154788,128,8,155125:0:0:0:0:
256,192,155125,1,8,0:0:0:0:
182,192,155125,1,8,0:0:0:0:
402,192,155209,1,8,0:0:0:0:
36,192,155209,1,8,0:0:0:0:
256,192,155294,1,8,0:0:0:0:
182,192,155294,1,8,0:0:0:0:
402,192,155378,1,8,0:0:0:0:
36,192,155378,1,8,0:0:0:0:
256,192,155462,1,8,0:0:0:0:
182,192,155462,1,8,0:0:0:0:
475,192,155631,1,8,0:0:0:0:
36,192,155631,1,8,0:0:0:0:
402,192,155799,1,8,0:0:0:0:
109,192,155799,1,8,0:0:0:0:
329,192,155968,1,8,0:0:0:0:
182,192,155968,1,8,0:0:0:0:
256,192,156136,1,4,1:0:0:0:
36,192,156136,1,8,0:0:0:0:
475,192,156136,1,8,0:0:0:0:
475,192,156473,1,8,0:0:0:0:
36,192,156473,1,8,0:0:0:0:
475,192,156810,1,8,0:0:0:0:
36,192,156810,1,8,0:0:0:0:
475,192,157148,1,8,0:0:0:0:
36,192,157148,1,8,0:0:0:0:
36,192,157316,1,8,0:0:0:0:
475,192,157316,1,8,0:0:0:0:
182,192,157400,1,8,0:0:0:0:
329,192,157400,1,8,0:0:0:0:
475,192,157485,1,8,0:0:0:0:
256,192,157485,1,4,1:0:0:0:
36,192,157485,1,8,0:0:0:0:
475,192,157822,1,8,0:0:0:0:
36,192,157822,1,8,0:0:0:0:
475,192,158159,1,8,0:0:0:0:
36,192,158159,1,8,0:0:0:0:
475,192,158496,1,8,0:0:0:0:
36,192,158496,1,8,0:0:0:0:
475,192,158664,1,8,0:0:0:0:
36,192,158664,1,8,0:0:0:0:
402,192,158749,1,8,0:0:0:0:
109,192,158749,1,8,0:0:0:0:
475,192,158833,1,8,0:0:0:0:
36,192,158833,1,8,0:0:0:0:
256,192,158833,1,4,1:0:0:0:
475,192,159170,1,8,0:0:0:0:
36,192,159170,1,8,0:0:0:0:
475,192,159507,1,8,0:0:0:0:
36,192,159507,1,8,0:0:0:0:
475,192,159844,1,8,0:0:0:0:
36,192,159844,1,8,0:0:0:0:
36,192,160013,1,8,0:0:0:0:
475,192,160013,1,8,0:0:0:0:
329,192,160097,1,8,0:0:0:0:
182,192,160097,1,8,0:0:0:0:
36,192,160181,128,8,160518:0:0:0:0:
475,192,160181,128,8,160518:0:0:0:0:
109,192,160518,1,8,0:0:0:0:
182,192,160518,1,8,0:0:0:0:
402,192,160603,1,8,0:0:0:0:
329,192,160603,1,8,0:0:0:0:
109,192,160687,1,8,0:0:0:0:
182,192,160687,1,8,0:0:0:0:
329,192,160771,1,8,0:0:0:0:
402,192,160771,1,8,0:0:0:0:
36,192,160855,1,8,0:0:0:0:
182,192,160855,1,8,0:0:0:0:
329,192,161024,1,8,0:0:0:0:
475,192,161024,1,8,0:0:0:0:
256,192,161192,1,8,0:0:0:0:
402,192,161192,1,8,0:0:0:0:
182,192,161361,1,8,0:0:0:0:
329,192,161361,1,8,0:0:0:0:
182,192,161530,128,8,163215:0:0:0:0:
329,192,161530,1,8,0:0:0:0:
475,192,162204,128,2,162541:0:0:0:0:
402,192,162541,128,2,162878:0:0:0:0:
329,192,162878,128,2,163215:0:0:0:0:
256,192,163215,1,0,0:0:0:0:
475,192,163215,1,4,0:0:0:0:
36,192,163215,1,0,1:0:0:0:
109,192,163215,1,4,1:0:0:0:
402,192,163299,1,0,0:0:0:0:
256,192,163383,1,0,0:0:0:0:
402,192,163467,1,0,0:0:0:0:
36,192,163552,1,8,1:0:0:0:
109,192,163552,1,0,0:0:0:0:
329,192,163636,1,0,0:0:0:0:
182,192,163720,1,0,0:0:0:0:
329,192,163804,1,0,0:0:0:0:
36,192,163889,1,0,0:0:0:0:
256,192,163973,1,0,0:0:0:0:
109,192,164057,1,0,0:0:0:0:
329,192,164141,1,0,0:0:0:0:
36,192,164226,1,8,1:0:0:0:
182,192,164226,1,0,0:0:0:0:
402,192,164310,1,0,0:0:0:0:
256,192,164394,1,0,0:0:0:0:
402,192,164479,1,0,0:0:0:0:
475,192,164563,1,0,0:0:0:0:
109,192,164647,1,0,0:0:0:0:
329,192,164731,1,0,0:0:0:0:
182,192,164816,1,0,0:0:0:0:
402,192,164900,1,8,1:0:0:0:
475,192,164900,1,0,0:0:0:0:
109,192,164984,1,0,0:0:0:0:
329,192,165068,1,0,0:0:0:0:
182,192,165153,1,0,0:0:0:0:
475,192,165237,1,0,0:0:0:0:
109,192,165321,1,0,0:0:0:0:
329,192,165406,1,0,0:0:0:0:
182,192,165490,1,0,0:0:0:0:
475,192,165574,1,0,0:0:0:0:
402,192,165574,1,8,1:0:0:0:
109,192,165658,1,0,0:0:0:0:
329,192,165743,1,0,0:0:0:0:
182,192,165827,1,0,0:0:0:0:
475,192,165911,1,0,0:0:0:0:
256,192,165995,1,0,0:0:0:0:
402,192,166080,1,0,0:0:0:0:
182,192,166164,1,0,0:0:0:0:
402,192,166248,1,0,0:0:0:0:
36,192,166248,1,8,1:0:0:0:
182,192,166332,1,0,0:0:0:0:
329,192,166417,1,0,0:0:0:0:
109,192,166501,1,0,0:0:0:0:
475,192,166585,1,0,0:0:0:0:
256,192,166670,1,0,0:0:0:0:
402,192,166754,1,0,0:0:0:0:
182,192,166838,1,0,0:0:0:0:
36,192,166922,1,8,1:0:0:0:
475,192,166922,1,0,0:0:0:0:
182,192,167007,1,0,0:0:0:0:
402,192,167091,1,0,0:0:0:0:
109,192,167175,1,0,0:0:0:0:
402,192,167259,128,0,167765:0:0:0:0:
475,192,167259,128,8,167765:0:0:0:0:
109,192,167428,128,8,167765:0:0:0:0:
36,192,167428,128,0,167765:0:0:0:0:
182,192,167597,1,8,1:0:0:0:
329,192,167597,1,0,0:0:0:0:
256,192,167765,1,0,0:0:0:0:
329,192,167849,1,0,0:0:0:0:
109,192,167934,1,0,0:0:0:0:
182,192,168018,1,0,0:0:0:0:
256,192,168102,1,0,0:0:0:0:
329,192,168186,1,0,0:0:0:0:
36,192,168271,1,8,1:0:0:0:
182,192,168271,1,0,0:0:0:0:
256,192,168355,1,0,0:0:0:0:
329,192,168439,1,0,0:0:0:0:
402,192,168523,1,0,0:0:0:0:
475,192,168608,1,8,0:0:0:0:
36,192,168608,1,0,0:0:0:0:
109,192,168734,1,0,0:0:0:0:
402,192,168734,1,8,0:0:0:0:
329,192,168776,1,8,0:0:0:0:
182,192,168776,1,0,0:0:0:0:
256,192,168945,1,8,1:0:0:0:
36,192,168945,1,0,0:0:0:0:
475,192,168945,1,8,0:0:0:0:
182,192,169071,1,0,0:0:0:0:
329,192,169071,1,8,0:0:0:0:
109,192,169113,1,0,0:0:0:0:
402,192,169113,1,8,0:0:0:0:
182,192,169282,1,0,0:0:0:0:
329,192,169282,1,8,0:0:0:0:
109,192,169408,1,0,0:0:0:0:
402,192,169408,1,8,0:0:0:0:
182,192,169450,1,0,0:0:0:0:
329,192,169450,1,8,0:0:0:0:
36,192,169619,1,0,0:0:0:0:
475,192,169619,1,8,0:0:0:0:
256,192,169619,1,8,1:0:0:0:
109,192,169745,1,0,0:0:0:0:
402,192,169745,1,8,0:0:0:0:
182,192,169788,1,0,0:0:0:0:
329,192,169788,1,8,0:0:0:0:
256,192,169956,1,0,0:0:0:0:
182,192,170040,1,0,0:0:0:0:
109,192,170125,1,0,0:0:0:0:
182,192,170209,1,0,0:0:0:0:
36,192,170293,1,8,1:0:0:0:
329,192,170293,1,0,0:0:0:0:
256,192,170377,1,0,0:0:0:0:
182,192,170462,1,0,0:0:0:0:
256,192,170546,1,0,0:0:0:0:
475,192,170630,1,8,0:0:0:0:
329,192,170630,1,0,0:0:0:0:
256,192,170799,1,8,0:0:0:0:
109,192,170799,1,0,0:0:0:0:
402,192,170967,1,0,0:0:0:0:
182,192,170967,1,8,1:0:0:0:
475,192,170967,1,8,0:0:0:0:
402,192,171136,1,0,0:0:0:0:
475,192,171136,1,8,0:0:0:0:
329,192,171220,1,8,0:0:0:0:
256,192,171220,1,0,0:0:0:0:
402,192,171304,1,0,0:0:0:0:
109,192,171304,1,2,0:0:0:0:
182,192,171389,1,0,0:0:0:0:
256,192,171473,1,0,0:0:0:0:
329,192,171557,1,0,0:0:0:0:
109,192,171641,1,0,0:0:0:0:
475,192,171641,1,8,1:0:0:0:
256,192,171641,1,8,0:0:0:0:
402,192,171726,1,0,0:0:0:0:
329,192,171810,1,0,0:0:0:0:
402,192,171894,1,0,0:0:0:0:
182,192,171979,1,0,0:0:0:0:
36,192,171979,1,0,0:0:0:0:
329,192,171979,1,8,0:0:0:0:
475,192,172063,1,0,0:0:0:0:
402,192,172147,1,0,0:0:0:0:
475,192,172231,1,0,0:0:0:0:
256,192,172316,1,0,0:0:0:0:
109,192,172316,1,8,1:0:0:0:
402,192,172316,1,8,0:0:0:0:
182,192,172400,1,0,0:0:0:0:
109,192,172484,1,0,0:0:0:0:
36,192,172568,1,0,0:0:0:0:
256,192,172653,1,0,1:0:0:0:
402,192,172653,1,0,0:0:0:0:
475,192,172653,1,8,0:0:0:0:
182,192,172737,1,0,1:0:0:0:
329,192,172737,1,0,0:0:0:0:
109,192,172821,1,0,1:0:0:0:
402,192,172821,1,0,0:0:0:0:
182,192,172906,1,0,1:0:0:0:
475,192,172906,1,0,0:0:0:0:
256,192,172990,1,8,0:0:0:0:
36,192,172990,1,0,1:0:0:0:
329,192,172990,1,8,1:0:0:0:
402,192,173074,1,0,0:0:0:0:
109,192,173074,1,0,1:0:0:0:
182,192,173158,1,0,1:0:0:0:
475,192,173158,1,0,0:0:0:0:
256,192,173243,1,0,0:0:0:0:
36,192,173243,1,0,1:0:0:0:
329,192,173327,1,8,0:0:0:0:
402,192,173327,1,0,0:0:0:0:
109,192,173327,1,0,1:0:0:0:
475,192,173411,1,0,0:0:0:0:
182,192,173411,1,0,1:0:0:0:
256,192,173495,1,0,0:0:0:0:
36,192,173495,1,0,1:0:0:0:
329,192,173580,1,0,0:0:0:0:
109,192,173580,1,0,1:0:0:0:
402,192,173664,1,8,0:0:0:0:
475,192,173664,1,8,1:0:0:0:
182,192,173664,1,0,1:0:0:0:
36,192,173748,1,0,1:0:0:0:
256,192,173748,1,0,0:0:0:0:
109,192,173832,1,0,1:0:0:0:
329,192,173832,1,0,0:0:0:0:
402,192,173917,1,0,0:0:0:0:
182,192,173917,1,0,1:0:0:0:
256,192,174001,1,0,0:0:0:0:
36,192,174001,1,4,1:0:0:0:
475,192,174001,1,4,0:0:0:0:
109,192,174001,1,0,0:0:0:0:
182,192,174085,1,0,0:0:0:0:
109,192,174170,1,0,0:0:0:0:
256,192,174254,1,0,0:0:0:0:
329,192,174338,1,0,0:0:0:0:
475,192,174338,1,8,1:0:0:0:
182,192,174422,1,0,0:0:0:0:
256,192,174507,1,0,0:0:0:0:
329,192,174591,1,0,0:0:0:0:
36,192,174675,1,0,0:0:0:0:
109,192,174759,1,0,0:0:0:0:
182,192,174844,1,0,0:0:0:0:
256,192,174928,1,0,0:0:0:0:
329,192,175012,1,0,0:0:0:0:
109,192,175012,1,8,1:0:0:0:
402,192,175097,1,0,0:0:0:0:
475,192,175181,1,0,0:0:0:0:
36,192,175265,1,0,0:0:0:0:
402,192,175349,1,8,0:0:0:0:
109,192,175349,1,0,0:0:0:0:
256,192,175518,1,8,0:0:0:0:
182,192,175518,1,0,0:0:0:0:
329,192,175686,1,8,0:0:0:0:
36,192,175686,1,0,0:0:0:0:
475,192,175686,1,8,1:0:0:0:
109,192,175855,1,0,0:0:0:0:
182,192,175855,1,8,0:0:0:0:
256,192,176023,1,8,0:0:0:0:
402,192,176023,1,0,0:0:0:0:
36,192,176192,1,0,0:0:0:0:
109,192,176192,1,8,0:0:0:0:
475,192,176361,1,8,1:0:0:0:
329,192,176361,1,8,0:0:0:0:
402,192,176361,1,0,0:0:0:0:
182,192,176529,1,8,0:0:0:0:
109,192,176529,1,0,0:0:0:0:
475,192,176698,1,0,0:0:0:0:
402,192,176782,1,0,0:0:0:0:
329,192,176866,1,0,0:0:0:0:
256,192,176950,1,0,0:0:0:0:
475,192,177035,1,0,0:0:0:0:
36,192,177035,1,8,1:0:0:0:
402,192,177119,1,0,0:0:0:0:
329,192,177203,1,0,0:0:0:0:
256,192,177288,1,0,0:0:0:0:
109,192,177372,1,0,0:0:0:0:
182,192,177456,1,0,0:0:0:0:
402,192,177540,1,0,0:0:0:0:
329,192,177625,1,0,0:0:0:0:
256,192,177709,1,0,0:0:0:0:
36,192,177709,1,8,1:0:0:0:
109,192,177793,1,0,0:0:0:0:
329,192,177877,1,0,0:0:0:0:
256,192,177962,1,0,0:0:0:0:
402,192,178046,1,0,0:0:0:0:
182,192,178130,1,0,0:0:0:0:
256,192,178215,1,0,0:0:0:0:
329,192,178299,1,0,0:0:0:0:
475,192,178383,1,0,0:0:0:0:
109,192,178383,1,8,1:0:0:0:
402,192,178467,1,0,0:0:0:0:
329,192,178552,1,0,0:0:0:0:
256,192,178636,1,0,0:0:0:0:
402,192,178720,1,0,1:0:0:0:
36,192,178720,1,0,0:0:0:0:
475,192,178720,1,0,1:0:0:0:
109,192,178804,1,0,0:0:0:0:
402,192,178889,1,0,1:0:0:0:
182,192,178889,1,0,0:0:0:0:
475,192,178889,1,0,1:0:0:0:
109,192,178973,1,0,0:0:0:0:
256,192,179057,1,0,0:0:0:0:
36,192,179057,1,8,1:0:0:0:
182,192,179141,1,0,0:0:0:0:
329,192,179226,1,0,0:0:0:0:
109,192,179226,1,0,1:0:0:0:
475,192,179226,1,0,1:0:0:0:
256,192,179310,1,0,0:0:0:0:
36,192,179394,1,0,0:0:0:0:
475,192,179394,1,8,0:0:0:0:
182,192,179394,1,4,1:0:0:0:
109,192,179521,1,0,0:0:0:0:
402,192,179521,1,8,0:0:0:0:
329,192,179563,1,8,0:0:0:0:
182,192,179563,1,0,0:0:0:0:
36,192,179731,1,0,0:0:0:0:
475,192,179731,1,8,0:0:0:0:
256,192,179731,1,8,1:0:0:0:
182,192,179858,1,0,0:0:0:0:
329,192,179858,1,8,0:0:0:0:
402,192,179900,1,8,0:0:0:0:
109,192,179900,1,0,0:0:0:0:
182,192,180068,1,0,0:0:0:0:
329,192,180068,1,8,0:0:0:0:
109,192,180195,1,0,0:0:0:0:
402,192,180195,1,8,0:0:0:0:
182,192,180237,1,0,0:0:0:0:
329,192,180237,1,8,0:0:0:0:
475,192,180406,1,8,0:0:0:0:
36,192,180406,1,0,0:0:0:0:
256,192,180406,1,8,1:0:0:0:
109,192,180490,1,0,0:0:0:0:
402,192,180490,1,8,0:0:0:0:
329,192,180574,1,8,0:0:0:0:
182,192,180574,1,0,0:0:0:0:
402,192,180743,1,4,1:0:0:0:
36,192,180743,1,0,0:0:0:0:
475,192,180743,1,8,0:0:0:0:
329,192,180869,1,8,0:0:0:0:
109,192,180869,1,0,0:0:0:0:
182,192,180911,1,0,0:0:0:0:
402,192,180911,1,8,0:0:0:0:
256,192,181080,1,8,1:0:0:0:
36,192,181080,1,0,0:0:0:0:
475,192,181080,1,8,0:0:0:0:
109,192,181206,1,0,0:0:0:0:
402,192,181206,1,8,0:0:0:0:
182,192,181248,1,0,0:0:0:0:
329,192,181248,1,8,0:0:0:0:
475,192,181417,1,8,0:0:0:0:
36,192,181417,1,0,0:0:0:0:
182,192,181543,1,0,0:0:0:0:
402,192,181543,1,8,0:0:0:0:
329,192,181585,1,8,0:0:0:0:
109,192,181585,1,0,0:0:0:0:
475,192,181754,1,8,0:0:0:0:
36,192,181754,1,0,0:0:0:0:
256,192,181754,1,8,1:0:0:0:
402,192,181922,1,8,0:0:0:0:
109,192,181922,1,0,0:0:0:0:
329,192,182091,1,0,0:0:0:0:
182,192,182091,1,0,1:0:0:0:
475,192,182091,1,4,1:0:0:0:
36,192,182175,1,0,1:0:0:0:
182,192,182259,1,0,1:0:0:0:
329,192,182259,1,0,0:0:0:0:
36,192,182344,1,0,1:0:0:0:
182,192,182428,1,0,1:0:0:0:
329,192,182428,1,8,1:0:0:0:
36,192,182512,1,0,1:0:0:0:
402,192,182597,1,0,0:0:0:0:
256,192,182597,1,0,1:0:0:0:
109,192,182681,1,0,1:0:0:0:
182,192,182765,1,0,0:0:0:0:
329,192,182765,1,0,1:0:0:0:
475,192,182849,1,0,1:0:0:0:
329,192,182934,1,0,1:0:0:0:
182,192,182934,1,0,0:0:0:0:
475,192,183018,1,0,1:0:0:0:
182,192,183102,1,8,1:0:0:0:
329,192,183102,1,0,1:0:0:0:
475,192,183186,1,0,1:0:0:0:
36,192,183271,1,0,1:0:0:0:
256,192,183271,1,0,0:0:0:0:
109,192,183355,1,0,1:0:0:0:
182,192,183439,1,0,1:0:0:0:
475,192,183439,128,8,184113:0:0:0:0:
329,192,183523,1,0,1:0:0:0:
182,192,183608,1,0,1:0:0:0:
402,192,183692,1,0,1:0:0:0:
256,192,183776,1,0,1:0:0:0:
109,192,183776,1,8,1:0:0:0:
402,192,183861,1,0,1:0:0:0:
256,192,183945,1,0,1:0:0:0:
402,192,184029,1,0,1:0:0:0:
182,192,184113,1,0,1:0:0:0:
329,192,184113,128,8,184788:0:0:0:0:
36,192,184113,1,0,1:0:0:0:
256,192,184198,1,0,1:0:0:0:
109,192,184282,1,0,1:0:0:0:
182,192,184282,1,0,1:0:0:0:
256,192,184366,1,0,1:0:0:0:
109,192,184450,1,8,1:0:0:0:
36,192,184450,1,0,1:0:0:0:
402,192,184450,128,8,184788:0:0:0:0:
182,192,184535,1,0,1:0:0:0:
109,192,184619,1,0,1:0:0:0:
36,192,184619,1,0,1:0:0:0:
182,192,184703,1,0,1:0:0:0:
256,192,184788,1,0,0:0:0:0:
109,192,184788,1,0,0:0:0:0:
475,192,184788,128,2,185799:0:0:0:0:
36,192,184788,1,4,0:0:0:0:
109,192,184956,1,0,2:0:0:0:
256,192,185125,1,0,0:0:0:0:
329,192,185125,1,8,0:0:0:0:
109,192,185293,1,0,2:0:0:0:
256,192,185462,1,0,0:0:0:0:
109,192,185630,1,0,2:0:0:0:
329,192,185799,128,2,186136:0:0:0:0:
182,192,185799,1,8,0:0:0:0:
36,192,185799,1,0,0:0:0:0:
109,192,185967,1,0,2:0:0:0:
182,192,186136,128,2,187147:0:0:0:0:
36,192,186136,1,0,0:0:0:0:
475,192,186136,1,0,0:0:0:0:
402,192,186304,1,0,2:0:0:0:
256,192,186473,1,0,0:0:0:0:
36,192,186473,1,8,0:0:0:0:
402,192,186641,1,0,2:0:0:0:
475,192,186810,1,0,0:0:0:0:
329,192,186979,1,0,2:0:0:0:
256,192,187147,128,2,187484:0:0:0:0:
475,192,187147,1,8,0:0:0:0:
36,192,187147,1,0,0:0:0:0:
329,192,187316,1,0,2:0:0:0:
402,192,187484,128,2,188495:0:0:0:0:
109,192,187484,1,0,0:0:0:0:
36,192,187484,1,0,0:0:0:0:
182,192,187653,1,0,2:0:0:0:
256,192,187821,1,0,0:0:0:0:
475,192,187821,1,8,0:0:0:0:
182,192,187990,1,0,2:0:0:0:
36,192,188158,1,0,0:0:0:0:
109,192,188327,1,0,2:0:0:0:
256,192,188495,128,2,188832:0:0:0:0:
182,192,188495,1,0,0:0:0:0:
475,192,188495,1,8,0:0:0:0:
109,192,188664,1,0,2:0:0:0:
109,192,188832,128,2,189844:0:0:0:0:
402,192,188832,1,0,0:0:0:0:
475,192,188832,1,0,0:0:0:0:
256,192,189001,1,0,2:0:0:0:
329,192,189170,1,8,0:0:0:0:
475,192,189170,1,0,0:0:0:0:
256,192,189338,1,0,2:0:0:0:
402,192,189507,1,0,0:0:0:0:
256,192,189675,1,0,2:0:0:0:
182,192,189844,128,2,190181:0:0:0:0:
329,192,189844,1,8,0:0:0:0:
475,192,189844,1,0,0:0:0:0:
256,192,190012,1,0,2:0:0:0:
329,192,190181,128,2,191192:0:0:0:0:
36,192,190181,1,0,0:0:0:0:
475,192,190181,1,0,0:0:0:0:
182,192,190349,1,0,2:0:0:0:
109,192,190518,1,8,0:0:0:0:
36,192,190518,1,0,0:0:0:0:
182,192,190686,1,0,2:0:0:0:
475,192,190855,1,0,0:0:0:0:
256,192,191023,1,0,2:0:0:0:
182,192,191192,128,2,191529:0:0:0:0:
402,192,191192,1,0,0:0:0:0:
36,192,191192,1,8,0:0:0:0:
475,192,191361,1,0,2:0:0:0:
36,192,191529,128,2,192540:0:0:0:0:
402,192,191529,1,0,0:0:0:0:
329,192,191529,1,0,0:0:0:0:
256,192,191698,1,0,2:0:0:0:
329,192,191866,1,0,0:0:0:0:
475,192,191866,1,8,0:0:0:0:
256,192,192035,1,0,2:0:0:0:
329,192,192203,1,0,0:0:0:0:
182,192,192372,1,0,2:0:0:0:
109,192,192540,128,2,192877:0:0:0:0:
329,192,192540,1,0,0:0:0:0:
475,192,192540,1,8,0:0:0:0:
182,192,192709,1,0,2:0:0:0:
256,192,192877,128,2,193804:0:0:0:0:
475,192,192877,1,0,0:0:0:0:
36,192,192877,1,0,0:0:0:0:
182,192,193046,1,0,2:0:0:0:
329,192,193214,1,8,0:0:0:0:
36,192,193214,1,0,0:0:0:0:
182,192,193383,1,0,2:0:0:0:
475,192,193552,1,0,0:0:0:0:
182,192,193720,1,0,2:0:0:0:
256,192,193889,128,2,194226:0:0:0:0:
36,192,193889,1,0,0:0:0:0:
475,192,193889,1,8,0:0:0:0:
329,192,194057,1,0,2:0:0:0:
182,192,194226,128,2,194731:0:0:0:0:
475,192,194226,1,0,0:0:0:0:
329,192,194310,1,0,0:0:0:0:
475,192,194394,1,0,0:0:0:0:
329,192,194479,1,0,0:0:0:0:
475,192,194563,1,0,0:0:0:0:
402,192,194647,1,0,0:0:0:0:
329,192,194731,128,2,195237:0:0:0:0:
36,192,194731,1,0,0:0:0:0:
182,192,194816,1,0,0:0:0:0:
36,192,194900,1,0,0:0:0:0:
182,192,194984,1,0,0:0:0:0:
36,192,195068,1,0,0:0:0:0:
109,192,195153,1,0,0:0:0:0:
475,192,195237,128,2,195574:0:0:0:0:
182,192,195237,1,0,0:0:0:0:
329,192,195321,1,0,0:0:0:0:
182,192,195406,1,0,0:0:0:0:
329,192,195490,1,0,0:0:0:0:
109,192,195574,1,0,0:0:0:0:
256,192,195574,1,0,0:0:0:0:
402,192,195574,1,4,0:0:0:0:
36,192,195743,1,0,2:0:0:0:
182,192,195743,1,0,2:0:0:0:
329,192,195911,1,0,0:0:0:0:
475,192,195911,1,8,0:0:0:0:
109,192,195911,1,0,0:0:0:0:
182,192,196080,1,0,2:0:0:0:
36,192,196080,1,0,2:0:0:0:
402,192,196248,1,0,0:0:0:0:
256,192,196248,1,0,0:0:0:0:
182,192,196417,1,0,2:0:0:0:
36,192,196417,1,0,2:0:0:0:
475,192,196585,1,8,0:0:0:0:
329,192,196585,1,0,0:0:0:0:
109,192,196585,1,0,0:0:0:0:
36,192,196754,1,0,2:0:0:0:
182,192,196754,1,0,2:0:0:0:
109,192,196922,1,0,0:0:0:0:
402,192,196922,1,0,0:0:0:0:
109,192,197091,1,0,2:0:0:0:
402,192,197091,1,0,2:0:0:0:
182,192,197259,1,0,0:0:0:0:
475,192,197259,1,8,0:0:0:0:
329,192,197259,1,0,0:0:0:0:
256,192,197428,1,0,2:0:0:0:
109,192,197428,1,0,2:0:0:0:
402,192,197597,1,0,0:0:0:0:
182,192,197597,1,0,0:0:0:0:
182,192,197765,1,0,2:0:0:0:
402,192,197765,1,0,2:0:0:0:
182,192,197934,1,0,0:0:0:0:
329,192,197934,1,0,0:0:0:0:
475,192,197934,1,8,0:0:0:0:
109,192,198102,1,0,2:0:0:0:
256,192,198102,1,0,2:0:0:0:
256,192,198271,1,0,0:0:0:0:
402,192,198271,1,0,0:0:0:0:
36,192,198439,1,0,2:0:0:0:
182,192,198439,1,0,2:0:0:0:
109,192,198608,1,0,0:0:0:0:
329,192,198608,1,8,0:0:0:0:
475,192,198608,1,0,0:0:0:0:
182,192,198776,1,0,2:0:0:0:
36,192,198776,1,0,2:0:0:0:
256,192,198945,1,0,0:0:0:0:
402,192,198945,1,0,0:0:0:0:
182,192,199113,1,0,2:0:0:0:
36,192,199113,1,0,2:0:0:0:
109,192,199282,1,0,0:0:0:0:
329,192,199282,1,8,0:0:0:0:
475,192,199282,1,0,0:0:0:0:
36,192,199450,1,0,2:0:0:0:
182,192,199450,1,0,2:0:0:0:
256,192,199619,1,0,0:0:0:0:
402,192,199619,1,0,0:0:0:0:
256,192,199788,1,0,2:0:0:0:
402,192,199788,1,0,2:0:0:0:
329,192,199956,1,8,0:0:0:0:
475,192,199956,1,0,0:0:0:0:
182,192,199956,1,0,0:0:0:0:
256,192,200125,1,0,2:0:0:0:
36,192,200125,1,0,2:0:0:0:
329,192,200293,1,0,0:0:0:0:
109,192,200293,1,0,0:0:0:0:
329,192,200462,1,0,2:0:0:0:
109,192,200462,1,0,2:0:0:0:
182,192,200630,1,8,0:0:0:0:
402,192,200630,1,0,0:0:0:0:
36,192,200630,1,0,0:0:0:0:
109,192,200799,1,0,2:0:0:0:
475,192,200799,1,0,2:0:0:0:
329,192,200799,1,8,0:0:0:0:
256,192,200883,1,8,0:0:0:0:
36,192,200967,1,0,0:0:0:0:
182,192,200967,1,0,0:0:0:0:
402,192,200967,1,4,0:0:0:0:
475,192,201136,1,0,2:0:0:0:
329,192,201136,1,0,2:0:0:0:
402,192,201304,1,0,0:0:0:0:
36,192,201304,1,0,0:0:0:0:
182,192,201304,1,8,0:0:0:0:
329,192,201473,1,0,2:0:0:0:
475,192,201473,1,0,2:0:0:0:
256,192,201641,1,0,0:0:0:0:
109,192,201641,1,0,0:0:0:0:
329,192,201810,1,0,2:0:0:0:
475,192,201810,1,0,2:0:0:0:
402,192,201979,1,0,0:0:0:0:
182,192,201979,1,8,0:0:0:0:
36,192,201979,1,0,0:0:0:0:
329,192,202147,1,0,2:0:0:0:
475,192,202147,1,0,2:0:0:0:
402,192,202316,1,0,0:0:0:0:
256,192,202316,1,0,0:0:0:0:
109,192,202316,1,4,0:0:0:0:
182,192,202484,1,0,2:0:0:0:
36,192,202484,1,0,2:0:0:0:
109,192,202653,1,0,0:0:0:0:
329,192,202653,1,8,0:0:0:0:
475,192,202653,1,0,0:0:0:0:
36,192,202821,1,0,2:0:0:0:
182,192,202821,1,0,2:0:0:0:
329,192,202906,1,8,0:0:0:0:
475,192,202906,1,0,0:0:0:0:
182,192,202990,1,0,0:0:0:0:
402,192,202990,1,0,0:0:0:0:
329,192,203074,1,8,0:0:0:0:
475,192,203074,1,0,0:0:0:0:
182,192,203158,1,8,0:0:0:0:
36,192,203158,1,0,2:0:0:0:
109,192,203327,1,0,0:0:0:0:
475,192,203327,1,0,0:0:0:0:
329,192,203327,1,8,0:0:0:0:
36,192,203495,1,0,2:0:0:0:
182,192,203495,1,0,2:0:0:0:
256,192,203664,1,0,0:0:0:0:
402,192,203664,1,4,0:0:0:0:
475,192,203664,1,0,0:0:0:0:
109,192,203832,1,0,2:0:0:0:
182,192,203832,1,0,2:0:0:0:
36,192,204001,1,0,0:0:0:0:
329,192,204001,1,8,0:0:0:0:
475,192,204001,1,0,0:0:0:0:
182,192,204170,1,0,2:0:0:0:
109,192,204170,1,0,2:0:0:0:
402,192,204254,1,8,0:0:0:0:
475,192,204254,1,0,0:0:0:0:
256,192,204338,1,0,0:0:0:0:
329,192,204338,1,0,0:0:0:0:
402,192,204422,1,8,0:0:0:0:
475,192,204422,1,0,0:0:0:0:
182,192,204507,1,8,0:0:0:0:
36,192,204507,1,0,2:0:0:0:
109,192,204675,1,0,0:0:0:0:
329,192,204675,1,0,0:0:0:0:
402,192,204675,1,8,0:0:0:0:
256,192,204844,1,0,2:0:0:0:
475,192,204844,1,0,2:0:0:0:
36,192,205012,1,0,0:0:0:0:
402,192,205012,1,0,0:0:0:0:
182,192,205097,1,0,0:0:0:0:
36,192,205181,1,0,0:0:0:0:
182,192,205265,1,0,0:0:0:0:
36,192,205349,1,8,0:0:0:0:
329,192,205349,1,0,0:0:0:0:
182,192,205434,1,0,0:0:0:0:
329,192,205518,1,0,0:0:0:0:
182,192,205602,1,0,0:0:0:0:
329,192,205686,1,0,0:0:0:0:
475,192,205771,1,0,0:0:0:0:
329,192,205855,1,0,0:0:0:0:
475,192,205939,1,0,0:0:0:0:
329,192,206023,1,0,0:0:0:0:
36,192,206023,1,8,0:0:0:0:
182,192,206108,1,0,0:0:0:0:
329,192,206192,1,0,0:0:0:0:
182,192,206276,1,0,0:0:0:0:
36,192,206361,1,4,0:0:0:0:
329,192,206361,1,0,0:0:0:0:
475,192,206361,1,4,0:0:0:0:
256,192,206361,128,0,209057:0:0:0:0:
36,192,210743,1,0,0:0:0:0:
182,192,210743,1,2,0:0:0:0:
475,192,210743,1,4,0:0:0:0:
402,192,210743,1,0,0:0:0:0:
256,192,210911,1,2,0:0:0:0:
329,192,211080,1,2,0:0:0:0:
109,192,211248,1,2,0:0:0:0:
256,192,211417,1,2,0:0:0:0:
329,192,211585,1,2,0:0:0:0:
402,192,211754,1,2,0:0:0:0:
182,192,211922,1,2,0:0:0:0:
182,192,212259,1,2,0:0:0:0:
256,192,212428,1,2,0:0:0:0:
36,192,212596,1,2,0:0:0:0:
256,192,212765,1,2,0:0:0:0:
329,192,212934,1,2,0:0:0:0:
402,192,213102,1,2,0:0:0:0:
182,192,213439,1,2,0:0:0:0:
256,192,213608,1,2,0:0:0:0:
329,192,213776,1,2,0:0:0:0:
109,192,213945,1,2,0:0:0:0:
256,192,214113,1,2,0:0:0:0:
329,192,214282,1,2,0:0:0:0:
402,192,214450,1,2,0:0:0:0:
329,192,214619,1,2,0:0:0:0:
475,192,214787,1,2,0:0:0:0:
402,192,214956,1,2,0:0:0:0:
256,192,215125,1,2,0:0:0:0:
329,192,215293,1,2,0:0:0:0:
475,192,215462,1,2,0:0:0:0:
402,192,215630,1,2,0:0:0:0:
256,192,215799,1,2,0:0:0:0:
329,192,215967,1,2,0:0:0:0:
182,192,216136,1,2,0:0:0:0:
256,192,216304,1,2,0:0:0:0:
329,192,216473,1,2,0:0:0:0:
36,192,216641,1,2,0:0:0:0:
256,192,216810,1,2,0:0:0:0:
329,192,216978,1,2,0:0:0:0:
402,192,217147,1,2,0:0:0:0:
109,192,217316,1,2,0:0:0:0:
109,192,217653,1,2,0:0:0:0:
256,192,217821,1,2,0:0:0:0:
36,192,217990,1,2,0:0:0:0:
256,192,218158,1,2,0:0:0:0:
329,192,218327,1,2,0:0:0:0:
402,192,218495,1,2,0:0:0:0:
182,192,218832,1,2,0:0:0:0:
256,192,219001,1,2,0:0:0:0:
329,192,219169,1,2,0:0:0:0:
109,192,219338,1,2,0:0:0:0:
256,192,219507,1,2,0:0:0:0:
329,192,219675,1,2,0:0:0:0:
402,192,219844,1,2,0:0:0:0:
329,192,220012,1,2,0:0:0:0:
475,192,220181,1,2,0:0:0:0:
402,192,220349,1,2,0:0:0:0:
256,192,220518,1,2,0:0:0:0:
329,192,220686,1,2,0:0:0:0:
475,192,220855,1,2,0:0:0:0:
402,192,221023,1,2,0:0:0:0:
256,192,221192,1,2,0:0:0:0:
475,192,221360,1,2,0:0:0:0:
182,192,221529,1,2,0:0:0:0:
402,192,221529,1,2,0:0:0:0:
36,192,221529,1,2,2:0:0:0:
256,192,221698,1,2,0:0:0:0:
109,192,221698,1,2,2:0:0:0:
329,192,221866,1,2,0:0:0:0:
182,192,221866,1,2,2:0:0:0:
109,192,222035,1,2,0:0:0:0:
36,192,222035,1,2,2:0:0:0:
256,192,222203,1,2,2:0:0:0:
329,192,222203,1,2,0:0:0:0:
329,192,222372,1,2,2:0:0:0:
402,192,222372,1,2,0:0:0:0:
402,192,222540,1,2,2:0:0:0:
475,192,222540,1,2,0:0:0:0:
182,192,222709,1,2,0:0:0:0:
36,192,222709,1,2,2:0:0:0:
329,192,222877,1,2,2:0:0:0:
182,192,223046,1,2,2:0:0:0:
402,192,223046,1,2,0:0:0:0:
256,192,223214,1,2,2:0:0:0:
475,192,223214,1,2,0:0:0:0:
36,192,223383,1,2,2:0:0:0:
109,192,223383,1,2,0:0:0:0:
182,192,223551,1,2,2:0:0:0:
329,192,223551,1,2,0:0:0:0:
256,192,223720,1,2,2:0:0:0:
402,192,223720,1,2,0:0:0:0:
329,192,223889,1,2,2:0:0:0:
475,192,223889,1,2,0:0:0:0:
402,192,224057,1,2,2:0:0:0:
182,192,224226,1,2,0:0:0:0:
36,192,224226,1,2,2:0:0:0:
256,192,224394,1,2,0:0:0:0:
109,192,224394,1,2,2:0:0:0:
329,192,224563,1,2,0:0:0:0:
182,192,224563,1,2,2:0:0:0:
109,192,224731,1,2,2:0:0:0:
402,192,224731,1,2,0:0:0:0:
256,192,224900,1,2,0:0:0:0:
36,192,224900,1,2,2:0:0:0:
329,192,225068,1,2,0:0:0:0:
109,192,225068,1,2,2:0:0:0:
402,192,225237,1,2,0:0:0:0:
182,192,225237,1,2,2:0:0:0:
329,192,225405,1,2,0:0:0:0:
109,192,225405,1,2,2:0:0:0:
475,192,225574,1,2,0:0:0:0:
36,192,225574,1,2,2:0:0:0:
402,192,225743,1,2,0:0:0:0:
109,192,225743,1,2,2:0:0:0:
329,192,225911,1,2,0:0:0:0:
182,192,225911,1,2,2:0:0:0:
402,192,226080,1,2,0:0:0:0:
256,192,226080,1,2,2:0:0:0:
475,192,226248,1,2,0:0:0:0:
36,192,226248,1,2,2:0:0:0:
402,192,226417,1,2,0:0:0:0:
109,192,226417,1,2,2:0:0:0:
329,192,226585,1,2,0:0:0:0:
182,192,226585,1,2,2:0:0:0:
402,192,226754,1,2,0:0:0:0:
256,192,226754,1,2,2:0:0:0:
182,192,226922,1,2,0:0:0:0:
475,192,226922,1,4,0:0:0:0:
36,192,226922,1,2,2:0:0:0:
256,192,227091,1,2,0:0:0:0:
109,192,227091,1,2,2:0:0:0:
329,192,227259,1,2,0:0:0:0:
182,192,227259,1,2,2:0:0:0:
109,192,227428,1,2,0:0:0:0:
36,192,227428,1,2,2:0:0:0:
256,192,227596,1,2,2:0:0:0:
329,192,227596,1,2,0:0:0:0:
329,192,227765,1,2,2:0:0:0:
402,192,227765,1,2,0:0:0:0:
402,192,227934,1,2,2:0:0:0:
475,192,227934,1,2,0:0:0:0:
182,192,228102,1,2,2:0:0:0:
256,192,228102,1,2,0:0:0:0:
475,192,228271,1,4,0:0:0:0:
329,192,228271,1,2,0:0:0:0:
36,192,228271,1,2,2:0:0:0:
182,192,228439,1,2,2:0:0:0:
402,192,228439,1,2,0:0:0:0:
256,192,228608,1,2,2:0:0:0:
475,192,228608,1,2,0:0:0:0:
36,192,228776,1,2,2:0:0:0:
402,192,228776,1,2,0:0:0:0:
182,192,228945,1,2,2:0:0:0:
329,192,228945,1,2,0:0:0:0:
256,192,229113,1,2,2:0:0:0:
402,192,229113,1,2,0:0:0:0:
329,192,229282,1,2,2:0:0:0:
475,192,229282,1,2,0:0:0:0:
256,192,229450,1,2,2:0:0:0:
475,192,229619,1,4,0:0:0:0:
182,192,229619,1,2,0:0:0:0:
36,192,229619,1,2,2:0:0:0:
256,192,229787,1,2,0:0:0:0:
109,192,229787,1,2,2:0:0:0:
329,192,229956,1,2,0:0:0:0:
182,192,229956,1,2,2:0:0:0:
109,192,230125,1,2,2:0:0:0:
402,192,230125,1,2,0:0:0:0:
256,192,230293,1,2,0:0:0:0:
36,192,230293,1,2,2:0:0:0:
329,192,230462,1,2,0:0:0:0:
109,192,230462,1,2,2:0:0:0:
402,192,230630,1,2,0:0:0:0:
182,192,230630,1,2,2:0:0:0:
329,192,230799,1,2,0:0:0:0:
109,192,230799,1,2,2:0:0:0:
475,192,230967,1,2,0:0:0:0:
36,192,230967,1,2,2:0:0:0:
402,192,231136,1,2,0:0:0:0:
109,192,231136,1,2,2:0:0:0:
329,192,231304,1,2,0:0:0:0:
182,192,231304,1,2,2:0:0:0:
402,192,231473,1,2,0:0:0:0:
256,192,231473,1,2,2:0:0:0:
475,192,231641,1,2,0:0:0:0:
36,192,231641,1,2,2:0:0:0:
402,192,231810,1,2,0:0:0:0:
109,192,231810,1,2,2:0:0:0:
256,192,231978,1,2,0:0:0:0:
182,192,231978,1,2,2:0:0:0:
475,192,232147,1,2,0:0:0:0:
329,192,232147,1,2,2:0:0:0:
475,192,232316,1,4,0:0:0:0:
402,192,232316,128,2,232484:1:0:0:0:
256,192,232316,128,2,232484:0:0:0:0:
109,192,232316,128,2,232484:2:0:0:0:
36,192,232484,128,2,232653:2:0:0:0:
182,192,232484,128,2,232653:0:0:0:0:
329,192,232484,128,2,232653:1:0:0:0:
402,192,232653,128,2,232821:1:0:0:0:
256,192,232653,128,2,232821:0:0:0:0:
109,192,232653,128,2,232821:2:0:0:0:
182,192,232821,128,2,232990:0:0:0:0:
329,192,232821,128,2,232990:1:0:0:0:
475,192,232821,128,2,232990:2:0:0:0:
256,192,232990,128,2,233158:1:0:0:0:
109,192,232990,128,2,233158:0:0:0:0:
36,192,232990,128,2,233158:2:0:0:0:
182,192,233158,128,2,233327:2:0:0:0:
329,192,233158,128,2,233327:0:0:0:0:
402,192,233158,128,2,233327:1:0:0:0:
475,192,233327,128,2,233495:0:0:0:0:
256,192,233327,128,2,233495:0:0:0:0:
36,192,233327,128,2,233495:2:0:0:0:
109,192,233495,128,2,233664:2:0:0:0:
182,192,233495,128,2,233664:0:0:0:0:
402,192,233495,128,2,233664:1:0:0:0:
109,192,233832,128,2,234001:2:0:0:0:
182,192,233832,128,2,234001:0:0:0:0:
402,192,233832,128,2,234001:1:0:0:0:
36,192,234001,128,2,234169:2:0:0:0:
256,192,234001,128,2,234169:0:0:0:0:
329,192,234001,128,2,234169:1:0:0:0:
109,192,234169,128,2,234338:2:0:0:0:
182,192,234169,128,2,234338:0:0:0:0:
402,192,234169,128,2,234338:1:0:0:0:
36,192,234338,128,2,234507:2:0:0:0:
329,192,234338,128,2,234507:1:0:0:0:
475,192,234338,128,2,234507:0:0:0:0:
109,192,234507,128,2,234675:2:0:0:0:
256,192,234507,128,2,234675:0:0:0:0:
402,192,234507,128,2,234675:1:0:0:0:
475,192,234675,128,2,234844:0:0:0:0:
182,192,234675,128,2,234844:2:0:0:0:
329,192,234675,128,2,234844:1:0:0:0:
402,192,235012,128,2,235181:0:0:0:0:
256,192,235012,128,2,235181:0:0:0:0:
109,192,235012,128,2,235181:2:0:0:0:
36,192,235181,128,2,235349:2:0:0:0:
182,192,235181,128,2,235349:0:0:0:0:
329,192,235181,128,2,235349:0:0:0:0:
402,192,235349,128,2,235518:0:0:0:0:
256,192,235349,128,2,235518:0:0:0:0:
109,192,235349,128,2,235518:2:0:0:0:
182,192,235518,128,2,235686:2:0:0:0:
329,192,235518,128,2,235686:0:0:0:0:
475,192,235518,128,2,235686:0:0:0:0:
256,192,235686,128,2,235855:0:0:0:0:
109,192,235686,128,2,235855:0:0:0:0:
36,192,235686,128,2,235855:2:0:0:0:
182,192,235855,128,2,236023:2:0:0:0:
329,192,235855,128,2,236023:0:0:0:0:
402,192,235855,128,2,236023:0:0:0:0:
475,192,236023,128,2,236192:0:0:0:0:
256,192,236023,128,2,236192:0:0:0:0:
109,192,236023,128,2,236192:2:0:0:0:
36,192,236192,128,2,236360:2:0:0:0:
182,192,236192,128,2,236360:0:0:0:0:
329,192,236192,128,2,236360:0:0:0:0:
402,192,236360,128,2,236529:0:0:0:0:
256,192,236360,128,2,236529:0:0:0:0:
109,192,236360,128,2,236529:2:0:0:0:
36,192,236529,128,2,236698:2:0:0:0:
182,192,236529,128,2,236698:0:0:0:0:
329,192,236529,128,2,236698:0:0:0:0:
402,192,236698,128,2,236866:0:0:0:0:
256,192,236698,128,2,236866:0:0:0:0:
109,192,236698,128,2,236866:2:0:0:0:
182,192,236866,128,2,237035:2:0:0:0:
329,192,236866,128,2,237035:0:0:0:0:
475,192,236866,128,2,237035:0:0:0:0:
256,192,237035,128,2,237203:0:0:0:0:
109,192,237035,128,2,237203:0:0:0:0:
36,192,237035,128,2,237203:2:0:0:0:
182,192,237203,128,2,237372:2:0:0:0:
329,192,237203,128,2,237372:0:0:0:0:
402,192,237203,128,2,237372:0:0:0:0:
109,192,237372,128,2,237540:0:0:0:0:
256,192,237372,128,2,237540:0:0:0:0:
36,192,237372,128,2,237540:2:0:0:0:
182,192,237540,128,2,237709:2:0:0:0:
329,192,237540,128,2,237709:0:0:0:0:
475,192,237540,128,2,237709:0:0:0:0:
109,192,237709,128,2,237877:2:0:0:0:
256,192,237709,128,2,237877:0:0:0:0:
402,192,237709,128,2,237877:0:0:0:0:
329,192,237877,128,2,238046:0:0:0:0:
182,192,237877,128,2,238046:0:0:0:0:
36,192,237877,128,2,238046:2:0:0:0:
109,192,238046,128,2,238214:2:0:0:0:
256,192,238046,128,2,238214:0:0:0:0:
402,192,238046,128,2,238214:0:0:0:0:
182,192,238214,128,2,238383:2:0:0:0:
329,192,238214,128,2,238383:0:0:0:0:
475,192,238214,128,2,238383:0:0:0:0:
256,192,238383,128,2,238551:0:0:0:0:
109,192,238383,128,2,238551:0:0:0:0:
36,192,238383,128,2,238551:2:0:0:0:
182,192,238551,128,2,238720:2:0:0:0:
329,192,238551,128,2,238720:0:0:0:0:
402,192,238551,128,2,238720:0:0:0:0:
475,192,238720,128,2,238889:0:0:0:0:
256,192,238720,128,2,238889:0:0:0:0:
36,192,238720,128,2,238889:2:0:0:0:
109,192,238889,128,2,239057:2:0:0:0:
182,192,238889,128,2,239057:0:0:0:0:
329,192,238889,128,2,239057:0:0:0:0:
109,192,239226,128,2,239394:2:0:0:0:
182,192,239226,128,2,239394:0:0:0:0:
329,192,239226,128,2,239394:0:0:0:0:
36,192,239394,128,2,239563:2:0:0:0:
256,192,239394,128,2,239563:0:0:0:0:
402,192,239394,128,2,239563:0:0:0:0:
329,192,239563,128,2,239731:0:0:0:0:
475,192,239563,128,2,239731:0:0:0:0:
109,192,239563,128,2,239731:2:0:0:0:
36,192,239731,128,2,239900:2:0:0:0:
182,192,239731,128,2,239900:0:0:0:0:
256,192,239731,128,2,239900:0:0:0:0:
109,192,239900,128,2,240068:2:0:0:0:
329,192,239900,128,2,240068:0:0:0:0:
402,192,239900,128,2,240068:0:0:0:0:
256,192,240068,128,2,240237:0:0:0:0:
475,192,240068,128,2,240237:0:0:0:0:
36,192,240068,128,2,240237:2:0:0:0:
109,192,240405,128,2,240574:2:0:0:0:
256,192,240405,128,2,240574:0:0:0:0:
402,192,240405,128,2,240574:0:0:0:0:
329,192,240574,128,2,240742:0:0:0:0:
182,192,240574,128,2,240742:0:0:0:0:
36,192,240574,128,2,240742:2:0:0:0:
109,192,240742,128,2,240911:2:0:0:0:
256,192,240742,128,2,240911:0:0:0:0:
402,192,240742,128,2,240911:0:0:0:0:
329,192,240911,128,2,241080:0:0:0:0:
475,192,240911,128,2,241080:0:0:0:0:
182,192,240911,128,2,241080:2:0:0:0:
36,192,241080,128,2,241248:2:0:0:0:
109,192,241080,128,2,241248:0:0:0:0:
256,192,241080,128,2,241248:0:0:0:0:
182,192,241248,128,2,241417:2:0:0:0:
329,192,241248,128,2,241417:0:0:0:0:
402,192,241248,128,2,241417:0:0:0:0:
36,192,241417,128,2,241585:2:0:0:0:
256,192,241417,128,2,241585:0:0:0:0:
475,192,241417,128,2,241585:0:0:0:0:
329,192,241585,128,2,241754:0:0:0:0:
182,192,241585,128,2,241754:0:0:0:0:
109,192,241585,128,2,241754:2:0:0:0:
256,192,241754,1,0,0:0:0:0:
475,192,241754,128,0,241922:0:0:0:70:normal-hitwhistle.wav
182,192,241838,1,0,0:0:0:0:
36,192,241922,1,0,0:0:0:0:
402,192,241922,128,0,242091:0:0:0:70:normal-hitwhistle.wav
182,192,242007,1,0,0:0:0:0:
36,192,242091,1,0,0:0:0:0:
329,192,242091,128,0,242259:0:0:0:70:normal-hitwhistle.wav
182,192,242175,1,0,0:0:0:0:
109,192,242259,1,0,0:0:0:0:
402,192,242259,128,0,242428:0:0:0:70:normal-hitwhistle.wav
256,192,242344,1,0,0:0:0:0:
182,192,242428,1,0,0:0:0:0:
36,192,242428,128,0,242596:0:0:0:70:normal-hitwhistle.wav
329,192,242512,1,0,0:0:0:0:
475,192,242596,1,0,0:0:0:0:
109,192,242596,128,0,242765:0:0:0:70:normal-hitwhistle.wav
329,192,242681,1,0,0:0:0:0:
475,192,242765,1,0,0:0:0:0:
182,192,242765,128,0,242934:0:0:0:70:normal-hitwhistle.wav
329,192,242849,1,0,0:0:0:0:
402,192,242934,1,0,0:0:0:0:
109,192,242934,128,0,243102:0:0:0:70:normal-hitwhistle.wav
256,192,243018,1,0,0:0:0:0:
475,192,243102,1,0,0:0:0:0:
329,192,243102,1,2,0:0:0:0:
36,192,243102,1,2,2:0:0:0:
182,192,243102,1,2,0:0:0:0:
109,192,243271,1,2,2:0:0:0:
256,192,243271,1,2,0:0:0:0:
402,192,243271,1,2,0:0:0:0:
475,192,243439,1,0,0:0:0:0:
182,192,243439,1,2,2:0:0:0:
256,192,243439,1,2,0:0:0:0:
329,192,243439,1,2,0:0:0:0:
109,192,243608,1,2,0:0:0:0:
329,192,243608,1,2,0:0:0:0:
36,192,243608,1,2,2:0:0:0:
475,192,243776,1,0,0:0:0:0:
109,192,243776,1,2,2:0:0:0:
182,192,243776,1,2,0:0:0:0:
256,192,243776,1,2,0:0:0:0:
256,192,243945,1,2,0:0:0:0:
329,192,243945,1,2,0:0:0:0:
182,192,243945,1,2,2:0:0:0:
475,192,244113,1,0,0:0:0:0:
329,192,244113,1,2,0:0:0:0:
402,192,244113,1,2,0:0:0:0:
256,192,244113,1,2,2:0:0:0:
182,192,244282,1,2,0:0:0:0:
402,192,244282,1,2,0:0:0:0:
109,192,244282,1,2,2:0:0:0:
475,192,244450,1,0,0:0:0:0:
402,192,244619,1,2,0:0:0:0:
109,192,244619,1,2,2:0:0:0:
182,192,244619,1,2,0:0:0:0:
475,192,244787,1,0,0:0:0:0:
36,192,244787,1,2,2:0:0:0:
329,192,244787,1,2,0:0:0:0:
256,192,244787,1,2,0:0:0:0:
109,192,244956,1,2,2:0:0:0:
402,192,244956,1,2,0:0:0:0:
329,192,244956,1,2,0:0:0:0:
475,192,245125,1,0,0:0:0:0:
256,192,245125,1,2,0:0:0:0:
402,192,245125,1,2,0:0:0:0:
182,192,245125,1,2,2:0:0:0:
182,192,245293,1,2,0:0:0:0:
109,192,245293,1,2,2:0:0:0:
329,192,245293,1,2,0:0:0:0:
475,192,245462,1,0,0:0:0:0:
256,192,245462,1,2,0:0:0:0:
402,192,245462,1,2,0:0:0:0:
36,192,245462,1,2,2:0:0:0:
475,192,245799,1,0,0:0:0:0:
182,192,245799,1,2,0:0:0:0:
329,192,245799,1,2,0:0:0:0:
109,192,245799,1,2,2:0:0:0:
36,192,245967,1,2,2:0:0:0:
256,192,245967,1,2,0:0:0:0:
109,192,245967,1,2,0:0:0:0:
475,192,246136,1,0,0:0:0:0:
329,192,246136,1,2,0:0:0:0:
402,192,246136,1,2,0:0:0:0:
182,192,246136,1,2,2:0:0:0:
109,192,246304,1,2,2:0:0:0:
329,192,246304,1,2,0:0:0:0:
256,192,246304,1,2,0:0:0:0:
475,192,246473,1,0,0:0:0:0:
329,192,246473,1,2,0:0:0:0:
36,192,246473,1,2,2:0:0:0:
182,192,246473,1,2,0:0:0:0:
109,192,246641,1,2,2:0:0:0:
402,192,246641,1,2,0:0:0:0:
256,192,246641,1,2,0:0:0:0:
475,192,246810,1,0,0:0:0:0:
36,192,246810,1,2,2:0:0:0:
329,192,246810,1,2,0:0:0:0:
402,192,246810,1,2,0:0:0:0:
109,192,246978,1,2,2:0:0:0:
256,192,246978,1,2,0:0:0:0:
182,192,246978,1,2,0:0:0:0:
475,192,247147,1,0,0:0:0:0:
109,192,247147,1,2,2:0:0:0:
402,192,247147,1,2,0:0:0:0:
329,192,247147,1,2,0:0:0:0:
36,192,247316,1,2,2:0:0:0:
329,192,247316,1,2,0:0:0:0:
182,192,247316,1,2,0:0:0:0:
475,192,247484,1,0,0:0:0:0:
256,192,247484,1,2,0:0:0:0:
402,192,247484,1,2,0:0:0:0:
109,192,247484,1,2,2:0:0:0:
36,192,247653,1,2,2:0:0:0:
182,192,247653,1,2,0:0:0:0:
329,192,247653,1,2,0:0:0:0:
475,192,247821,1,0,0:0:0:0:
329,192,247821,1,2,0:0:0:0:
402,192,247821,1,2,0:0:0:0:
109,192,247821,1,2,2:0:0:0:
475,192,247990,1,0,0:0:0:0:
182,192,247990,1,2,0:0:0:0:
329,192,247990,1,2,0:0:0:0:
36,192,247990,1,2,2:0:0:0:
109,192,248158,1,2,2:0:0:0:
402,192,248158,1,2,0:0:0:0:
256,192,248158,1,2,0:0:0:0:
475,192,248327,1,0,0:0:0:0:
329,192,248327,1,2,0:0:0:0:
182,192,248327,1,2,0:0:0:0:
36,192,248327,1,2,2:0:0:0:
475,192,248495,1,4,0:0:0:0:
36,192,248495,1,0,0:0:0:0:
402,192,248495,1,2,0:0:0:0:
256,192,248495,1,2,0:0:0:0:
109,192,248495,1,2,2:0:0:0:
182,192,248664,1,2,2:0:0:0:
329,192,248664,1,2,0:0:0:0:
402,192,248664,1,2,0:0:0:0:
36,192,248832,1,0,0:0:0:0:
256,192,248832,1,2,0:0:0:0:
475,192,248832,1,2,0:0:0:0:
109,192,248832,1,2,2:0:0:0:
329,192,249001,1,2,0:0:0:0:
182,192,249001,1,2,2:0:0:0:
402,192,249001,1,2,0:0:0:0:
36,192,249169,1,0,0:0:0:0:
109,192,249169,1,2,2:0:0:0:
256,192,249169,1,2,0:0:0:0:
402,192,249169,1,2,0:0:0:0:
182,192,249338,1,2,2:0:0:0:
475,192,249338,1,2,0:0:0:0:
329,192,249338,1,2,0:0:0:0:
36,192,249507,1,0,0:0:0:0:
475,192,249507,1,2,0:0:0:0:
402,192,249507,1,2,0:0:0:0:
256,192,249507,1,2,2:0:0:0:
109,192,249675,1,2,2:0:0:0:
256,192,249675,1,2,0:0:0:0:
329,192,249675,1,2,0:0:0:0:
36,192,249844,1,0,0:0:0:0:
402,192,249844,1,4,0:0:0:0:
475,192,249844,1,0,0:0:0:0:
109,192,250012,1,2,2:0:0:0:
329,192,250012,1,2,0:0:0:0:
256,192,250012,1,2,0:0:0:0:
402,192,250181,1,2,0:0:0:0:
329,192,250181,1,2,0:0:0:0:
36,192,250181,1,0,0:0:0:0:
182,192,250181,1,2,2:0:0:0:
182,192,250349,1,2,0:0:0:0:
109,192,250349,1,2,2:0:0:0:
256,192,250349,1,2,0:0:0:0:
402,192,250518,1,2,0:0:0:0:
329,192,250518,1,2,0:0:0:0:
36,192,250518,1,0,0:0:0:0:
256,192,250518,1,2,2:0:0:0:
182,192,250686,1,2,0:0:0:0:
329,192,250686,1,2,0:0:0:0:
109,192,250686,1,2,2:0:0:0:
402,192,250855,1,2,0:0:0:0:
256,192,250855,1,2,0:0:0:0:
109,192,250855,1,2,2:0:0:0:
475,192,250855,1,0,0:0:0:0:
402,192,251192,1,0,0:0:0:0:
109,192,251192,1,2,2:0:0:0:
256,192,251192,1,2,0:0:0:0:
36,192,251192,1,2,0:0:0:0:
329,192,251192,1,2,0:0:0:0:
402,192,251360,1,2,0:0:0:0:
182,192,251360,1,2,2:0:0:0:
329,192,251360,1,2,0:0:0:0:
109,192,251529,1,2,2:0:0:0:
475,192,251529,1,0,0:0:0:0:
36,192,251529,1,2,0:0:0:0:
256,192,251529,1,2,0:0:0:0:
402,192,251698,1,2,0:0:0:0:
182,192,251698,1,2,2:0:0:0:
329,192,251698,1,2,0:0:0:0:
109,192,251866,1,2,2:0:0:0:
329,192,251866,1,2,0:0:0:0:
475,192,251866,1,0,0:0:0:0:
182,192,251866,1,2,0:0:0:0:
402,192,252035,1,2,0:0:0:0:
36,192,252035,1,2,2:0:0:0:
256,192,252035,1,2,0:0:0:0:
109,192,252203,1,2,2:0:0:0:
329,192,252203,1,2,0:0:0:0:
182,192,252203,1,2,0:0:0:0:
475,192,252203,1,0,0:0:0:0:
256,192,252372,1,2,0:0:0:0:
36,192,252372,1,2,2:0:0:0:
402,192,252372,1,2,0:0:0:0:
402,192,252540,1,0,0:0:0:0:
109,192,252625,1,0,0:0:0:0:
329,192,252709,1,0,0:0:0:0:
182,192,252793,1,0,0:0:0:0:
402,192,252877,1,0,0:0:0:0:
109,192,252962,1,0,0:0:0:0:
329,192,253046,1,0,0:0:0:0:
182,192,253130,1,0,0:0:0:0:
402,192,253214,1,0,0:0:0:0:
109,192,253299,1,0,0:0:0:0:
329,192,253383,1,0,0:0:0:0:
182,192,253467,1,0,0:0:0:0:
402,192,253551,1,0,0:0:0:0:
109,192,253636,1,0,0:0:0:0:
475,192,253720,1,0,0:0:0:0:
36,192,253804,1,0,0:0:0:0:
256,192,253889,1,4,0:0:0:0:
402,192,253889,1,0,0:0:0:0:
475,192,253889,1,0,0:0:0:0:
109,192,253973,1,0,0:0:0:0:
36,192,253973,1,0,0:0:0:0:
402,192,254057,1,0,0:0:0:0:
329,192,254057,1,0,0:0:0:0:
109,192,254141,1,0,0:0:0:0:
182,192,254141,1,0,0:0:0:0:
402,192,254226,1,0,0:0:0:0:
475,192,254226,1,0,0:0:0:0:
36,192,254310,1,0,0:0:0:0:
109,192,254310,1,0,0:0:0:0:
402,192,254394,1,0,0:0:0:0:
329,192,254394,1,0,0:0:0:0:
182,192,254478,1,0,0:0:0:0:
109,192,254478,1,0,0:0:0:0:
402,192,254563,1,0,0:0:0:0:
475,192,254563,1,0,0:0:0:0:
329,192,254563,1,0,0:0:0:0:
109,192,254647,1,0,0:0:0:0:
36,192,254647,1,0,0:0:0:0:
182,192,254647,1,0,0:0:0:0:
329,192,254731,1,0,0:0:0:0:
402,192,254731,1,0,0:0:0:0:
256,192,254731,1,0,0:0:0:0:
109,192,254816,1,0,0:0:0:0:
182,192,254816,1,0,0:0:0:0:
36,192,254816,1,0,0:0:0:0:
402,192,254900,1,0,0:0:0:0:
475,192,254900,1,0,0:0:0:0:
329,192,254900,1,0,0:0:0:0:
109,192,254984,1,0,0:0:0:0:
182,192,254984,1,0,0:0:0:0:
256,192,254984,1,0,0:0:0:0:
402,192,255068,1,0,0:0:0:0:
329,192,255068,1,0,0:0:0:0:
475,192,255068,1,0,0:0:0:0:
109,192,255153,1,0,0:0:0:0:
182,192,255153,1,0,0:0:0:0:
36,192,255153,1,0,0:0:0:0:
256,192,255237,1,0,0:0:0:0:
475,192,255237,128,2,255911:1:0:0:0:
402,192,255237,1,4,1:0:0:0:
182,192,255321,1,0,0:0:0:0:
109,192,255405,1,0,0:0:0:0:
329,192,255405,1,0,0:0:0:0:
256,192,255490,1,0,0:0:0:0:
402,192,255574,1,8,1:0:0:0:
36,192,255574,1,0,0:0:0:0:
109,192,255658,1,0,0:0:0:0:
182,192,255742,1,0,0:0:0:0:
329,192,255742,1,0,0:0:0:0:
109,192,255827,1,0,0:0:0:0:
256,192,255911,128,2,256164:1:0:0:0:
36,192,255911,1,0,0:0:0:0:
402,192,255911,1,0,0:0:0:0:
329,192,255995,1,0,0:0:0:0:
109,192,256080,1,0,0:0:0:0:
182,192,256164,128,2,256417:1:0:0:0:
475,192,256164,1,0,0:0:0:0:
402,192,256248,1,0,0:0:0:0:
329,192,256332,1,0,0:0:0:0:
109,192,256417,128,2,256585:1:0:0:0:
402,192,256417,1,0,0:0:0:0:
329,192,256501,1,0,0:0:0:0:
36,192,256585,128,2,257259:1:0:0:0:
256,192,256585,1,0,0:0:0:0:
329,192,256669,1,0,0:0:0:0:
402,192,256754,1,0,0:0:0:0:
182,192,256754,1,0,0:0:0:0:
256,192,256838,1,0,0:0:0:0:
109,192,256922,1,8,1:0:0:0:
475,192,256922,1,0,0:0:0:0:
402,192,257007,1,0,0:0:0:0:
329,192,257091,1,0,0:0:0:0:
182,192,257091,1,0,0:0:0:0:
402,192,257175,1,0,0:0:0:0:
256,192,257259,128,2,257512:1:0:0:0:
475,192,257259,1,0,0:0:0:0:
109,192,257259,1,0,0:0:0:0:
182,192,257344,1,0,0:0:0:0:
402,192,257428,1,0,0:0:0:0:
329,192,257512,128,2,257765:1:0:0:0:
36,192,257512,1,0,0:0:0:0:
109,192,257596,1,0,0:0:0:0:
182,192,257681,1,0,0:0:0:0:
402,192,257765,128,2,257934:1:0:0:0:
109,192,257765,1,0,0:0:0:0:
182,192,257849,1,0,0:0:0:0:
475,192,257934,128,2,258608:1:0:0:0:
36,192,257934,1,0,0:0:0:0:
256,192,257934,1,0,0:0:0:0:
182,192,258018,1,0,0:0:0:0:
329,192,258102,1,0,0:0:0:0:
109,192,258102,1,0,0:0:0:0:
182,192,258186,1,0,0:0:0:0:
402,192,258271,1,8,1:0:0:0:
36,192,258271,1,0,0:0:0:0:
256,192,258355,1,0,0:0:0:0:
109,192,258439,1,0,0:0:0:0:
329,192,258439,1,0,0:0:0:0:
256,192,258523,1,0,0:0:0:0:
36,192,258608,1,0,0:0:0:0:
402,192,258608,128,2,258860:1:0:0:0:
182,192,258608,1,0,0:0:0:0:
109,192,258692,1,0,0:0:0:0:
182,192,258776,1,0,0:0:0:0:
329,192,258860,128,2,259113:1:0:0:0:
36,192,258860,1,0,0:0:0:0:
109,192,258945,1,0,0:0:0:0:
36,192,259029,1,0,0:0:0:0:
256,192,259113,128,2,259282:1:0:0:0:
182,192,259113,1,0,0:0:0:0:
109,192,259198,1,0,0:0:0:0:
36,192,259282,128,2,259956:1:0:0:0:
475,192,259282,1,0,0:0:0:0:
329,192,259366,1,0,0:0:0:0:
182,192,259450,1,0,0:0:0:0:
475,192,259450,1,0,0:0:0:0:
329,192,259535,1,0,0:0:0:0:
475,192,259619,1,8,1:0:0:0:
109,192,259619,1,0,0:0:0:0:
256,192,259703,1,0,0:0:0:0:
402,192,259787,1,0,0:0:0:0:
109,192,259787,1,0,0:0:0:0:
256,192,259872,1,0,0:0:0:0:
475,192,259956,1,0,0:0:0:0:
109,192,259956,128,2,260209:1:0:0:0:
329,192,259956,1,0,0:0:0:0:
402,192,260040,1,0,0:0:0:0:
256,192,260125,1,0,0:0:0:0:
182,192,260209,128,2,260462:1:0:0:0:
475,192,260209,1,0,0:0:0:0:
329,192,260293,1,0,0:0:0:0:
402,192,260377,1,0,0:0:0:0:
256,192,260462,128,2,260630:1:0:0:0:
475,192,260462,1,0,0:0:0:0:
402,192,260546,1,0,0:0:0:0:
475,192,260630,128,2,261304:1:0:0:0:
36,192,260630,1,0,0:0:0:0:
182,192,260714,1,0,0:0:0:0:
36,192,260799,1,0,0:0:0:0:
182,192,260883,1,0,0:0:0:0:
36,192,260967,1,0,0:0:0:0:
329,192,260967,1,8,1:0:0:0:
182,192,261051,1,0,0:0:0:0:
329,192,261136,1,0,0:0:0:0:
182,192,261220,1,0,0:0:0:0:
329,192,261304,1,0,0:0:0:0:
36,192,261304,1,2,1:0:0:0:
182,192,261389,1,0,0:0:0:0:
329,192,261473,1,0,0:0:0:0:
475,192,261557,1,2,1:0:0:0:
182,192,261557,1,0,0:0:0:0:
256,192,261641,1,0,0:0:0:0:
402,192,261726,1,0,0:0:0:0:
36,192,261810,1,0,0:0:0:0:
182,192,261810,1,2,1:0:0:0:
329,192,261894,1,0,0:0:0:0:
475,192,261978,1,2,1:0:0:0:
109,192,261978,1,0,0:0:0:0:
256,192,262063,1,0,0:0:0:0:
36,192,262147,1,0,0:0:0:0:
475,192,262231,1,2,1:0:0:0:
182,192,262231,1,0,0:0:0:0:
329,192,262316,1,0,0:0:0:0:
182,192,262400,1,0,0:0:0:0:
36,192,262484,1,0,0:0:0:0:
402,192,262484,1,2,1:0:0:0:
256,192,262568,1,0,0:0:0:0:
402,192,262653,1,0,0:0:0:0:
109,192,262653,1,2,1:0:0:0:
256,192,262737,1,0,0:0:0:0:
402,192,262821,1,0,0:0:0:0:
182,192,262905,1,2,1:0:0:0:
36,192,262905,1,0,0:0:0:0:
329,192,262990,1,0,0:0:0:0:
475,192,263074,1,0,0:0:0:0:
109,192,263158,1,0,0:0:0:0:
256,192,263158,1,2,1:0:0:0:
402,192,263242,1,0,0:0:0:0:
36,192,263327,128,2,264001:1:0:0:0:
475,192,263327,1,0,0:0:0:0:
182,192,263327,1,0,0:0:0:0:
329,192,263411,1,0,0:0:0:0:
475,192,263495,1,0,0:0:0:0:
329,192,263580,1,0,0:0:0:0:
182,192,263664,1,0,0:0:0:0:
475,192,263664,1,8,1:0:0:0:
329,192,263748,1,0,0:0:0:0:
182,192,263832,1,0,0:0:0:0:
329,192,263917,1,0,0:0:0:0:
182,192,264001,1,2,1:0:0:0:
475,192,264001,1,0,0:0:0:0:
329,192,264085,1,0,0:0:0:0:
109,192,264169,1,0,0:0:0:0:
402,192,264254,1,0,0:0:0:0:
256,192,264254,1,2,1:0:0:0:
36,192,264338,1,0,0:0:0:0:
109,192,264422,1,0,0:0:0:0:
329,192,264507,1,2,1:0:0:0:
182,192,264507,1,0,0:0:0:0:
109,192,264591,1,0,0:0:0:0:
402,192,264675,1,2,1:0:0:0:
256,192,264675,1,0,1:0:0:0:
182,192,264759,1,0,1:0:0:0:
109,192,264844,1,0,1:0:0:0:
402,192,264928,1,0,1:0:0:0:
256,192,264928,1,2,1:0:0:0:
182,192,265012,1,0,1:0:0:0:
36,192,265096,1,0,1:0:0:0:
475,192,265181,1,0,1:0:0:0:
109,192,265181,1,2,1:0:0:0:
36,192,265265,1,0,1:0:0:0:
329,192,265349,1,0,1:0:0:0:
182,192,265349,1,2,1:0:0:0:
109,192,265434,1,0,1:0:0:0:
256,192,265518,1,0,1:0:0:0:
402,192,265602,1,0,1:0:0:0:
182,192,265602,1,2,1:0:0:0:
329,192,265686,1,0,1:0:0:0:
256,192,265771,1,0,1:0:0:0:
475,192,265855,1,0,1:0:0:0:
182,192,265855,1,2,1:0:0:0:
329,192,265939,1,0,1:0:0:0:
36,192,266023,1,2,0:0:0:0:
475,192,266023,128,2,266698:1:0:0:0:
256,192,266023,1,0,1:0:0:0:
109,192,266108,1,2,0:0:0:0:
402,192,266108,1,0,0:0:0:0:
182,192,266192,1,2,0:0:0:0:
329,192,266192,1,0,0:0:0:0:
109,192,266276,1,2,0:0:0:0:
402,192,266276,1,0,0:0:0:0:
36,192,266360,1,2,0:0:0:0:
256,192,266360,1,0,0:0:0:0:
182,192,266445,1,2,0:0:0:0:
329,192,266445,1,0,0:0:0:0:
109,192,266529,1,2,0:0:0:0:
402,192,266529,1,0,0:0:0:0:
182,192,266613,1,2,0:0:0:0:
329,192,266613,1,0,0:0:0:0:
256,192,266698,128,8,266782:0:0:0:0:
36,192,266698,1,0,0:0:0:0:
402,192,266782,128,8,266866:0:0:0:0:
182,192,266866,128,8,266950:0:0:0:0:
329,192,266950,128,8,267035:0:0:0:0:
109,192,267035,128,8,267119:0:0:0:0:
256,192,267119,128,8,267203:0:0:0:0:
402,192,267203,128,8,267287:0:0:0:0:
182,192,267287,128,8,267372:0:0:0:0:
475,192,267372,1,2,0:0:0:0:
36,192,267372,128,2,268046:1:0:0:0:
402,192,267456,1,2,0:0:0:0:
256,192,267456,1,0,0:0:0:0:
329,192,267540,1,2,0:0:0:0:
182,192,267540,1,0,0:0:0:0:
402,192,267625,1,2,0:0:0:0:
109,192,267625,1,0,0:0:0:0:
256,192,267709,1,0,0:0:0:0:
475,192,267709,1,2,0:0:0:0:
329,192,267793,1,2,0:0:0:0:
182,192,267793,1,0,0:0:0:0:
402,192,267877,1,2,0:0:0:0:
109,192,267877,1,0,0:0:0:0:
329,192,267962,1,2,0:0:0:0:
182,192,267962,1,0,0:0:0:0:
256,192,268046,128,8,268130:0:0:0:0:
475,192,268046,1,0,0:0:0:0:
109,192,268130,128,8,268214:0:0:0:0:
329,192,268214,128,8,268299:0:0:0:0:
182,192,268299,128,8,268383:0:0:0:0:
402,192,268383,128,8,268467:0:0:0:0:
256,192,268467,128,8,268551:0:0:0:0:
109,192,268551,128,8,268636:0:0:0:0:
329,192,268636,128,8,268720:0:0:0:0:
182,192,268720,1,2,0:0:0:0:
475,192,268720,128,2,269394:1:0:0:0:
256,192,268804,1,2,0:0:0:0:
402,192,268804,1,0,0:0:0:0:
182,192,268889,1,0,0:0:0:0:
36,192,268889,1,2,0:0:0:0:
109,192,268973,1,2,0:0:0:0:
329,192,268973,1,0,0:0:0:0:
182,192,269057,1,2,0:0:0:0:
402,192,269057,1,0,0:0:0:0:
329,192,269141,1,0,0:0:0:0:
109,192,269141,1,2,0:0:0:0:
36,192,269226,1,2,0:0:0:0:
256,192,269226,1,0,0:0:0:0:
329,192,269310,1,0,0:0:0:0:
109,192,269310,1,2,0:0:0:0:
36,192,269394,1,0,0:0:0:0:
402,192,269394,128,8,269478:0:0:0:0:
182,192,269478,128,8,269563:0:0:0:0:
329,192,269563,128,8,269647:0:0:0:0:
109,192,269647,128,8,269731:0:0:0:0:
256,192,269731,128,8,269816:0:0:0:0:
36,192,269816,128,8,269900:0:0:0:0:
182,192,269900,128,8,269984:0:0:0:0:
329,192,269984,128,8,270068:0:0:0:0:
475,192,270068,1,2,0:0:0:0:
36,192,270068,128,2,270742:1:0:0:0:
109,192,270153,1,0,0:0:0:0:
402,192,270153,1,2,0:0:0:0:
182,192,270237,1,0,0:0:0:0:
329,192,270237,1,2,0:0:0:0:
402,192,270321,1,2,0:0:0:0:
256,192,270321,1,0,0:0:0:0:
109,192,270405,1,0,0:0:0:0:
475,192,270405,1,2,0:0:0:0:
182,192,270490,1,0,0:0:0:0:
402,192,270490,1,2,0:0:0:0:
329,192,270574,1,2,0:0:0:0:
256,192,270574,1,0,0:0:0:0:
182,192,270658,1,0,0:0:0:0:
402,192,270658,1,2,0:0:0:0:
475,192,270742,1,2,0:0:0:0:
109,192,270742,128,8,270827:0:0:0:0:
329,192,270827,128,8,270911:0:0:0:0:
182,192,270911,128,8,270995:0:0:0:0:
402,192,270995,128,8,271080:0:0:0:0:
256,192,271080,128,8,271164:0:0:0:0:
475,192,271164,128,8,271248:0:0:0:0:
329,192,271248,128,8,271332:0:0:0:0:
182,192,271332,128,8,271417:0:0:0:0:
36,192,271417,1,0,0:0:0:0:
475,192,271417,1,0,0:0:0:0:
256,192,271417,128,4,272091:0:0:0:0:
109,192,271501,1,0,0:0:0:0:
402,192,271501,1,0,0:0:0:0:
182,192,271585,1,0,0:0:0:0:
329,192,271585,1,0,0:0:0:0:
109,192,271669,1,0,0:0:0:0:
402,192,271669,1,0,0:0:0:0:
36,192,271754,1,0,0:0:0:0:
475,192,271754,1,0,0:0:0:0:
182,192,271838,1,0,0:0:0:0:
329,192,271838,1,0,0:0:0:0:
36,192,271922,1,0,0:0:0:0:
475,192,271922,1,0,0:0:0:0:
109,192,272007,1,0,0:0:0:0:
402,192,272007,1,0,0:0:0:0:
182,192,272091,1,0,0:0:0:0:
329,192,272091,1,0,0:0:0:0:
402,192,272175,128,8,272259:2:0:0:0:
256,192,272259,128,8,272344:2:0:0:0:
109,192,272344,128,8,272428:2:0:0:0:
475,192,272428,128,8,272512:2:0:0:0:
329,192,272512,128,8,272596:2:0:0:0:
182,192,272596,128,8,272681:2:0:0:0:
36,192,272681,128,8,272765:2:0:0:0:
109,192,272765,1,0,0:0:0:0:
402,192,272765,1,0,0:0:0:0:
256,192,272765,128,4,273439:0:0:0:0:
182,192,272849,1,0,0:0:0:0:
329,192,272849,1,0,0:0:0:0:
36,192,272934,1,0,0:0:0:0:
475,192,272934,1,0,0:0:0:0:
109,192,273018,1,0,0:0:0:0:
402,192,273018,1,0,0:0:0:0:
329,192,273102,1,0,0:0:0:0:
182,192,273102,1,0,0:0:0:0:
36,192,273186,1,0,0:0:0:0:
475,192,273186,1,0,0:0:0:0:
182,192,273271,1,0,0:0:0:0:
329,192,273271,1,0,0:0:0:0:
109,192,273355,1,0,0:0:0:0:
402,192,273355,1,0,0:0:0:0:
475,192,273439,1,0,0:0:0:0:
36,192,273439,1,0,0:0:0:0:
109,192,273523,128,8,273608:2:0:0:0:
256,192,273608,128,8,273692:2:0:0:0:
402,192,273692,128,8,273776:2:0:0:0:
36,192,273776,128,8,273860:2:0:0:0:
182,192,273860,128,8,273945:2:0:0:0:
329,192,273945,128,8,274029:2:0:0:0:
475,192,274029,128,8,274113:2:0:0:0:
402,192,274113,1,0,0:0:0:0:
109,192,274198,1,0,0:0:0:0:
329,192,274282,1,0,0:0:0:0:
182,192,274366,1,0,0:0:0:0:
402,192,274450,1,0,0:0:0:0:
36,192,274450,1,0,0:0:0:0:
256,192,274535,1,0,0:0:0:0:
109,192,274619,1,0,0:0:0:0:
256,192,274703,1,0,0:0:0:0:
36,192,274787,1,0,0:0:0:0:
402,192,274787,1,0,0:0:0:0:
182,192,274872,1,0,0:0:0:0:
329,192,274956,1,0,0:0:0:0:
182,192,275040,1,0,0:0:0:0:
475,192,275125,1,0,0:0:0:0:
329,192,275209,1,0,0:0:0:0:
182,192,275293,1,0,0:0:0:0:
329,192,275377,1,0,0:0:0:0:
256,192,275462,1,0,0:0:0:0:
109,192,275546,1,0,0:0:0:0:
329,192,275630,1,0,0:0:0:0:
182,192,275714,1,0,0:0:0:0:
402,192,275799,1,8,0:0:0:0:
36,192,275799,1,0,0:0:0:0:
256,192,275883,1,0,0:0:0:0:
475,192,275967,1,0,0:0:0:0:
329,192,276051,1,0,0:0:0:0:
182,192,276136,1,0,0:0:0:0:
36,192,276136,1,0,0:0:0:0:
329,192,276220,1,0,0:0:0:0:
475,192,276304,1,0,0:0:0:0:
109,192,276304,1,0,0:0:0:0:
256,192,276389,1,0,0:0:0:0:
402,192,276473,1,8,0:0:0:0:
36,192,276473,1,0,0:0:0:0:
182,192,276557,1,0,0:0:0:0:
329,192,276641,1,0,0:0:0:0:
475,192,276641,1,0,0:0:0:0:
182,192,276726,1,0,0:0:0:0:
329,192,276810,1,0,0:0:0:0:
36,192,276810,1,0,0:0:0:0:
475,192,276810,1,4,0:0:0:0:
475,192,277484,1,2,0:0:0:0:
329,192,277737,1,2,0:0:0:0:
182,192,277990,1,2,0:0:0:0:
36,192,278158,1,0,0:0:0:0:
329,192,278158,1,2,0:0:0:0:
36,192,278832,1,2,0:0:0:0:
182,192,279085,1,2,0:0:0:0:
329,192,279338,1,2,0:0:0:0:
475,192,279507,1,0,0:0:0:0:
182,192,279507,1,2,0:0:0:0:
475,192,280181,1,2,0:0:0:0:
402,192,280434,1,2,0:0:0:0:
329,192,280686,1,2,0:0:0:0:
256,192,280855,1,2,0:0:0:0:
36,192,280855,1,0,0:0:0:0:
36,192,281529,1,2,0:0:0:0:
109,192,281782,1,2,0:0:0:0:
182,192,282035,1,2,0:0:0:0:
256,192,282203,1,2,0:0:0:0:
475,192,282203,1,0,0:0:0:0:
402,192,282877,1,2,0:0:0:0:
329,192,283130,1,2,0:0:0:0:
256,192,283383,1,2,0:0:0:0:
182,192,283551,1,2,0:0:0:0:
475,192,283551,1,0,0:0:0:0:
256,192,283804,1,2,0:0:0:0:
329,192,284057,1,2,0:0:0:0:
182,192,284226,1,2,0:0:0:0:
256,192,284478,1,2,0:0:0:0:
329,192,284731,1,2,0:0:0:0:
182,192,284900,1,2,0:0:0:0:
36,192,284900,1,0,0:0:0:0:
329,192,285574,1,2,0:0:0:0:
256,192,285827,1,2,0:0:0:0:
329,192,286080,1,2,0:0:0:0:
402,192,286248,1,2,0:0:0:0:
36,192,286248,1,0,0:0:0:0:
182,192,286332,1,0,0:0:0:0:
36,192,286417,1,0,0:0:0:0:
329,192,286501,1,2,0:0:0:0:
182,192,286501,1,0,0:0:0:0:
109,192,286585,1,0,0:0:0:0:
256,192,286669,1,0,0:0:0:0:
402,192,286754,1,2,0:0:0:0:
109,192,286754,1,0,0:0:0:0:
256,192,286838,1,0,0:0:0:0:
475,192,286922,1,2,0:0:0:0:
182,192,286922,1,0,0:0:0:0:
329,192,287007,1,0,0:0:0:0:
109,192,287091,1,0,0:0:0:0:
402,192,287175,1,2,0:0:0:0:
256,192,287175,1,0,0:0:0:0:
36,192,287259,1,0,0:0:0:0:
182,192,287344,1,0,0:0:0:0:
475,192,287428,1,2,0:0:0:0:
329,192,287428,1,0,0:0:0:0:
109,192,287512,1,0,0:0:0:0:
36,192,287596,128,2,288271:1:0:0:0:
256,192,287596,128,2,287709:0:0:0:0:
402,192,287596,128,2,287709:0:0:0:0:
109,192,287709,128,2,287821:0:0:0:0:
329,192,287709,128,2,287821:0:0:0:0:
256,192,287821,128,2,287934:0:0:0:0:
182,192,287821,128,2,287934:0:0:0:0:
109,192,287934,128,2,288046:0:0:0:0:
475,192,287934,128,2,288046:0:0:0:0:
402,192,288046,128,2,288158:0:0:0:0:
182,192,288046,128,2,288158:0:0:0:0:
329,192,288158,128,2,288271:0:0:0:0:
256,192,288158,128,2,288271:0:0:0:0:
402,192,288271,128,2,288383:0:0:0:0:
182,192,288271,128,2,288383:0:0:0:0:
256,192,288383,128,2,288495:0:0:0:0:
109,192,288383,128,2,288495:0:0:0:0:
329,192,288495,128,2,288608:0:0:0:0:
182,192,288495,128,2,288608:0:0:0:0:
256,192,288608,128,2,288720:0:0:0:0:
36,192,288608,128,2,288720:0:0:0:0:
329,192,288720,128,2,288832:0:0:0:0:
182,192,288720,128,2,288832:0:0:0:0:
256,192,288832,128,2,288945:0:0:0:0:
402,192,288832,128,2,288945:0:0:0:0:
475,192,288945,128,2,289619:1:0:0:0:
329,192,288945,128,2,289057:0:0:0:0:
109,192,288945,128,2,289057:0:0:0:0:
182,192,289057,128,2,289169:0:0:0:0:
402,192,289057,128,2,289169:0:0:0:0:
256,192,289169,128,2,289282:0:0:0:0:
329,192,289169,128,2,289282:0:0:0:0:
402,192,289282,128,2,289394:0:0:0:0:
182,192,289282,128,2,289394:0:0:0:0:
109,192,289394,128,2,289507:0:0:0:0:
329,192,289394,128,2,289507:0:0:0:0:
36,192,289507,128,2,289619:0:0:0:0:
256,192,289507,128,2,289619:0:0:0:0:
329,192,289619,128,2,289731:0:0:0:0:
182,192,289619,128,2,289731:0:0:0:0:
109,192,289731,128,2,289844:0:0:0:0:
256,192,289731,128,2,289844:0:0:0:0:
182,192,289844,128,2,289956:0:0:0:0:
36,192,289844,128,2,289956:0:0:0:0:
109,192,289956,128,2,290068:0:0:0:0:
475,192,289956,128,2,290068:0:0:0:0:
402,192,290068,128,2,290181:0:0:0:0:
182,192,290068,128,2,290181:0:0:0:0:
329,192,290181,128,2,290293:0:0:0:0:
109,192,290181,128,2,290293:0:0:0:0:
256,192,290293,128,2,290967:1:0:0:0:
36,192,290293,128,2,290405:0:0:0:0:
475,192,290293,128,2,290405:0:0:0:0:
402,192,290405,128,2,290518:0:0:0:0:
109,192,290405,128,2,290518:0:0:0:0:
329,192,290518,128,2,290630:0:0:0:0:
182,192,290518,128,2,290630:0:0:0:0:
475,192,290630,128,2,290742:0:0:0:0:
36,192,290630,128,2,290742:0:0:0:0:
402,192,290742,128,2,290855:0:0:0:0:
109,192,290742,128,2,290855:0:0:0:0:
182,192,290855,128,2,290967:0:0:0:0:
329,192,290855,128,2,290967:0:0:0:0:
36,192,290967,128,2,291080:0:0:0:0:
475,192,290967,128,2,291080:0:0:0:0:
109,192,291080,128,2,291192:0:0:0:0:
402,192,291080,128,2,291192:0:0:0:0:
329,192,291192,128,2,291304:0:0:0:0:
182,192,291192,128,2,291304:0:0:0:0:
36,192,291304,128,2,291417:0:0:0:0:
256,192,291304,128,2,291417:0:0:0:0:
329,192,291417,128,2,291529:0:0:0:0:
109,192,291417,128,2,291529:0:0:0:0:
182,192,291529,128,2,291641:0:0:0:0:
402,192,291529,128,2,291641:0:0:0:0:
475,192,291641,128,2,292316:1:0:0:0:
256,192,291641,128,2,291754:0:0:0:0:
36,192,291641,128,2,291754:0:0:0:0:
402,192,291754,128,2,291866:0:0:0:0:
182,192,291754,128,2,291866:0:0:0:0:
256,192,291866,128,2,291978:0:0:0:0:
36,192,291866,128,2,291978:0:0:0:0:
182,192,291978,128,2,292091:0:0:0:0:
402,192,291978,128,2,292091:0:0:0:0:
329,192,292091,128,2,292203:0:0:0:0:
109,192,292091,128,2,292203:0:0:0:0:
402,192,292203,128,2,292316:0:0:0:0:
182,192,292203,128,2,292316:0:0:0:0:
256,192,292316,128,2,292428:0:0:0:0:
36,192,292316,128,2,292428:0:0:0:0:
182,192,292428,128,2,292540:0:0:0:0:
329,192,292428,128,2,292540:0:0:0:0:
109,192,292540,128,2,292653:0:0:0:0:
402,192,292540,128,2,292653:0:0:0:0:
182,192,292653,128,2,292765:0:0:0:0:
329,192,292653,128,2,292765:0:0:0:0:
256,192,292765,128,2,292877:0:0:0:0:
109,192,292765,128,2,292877:0:0:0:0:
182,192,292877,128,2,292990:0:0:0:0:
36,192,292877,128,2,292990:0:0:0:0:
402,192,292990,128,2,293102:0:0:0:0:
109,192,292990,128,2,293102:0:0:0:0:
256,192,292990,128,4,293664:1:0:0:0:
329,192,293102,128,2,293214:0:0:0:0:
182,192,293102,128,2,293214:0:0:0:0:
475,192,293214,128,2,293327:0:0:0:0:
36,192,293214,128,2,293327:0:0:0:0:
329,192,293327,128,2,293439:0:0:0:0:
182,192,293327,128,2,293439:0:0:0:0:
402,192,293439,128,2,293551:0:0:0:0:
109,192,293439,128,2,293551:0:0:0:0:
329,192,293551,128,2,293664:0:0:0:0:
182,192,293551,128,2,293664:0:0:0:0:
36,192,293664,128,2,293776:0:0:0:0:
475,192,293664,128,2,293776:0:0:0:0:
109,192,293776,128,2,293889:0:0:0:0:
402,192,293776,128,2,293889:0:0:0:0:
182,192,293889,128,2,294001:0:0:0:0:
329,192,293889,128,2,294001:0:0:0:0:
475,192,294001,128,2,294113:0:0:0:0:
36,192,294001,128,2,294113:0:0:0:0:
182,192,294113,128,2,294226:0:0:0:0:
329,192,294113,128,2,294226:0:0:0:0:
109,192,294226,128,2,294338:0:0:0:0:
402,192,294226,128,2,294338:0:0:0:0:
256,192,294338,128,4,295012:1:0:0:0:
36,192,294338,128,2,294450:0:0:0:0:
475,192,294338,128,2,294450:0:0:0:0:
329,192,294450,128,2,294563:0:0:0:0:
182,192,294450,128,2,294563:0:0:0:0:
109,192,294563,128,2,294675:0:0:0:0:
402,192,294563,128,2,294675:0:0:0:0:
329,192,294675,128,2,294787:0:0:0:0:
182,192,294675,128,2,294787:0:0:0:0:
402,192,294787,128,2,294900:0:0:0:0:
36,192,294787,128,2,294900:0:0:0:0:
329,192,294900,128,2,295012:0:0:0:0:
109,192,294900,128,2,295012:0:0:0:0:
182,192,295012,128,2,295125:0:0:0:0:
475,192,295012,128,2,295125:0:0:0:0:
402,192,295125,128,2,295237:0:0:0:0:
109,192,295125,128,2,295237:0:0:0:0:
329,192,295237,128,2,295349:0:0:0:0:
36,192,295237,128,2,295349:0:0:0:0:
109,192,295349,128,2,295462:0:0:0:0:
256,192,295349,128,2,295462:0:0:0:0:
329,192,295462,128,2,295574:0:0:0:0:
182,192,295462,128,2,295574:0:0:0:0:
109,192,295574,128,2,295686:0:0:0:0:
402,192,295574,128,2,295686:0:0:0:0:
36,192,295686,128,2,296360:1:0:0:0:
182,192,295686,128,2,295799:0:0:0:0:
329,192,295686,128,2,295799:0:0:0:0:
256,192,295799,128,2,295911:0:0:0:0:
329,192,295911,128,2,296023:0:0:0:0:
475,192,295911,128,2,296023:0:0:0:0:
256,192,296023,128,2,296136:0:0:0:0:
109,192,296023,128,2,296136:0:0:0:0:
329,192,296136,128,2,296248:0:0:0:0:
182,192,296136,128,2,296248:0:0:0:0:
402,192,296248,128,2,296360:0:0:0:0:
109,192,296248,128,2,296360:0:0:0:0:
329,192,296360,128,2,296473:0:0:0:0:
182,192,296360,128,2,296473:0:0:0:0:
109,192,296473,128,2,296585:0:0:0:0:
256,192,296473,128,2,296585:0:0:0:0:
182,192,296585,128,2,296698:0:0:0:0:
402,192,296585,128,2,296698:0:0:0:0:
256,192,296698,128,2,296810:0:0:0:0:
36,192,296698,128,2,296810:0:0:0:0:
109,192,296810,128,2,296922:0:0:0:0:
329,192,296810,128,2,296922:0:0:0:0:
402,192,296922,128,2,297035:0:0:0:0:
182,192,296922,128,2,297035:0:0:0:0:
36,192,297035,1,0,1:0:0:0:
475,192,297035,1,2,0:0:0:0:
182,192,297119,1,0,1:0:0:0:
329,192,297119,1,2,0:0:0:0:
109,192,297203,1,0,1:0:0:0:
402,192,297203,1,2,0:0:0:0:
182,192,297287,1,0,1:0:0:0:
329,192,297287,1,2,0:0:0:0:
256,192,297372,1,8,1:0:0:0:
475,192,297372,1,2,0:0:0:0:
36,192,297372,1,0,1:0:0:0:
329,192,297456,1,2,0:0:0:0:
182,192,297456,1,0,1:0:0:0:
109,192,297540,1,0,1:0:0:0:
402,192,297540,1,2,0:0:0:0:
329,192,297625,1,2,0:0:0:0:
182,192,297625,1,0,1:0:0:0:
402,192,297709,1,2,0:0:0:0:
109,192,297709,1,0,1:0:0:0:
182,192,297793,1,0,1:0:0:0:
329,192,297793,1,2,0:0:0:0:
475,192,297877,1,2,0:0:0:0:
36,192,297877,1,0,1:0:0:0:
329,192,297962,1,2,0:0:0:0:
182,192,297962,1,0,1:0:0:0:
109,192,298046,1,0,1:0:0:0:
256,192,298046,1,8,1:0:0:0:
402,192,298046,1,2,0:0:0:0:
329,192,298130,1,2,0:0:0:0:
182,192,298130,1,0,1:0:0:0:
36,192,298214,1,0,1:0:0:0:
475,192,298214,1,2,0:0:0:0:
182,192,298299,1,0,1:0:0:0:
329,192,298299,1,2,0:0:0:0:
402,192,298383,128,2,299057:0:0:0:0:
256,192,299057,128,2,299731:0:0:0:0:
36,192,299731,1,4,0:0:0:0:
109,192,299731,1,0,0:0:0:0:
402,192,299731,1,0,0:0:0:0:
475,192,299731,1,4,0:0:0:0:
182,192,299731,1,8,0:0:0:0:
329,192,299731,1,2,2:0:0:0:
256,192,301080,1,2,2:0:0:0:
182,192,301080,1,0,0:0:0:0:
329,192,302428,1,0,0:0:0:0:
402,192,302428,1,2,2:0:0:0:
182,192,303776,1,2,2:0:0:0:
109,192,303776,1,0,0:0:0:0:
402,192,304619,1,0,0:0:0:0:
402,192,304956,1,0,0:0:0:0:
402,192,305125,1,0,0:0:0:0:
256,192,305125,1,2,2:0:0:0:
109,192,305125,1,0,0:0:0:0:
36,192,306473,1,0,0:0:0:0:
182,192,306473,1,2,2:0:0:0:
402,192,307821,1,2,2:0:0:0:
256,192,307821,1,0,0:0:0:0:
329,192,309169,1,0,0:0:0:0:
475,192,309169,1,2,2:0:0:0:
36,192,309169,1,0,0:0:0:8:normal-hitnormal.wav
109,192,309254,1,0,0:0:0:10:normal-hitnormal.wav
182,192,309338,1,0,0:0:0:12:normal-hitnormal.wav
256,192,309422,1,0,0:0:0:14:normal-hitnormal.wav
329,192,309507,1,0,0:0:0:16:normal-hitnormal.wav
402,192,309591,1,0,0:0:0:18:normal-hitnormal.wav
475,192,309675,1,0,0:0:0:20:normal-hitnormal.wav
36,192,309759,1,0,0:0:0:22:normal-hitnormal.wav
109,192,309844,1,0,0:0:0:24:normal-hitnormal.wav
182,192,309928,1,0,0:0:0:26:normal-hitnormal.wav
256,192,310012,1,0,0:0:0:28:normal-hitnormal.wav
329,192,310096,1,0,0:0:0:30:normal-hitnormal.wav
402,192,310181,1,0,0:0:0:32:normal-hitnormal.wav
475,192,310265,1,0,0:0:0:34:normal-hitnormal.wav
36,192,310349,1,0,0:0:0:36:normal-hitnormal.wav
109,192,310434,1,0,0:0:0:38:normal-hitnormal.wav
329,192,310518,128,2,311866:2:0:0:0:
182,192,310518,1,0,0:0:0:0:
402,192,310518,1,4,0:0:0:0:
182,192,310855,1,0,0:0:0:0:
475,192,311192,128,2,311866:2:0:0:0:
182,192,311192,1,0,0:0:0:0:
182,192,311529,1,0,0:0:0:0:
256,192,311866,1,0,0:0:0:0:
36,192,311866,128,2,313214:2:0:0:0:
256,192,312203,1,0,0:0:0:0:
402,192,312540,128,2,313214:2:0:0:0:
256,192,312540,1,0,0:0:0:0:
256,192,312877,1,0,0:0:0:0:
256,192,313214,128,2,314563:2:0:0:0:
475,192,313214,1,0,0:0:0:0:
475,192,313551,1,0,0:0:0:0:
475,192,313889,1,0,0:0:0:0:
109,192,313889,128,2,314563:2:0:0:0:
475,192,314226,1,0,0:0:0:0:
402,192,314563,128,2,315911:2:0:0:0:
182,192,314563,1,0,0:0:0:0:
182,192,314900,1,0,0:0:0:0:
182,192,315237,1,0,0:0:0:0:
329,192,315237,128,2,315911:2:0:0:0:
109,192,315405,1,0,0:0:0:0:
109,192,315742,1,0,0:0:0:0:
36,192,315911,1,0,0:0:0:0:
182,192,315911,1,4,0:0:0:0:
256,192,315911,128,2,317259:2:0:0:0:
36,192,316248,1,0,0:0:0:0:
329,192,316585,128,2,317259:2:0:0:0:
36,192,316585,1,0,0:0:0:0:
36,192,316922,1,0,0:0:0:0:
36,192,317259,1,4,0:0:0:0:
475,192,317259,1,0,0:0:0:0:
182,192,317259,128,2,318608:2:0:0:0:
475,192,317596,1,0,0:0:0:0:
329,192,317934,128,2,318608:2:0:0:0:
475,192,317934,1,0,0:0:0:0:
475,192,318271,1,0,0:0:0:0:
109,192,318608,1,0,0:0:0:0:
256,192,318608,128,2,319956:2:0:0:0:
475,192,318608,1,4,0:0:0:0:
109,192,318945,1,0,0:0:0:0:
402,192,319282,128,2,319956:2:0:0:0:
109,192,319282,1,0,0:0:0:0:
109,192,319619,1,0,0:0:0:0:
109,192,319956,1,0,0:0:0:0:
36,192,319956,128,2,320462:2:0:0:0:
182,192,320040,1,0,0:0:0:0:
256,192,320125,1,0,0:0:0:0:
329,192,320209,1,0,0:0:0:0:
402,192,320293,1,0,0:0:0:0:
475,192,320377,1,0,0:0:0:0:
329,192,320462,1,0,0:0:0:0:
402,192,320546,1,0,0:0:0:0:
256,192,320630,1,0,0:0:0:0:
36,192,320630,128,2,320967:2:0:0:0:
475,192,320630,128,2,320967:2:0:0:0:
329,192,320714,1,0,0:0:0:0:
182,192,320799,1,0,0:0:0:0:
256,192,320883,1,0,0:0:0:0:
329,192,320967,1,0,0:0:0:0:
109,192,320967,128,2,321304:2:0:0:0:
402,192,320967,128,2,321304:2:0:0:0:
182,192,321051,1,0,0:0:0:0:
329,192,321136,1,0,0:0:0:0:
256,192,321220,1,0,0:0:0:0:
182,192,321304,128,2,321641:2:0:0:0:
329,192,321304,128,2,321641:2:0:0:0:
402,192,321641,1,0,0:0:0:0:
475,192,321641,1,4,0:0:0:0:
109,192,321641,1,0,0:0:0:0:
36,192,321641,1,4,0:0:0:0:
256,192,321641,128,2,324674:2:0:0:0:
