osu file format v13

[General]
AudioFilename: Identic_Conflict.mp3
AudioLeadIn: 0
PreviewTime: 45510
Countdown: 1
SampleSet: Soft
StackLeniency: 0.7
Mode: 3
LetterboxInBreaks: 1
SpecialStyle: 0
WidescreenStoryboard: 0

[Editor]
DistanceSpacing: 0.9
BeatDivisor: 4
GridSize: 4
TimelineZoom: 1

[Metadata]
Title:Identic Conflict
TitleUnicode:Identic Conflict
Artist:bbn
ArtistUnicode:bbn
Creator:YunoFanatic
Version:supercalifragilisticexpialidotious
Source:Oblivious Garden
Tags:corypheesoft Evening Primrose
BeatmapID:492642
BeatmapSetID:209291

[Difficulty]
HPDrainRate:9
CircleSize:4
OverallDifficulty:9
ApproachRate:5
SliderMultiplier:1.4
SliderTickRate:1

[Events]
//Background and Video events
0,0,"BG.jpg",0,0
//Break Periods
//Storyboard Layer 0 (Background)
//Storyboard Layer 1 (Fail)
//Storyboard Layer 2 (Pass)
//Storyboard Layer 3 (Foreground)
//Storyboard Sound Samples
//Background Colour Transformations
3,100,163,162,255

[TimingPoints]
2027,337.078651685393,4,2,1,10,1,0
23684,-1000,4,2,1,10,0,0
23768,-20,4,2,1,10,0,0
23852,-100,4,2,1,60,0,0
23937,337.078651685393,4,2,1,60,1,0
27869,-1000,4,2,1,60,0,0
27925,-33.3333333333333,4,2,1,60,0,0
27981,-100,4,2,1,60,0,0
28038,-1000,4,2,1,60,0,0
28094,-33.3333333333333,4,2,1,60,0,0
28150,-100,4,2,1,60,0,0
31577,-1000,4,2,1,60,0,0
31633,-33.3333333333333,4,2,1,60,0,0
31689,-100,4,2,1,60,0,0
68431,-100,4,2,1,60,0,1
90004,-100,4,2,1,60,0,0

[HitObjects]
64,192,1352,128,0,2027:0:0:0:0:
448,192,1352,128,0,2027:0:0:0:0:
320,192,2027,1,0,0:0:0:0:
192,192,2027,1,0,0:0:0:0:
192,192,3375,1,0,0:0:0:0:
64,192,3375,1,0,0:0:0:0:
320,192,3375,1,0,0:0:0:0:
448,192,4723,1,0,0:0:0:0:
192,192,4723,1,0,0:0:0:0:
64,192,4723,1,0,0:0:0:0:
64,192,6071,1,0,0:0:0:0:
448,192,6071,1,0,0:0:0:0:
320,192,6071,1,0,0:0:0:0:
192,192,6914,1,0,0:0:0:0:
320,192,6914,1,0,0:0:0:0:
64,192,7251,1,0,0:0:0:0:
448,192,7251,1,0,0:0:0:0:
192,192,7420,1,0,0:0:0:0:
320,192,7420,1,0,0:0:0:0:
448,192,7420,1,0,0:0:0:0:
64,192,8768,1,0,0:0:0:0:
192,192,8768,1,0,0:0:0:0:
320,192,8768,1,0,0:0:0:0:
448,192,10116,1,0,0:0:0:0:
320,192,10116,1,0,0:0:0:0:
192,192,10116,1,0,0:0:0:0:
64,192,11465,1,0,0:0:0:0:
320,192,11465,1,0,0:0:0:0:
192,192,11465,1,0,0:0:0:0:
192,192,11886,1,0,0:0:0:0:
64,192,11886,1,0,0:0:0:0:
320,192,11970,1,0,0:0:0:0:
448,192,11970,1,0,0:0:0:0:
192,192,12055,1,0,0:0:0:0:
64,192,12055,1,0,0:0:0:0:
320,192,12139,1,0,0:0:0:0:
448,192,12139,1,0,0:0:0:0:
192,192,12223,1,0,0:0:0:0:
64,192,12223,1,0,0:0:0:0:
320,192,12307,1,0,0:0:0:0:
448,192,12307,1,0,0:0:0:0:
192,192,12392,1,0,0:0:0:0:
64,192,12392,1,0,0:0:0:0:
320,192,12476,1,0,0:0:0:0:
448,192,12476,1,0,0:0:0:0:
192,192,12560,1,0,0:0:0:0:
64,192,12560,1,0,0:0:0:0:
320,192,12644,1,0,0:0:0:0:
448,192,12644,1,0,0:0:0:0:
192,192,12729,1,0,0:0:0:0:
64,192,12729,1,0,0:0:0:0:
448,192,12813,1,0,0:0:0:0:
320,192,12813,128,0,13656:0:0:0:0:
192,192,12982,1,0,0:0:0:0:
64,192,13150,1,0,0:0:0:0:
448,192,13150,1,0,0:0:0:0:
192,192,13319,1,0,0:0:0:0:
448,192,13487,1,0,0:0:0:0:
64,192,13487,1,0,0:0:0:0:
64,192,13656,128,0,14161:0:0:0:0:
192,192,13656,1,0,0:0:0:0:
448,192,13824,1,0,0:0:0:0:
320,192,13824,1,0,0:0:0:0:
192,192,13993,1,0,0:0:0:0:
448,192,14161,128,0,14920:0:0:0:0:
320,192,14161,1,0,0:0:0:0:
192,192,14330,1,0,0:0:0:0:
64,192,14498,1,0,0:0:0:0:
320,192,14498,1,0,0:0:0:0:
192,192,14667,1,0,0:0:0:0:
320,192,14835,1,0,0:0:0:0:
192,192,14835,1,0,0:0:0:0:
64,192,14920,128,0,15510:0:0:0:0:
192,192,15004,1,0,0:0:0:0:
448,192,15173,1,0,0:0:0:0:
320,192,15173,1,0,0:0:0:0:
192,192,15341,1,0,0:0:0:0:
320,192,15510,128,0,16268:0:0:0:0:
448,192,15510,1,0,0:0:0:0:
192,192,15510,1,0,0:0:0:0:
448,192,15678,1,0,0:0:0:0:
192,192,15847,1,0,0:0:0:0:
64,192,15847,1,0,0:0:0:0:
448,192,16015,1,0,0:0:0:0:
192,192,16184,1,0,0:0:0:0:
64,192,16184,1,0,0:0:0:0:
448,192,16268,128,0,16858:0:0:0:0:
192,192,16352,1,0,0:0:0:0:
320,192,16521,1,0,0:0:0:0:
64,192,16521,1,0,0:0:0:0:
192,192,16689,1,0,0:0:0:0:
64,192,16858,1,0,0:0:0:0:
320,192,16858,128,0,18206:0:0:0:0:
192,192,17026,1,0,0:0:0:0:
448,192,17195,1,0,0:0:0:0:
64,192,17195,1,0,0:0:0:0:
192,192,17364,1,0,0:0:0:0:
64,192,17532,1,0,0:0:0:0:
448,192,17532,1,0,0:0:0:0:
192,192,17701,1,0,0:0:0:0:
448,192,17701,1,0,0:0:0:0:
64,192,18038,1,0,0:0:0:0:
448,192,18038,1,0,0:0:0:0:
192,192,18206,1,0,0:0:0:0:
64,192,18206,1,0,0:0:0:0:
448,192,18206,128,0,19555:0:0:0:0:
192,192,18375,1,0,0:0:0:0:
192,192,18543,1,0,0:0:0:0:
320,192,18543,1,0,0:0:0:0:
192,192,18712,1,0,0:0:0:0:
64,192,18880,1,0,0:0:0:0:
192,192,18880,1,0,0:0:0:0:
192,192,19049,1,0,0:0:0:0:
320,192,19218,1,0,0:0:0:0:
192,192,19218,1,0,0:0:0:0:
192,192,19386,1,0,0:0:0:0:
64,192,19555,128,0,20903:0:0:0:0:
320,192,19555,1,0,0:0:0:0:
192,192,19723,1,0,0:0:0:0:
192,192,19892,1,0,0:0:0:0:
448,192,19892,1,0,0:0:0:0:
192,192,20060,1,0,0:0:0:0:
320,192,20229,1,0,0:0:0:0:
192,192,20229,1,0,0:0:0:0:
192,192,20397,1,0,0:0:0:0:
192,192,20566,1,0,0:0:0:0:
448,192,20566,1,0,0:0:0:0:
192,192,20734,1,0,0:0:0:0:
448,192,20903,128,0,22251:0:0:0:0:
192,192,20903,1,0,0:0:0:0:
320,192,21071,1,0,0:0:0:0:
320,192,21240,1,0,0:0:0:0:
64,192,21240,1,0,0:0:0:0:
320,192,21409,1,0,0:0:0:0:
320,192,21577,1,0,0:0:0:0:
192,192,21577,1,0,0:0:0:0:
320,192,21746,1,0,0:0:0:0:
320,192,21914,1,0,0:0:0:0:
64,192,21914,1,0,0:0:0:0:
320,192,22083,1,0,0:0:0:0:
320,192,22251,1,0,0:0:0:0:
192,192,22251,1,0,0:0:0:0:
64,192,22335,1,0,0:0:0:0:
192,192,22420,1,0,0:0:0:0:
320,192,22504,1,0,0:0:0:0:
448,192,22588,1,0,0:0:0:0:
64,192,22673,1,0,0:0:0:0:
192,192,22757,1,0,0:0:0:0:
320,192,22841,1,0,0:0:0:0:
448,192,22925,1,0,0:0:0:0:
320,192,23010,1,0,0:0:0:0:
448,192,23094,1,0,0:0:0:0:
64,192,23178,1,0,0:0:0:0:
192,192,23262,1,0,0:0:0:0:
64,192,23347,1,0,0:0:0:0:
192,192,23431,1,0,0:0:0:0:
64,192,23937,1,0,0:0:0:0:
448,192,23937,1,0,0:0:0:0:
320,192,24021,1,0,0:0:0:0:
192,192,24105,1,0,0:0:0:0:
64,192,24189,1,0,0:0:0:0:
448,192,24274,1,0,0:0:0:0:
192,192,24274,1,0,0:0:0:0:
320,192,24330,1,0,0:0:0:0:
192,192,24386,1,0,0:0:0:0:
64,192,24442,1,0,0:0:0:0:
192,192,24498,1,0,0:0:0:0:
320,192,24554,1,0,0:0:0:0:
448,192,24611,1,0,0:0:0:0:
64,192,24611,1,0,0:0:0:0:
192,192,24695,1,0,0:0:0:0:
64,192,24779,1,0,0:0:0:0:
448,192,24863,1,0,0:0:0:0:
320,192,24948,1,0,0:0:0:0:
448,192,25032,1,0,0:0:0:0:
64,192,25116,1,0,0:0:0:0:
192,192,25201,1,0,0:0:0:0:
320,192,25285,1,0,0:0:0:0:
448,192,25285,1,0,0:0:0:0:
64,192,25369,1,0,0:0:0:0:
192,192,25453,1,0,0:0:0:0:
320,192,25538,1,0,0:0:0:0:
448,192,25622,1,0,0:0:0:0:
64,192,25622,1,0,0:0:0:0:
192,192,25706,1,0,0:0:0:0:
320,192,25790,1,0,0:0:0:0:
448,192,25875,1,0,0:0:0:0:
64,192,25959,1,0,0:0:0:0:
320,192,25959,1,0,0:0:0:0:
192,192,26043,1,0,0:0:0:0:
320,192,26128,1,0,0:0:0:0:
448,192,26212,1,0,0:0:0:0:
64,192,26296,1,0,0:0:0:0:
320,192,26296,1,0,0:0:0:0:
192,192,26380,1,0,0:0:0:0:
320,192,26465,1,0,0:0:0:0:
448,192,26549,1,0,0:0:0:0:
64,192,26633,1,0,0:0:0:0:
320,192,26633,1,0,0:0:0:0:
192,192,26717,1,0,0:0:0:0:
320,192,26802,1,0,0:0:0:0:
448,192,26886,1,0,0:0:0:0:
64,192,26970,1,0,0:0:0:0:
320,192,26970,1,0,0:0:0:0:
192,192,27054,1,0,0:0:0:0:
448,192,27139,1,0,0:0:0:0:
320,192,27223,1,0,0:0:0:0:
192,192,27307,1,0,0:0:0:0:
448,192,27307,1,0,0:0:0:0:
64,192,27392,1,0,0:0:0:0:
320,192,27476,1,0,0:0:0:0:
64,192,27560,1,0,0:0:0:0:
448,192,27644,1,0,0:0:0:0:
192,192,27644,1,0,0:0:0:0:
320,192,27729,1,0,0:0:0:0:
192,192,27813,1,0,0:0:0:0:
192,192,27981,1,0,0:0:0:0:
448,192,27981,1,0,0:0:0:0:
64,192,28150,1,0,0:0:0:0:
320,192,28150,1,0,0:0:0:0:
448,192,28487,1,0,0:0:0:0:
64,192,28487,1,0,0:0:0:0:
320,192,28571,1,0,0:0:0:0:
192,192,28656,1,0,0:0:0:0:
320,192,28740,1,0,0:0:0:0:
192,192,28824,1,0,0:0:0:0:
320,192,28908,1,0,0:0:0:0:
192,192,28993,1,0,0:0:0:0:
320,192,29077,1,0,0:0:0:0:
192,192,29161,1,0,0:0:0:0:
320,192,29245,1,0,0:0:0:0:
192,192,29330,1,0,0:0:0:0:
448,192,29330,1,0,0:0:0:0:
64,192,29330,1,0,0:0:0:0:
320,192,29414,1,0,0:0:0:0:
448,192,29498,1,0,0:0:0:0:
192,192,29583,1,0,0:0:0:0:
320,192,29667,1,0,0:0:0:0:
448,192,29667,1,0,0:0:0:0:
64,192,29751,1,0,0:0:0:0:
192,192,29835,1,0,0:0:0:0:
320,192,29920,1,0,0:0:0:0:
448,192,30004,1,0,0:0:0:0:
64,192,30004,1,0,0:0:0:0:
192,192,30088,1,0,0:0:0:0:
320,192,30172,1,0,0:0:0:0:
192,192,30257,1,0,0:0:0:0:
64,192,30341,1,0,0:0:0:0:
448,192,30341,1,0,0:0:0:0:
320,192,30425,1,0,0:0:0:0:
192,192,30510,1,0,0:0:0:0:
320,192,30594,1,0,0:0:0:0:
448,192,30678,1,0,0:0:0:0:
64,192,30678,1,0,0:0:0:0:
192,192,30762,1,0,0:0:0:0:
320,192,30847,1,0,0:0:0:0:
192,192,30931,1,0,0:0:0:0:
64,192,31015,1,0,0:0:0:0:
448,192,31015,1,0,0:0:0:0:
192,192,31099,1,0,0:0:0:0:
320,192,31184,1,0,0:0:0:0:
448,192,31268,1,0,0:0:0:0:
320,192,31352,1,0,0:0:0:0:
64,192,31352,1,0,0:0:0:0:
192,192,31436,1,0,0:0:0:0:
320,192,31521,1,0,0:0:0:0:
448,192,31521,1,0,0:0:0:0:
192,192,31689,1,0,0:0:0:0:
64,192,31689,1,0,0:0:0:0:
320,192,31858,1,0,0:0:0:0:
448,192,31942,1,0,0:0:0:0:
320,192,32026,1,0,0:0:0:0:
64,192,32026,1,0,0:0:0:0:
192,192,32111,1,0,0:0:0:0:
320,192,32195,1,0,0:0:0:0:
448,192,32279,1,0,0:0:0:0:
64,192,32363,1,0,0:0:0:0:
320,192,32363,1,0,0:0:0:0:
192,192,32448,1,0,0:0:0:0:
320,192,32532,1,0,0:0:0:0:
448,192,32616,1,0,0:0:0:0:
320,192,32701,1,0,0:0:0:0:
64,192,32701,1,0,0:0:0:0:
192,192,32785,1,0,0:0:0:0:
320,192,32869,1,0,0:0:0:0:
448,192,32953,1,0,0:0:0:0:
320,192,33038,1,0,0:0:0:0:
64,192,33038,1,0,0:0:0:0:
192,192,33122,1,0,0:0:0:0:
320,192,33206,1,0,0:0:0:0:
448,192,33290,1,0,0:0:0:0:
320,192,33375,1,0,0:0:0:0:
64,192,33375,1,0,0:0:0:0:
192,192,33459,1,0,0:0:0:0:
448,192,33543,1,0,0:0:0:0:
320,192,33628,1,0,0:0:0:0:
192,192,33712,1,0,0:0:0:0:
64,192,33796,1,0,0:0:0:0:
192,192,33880,1,0,0:0:0:0:
320,192,33965,1,0,0:0:0:0:
448,192,34049,1,0,0:0:0:0:
320,192,34133,1,0,0:0:0:0:
192,192,34217,1,0,0:0:0:0:
64,192,34302,1,0,0:0:0:0:
192,192,34386,1,0,0:0:0:0:
320,192,34470,1,0,0:0:0:0:
448,192,34554,1,0,0:0:0:0:
320,192,34639,1,0,0:0:0:0:
192,192,34723,1,0,0:0:0:0:
64,192,34723,1,0,0:0:0:0:
320,192,34807,1,0,0:0:0:0:
448,192,34892,1,0,0:0:0:0:
320,192,34976,1,0,0:0:0:0:
192,192,35060,1,0,0:0:0:0:
448,192,35060,1,0,0:0:0:0:
64,192,35144,1,0,0:0:0:0:
192,192,35229,1,0,0:0:0:0:
320,192,35313,1,0,0:0:0:0:
192,192,35397,1,0,0:0:0:0:
448,192,35397,1,0,0:0:0:0:
64,192,35481,1,0,0:0:0:0:
192,192,35566,1,0,0:0:0:0:
320,192,35650,1,0,0:0:0:0:
448,192,35734,1,0,0:0:0:0:
64,192,35734,1,0,0:0:0:0:
192,192,35819,1,0,0:0:0:0:
320,192,35903,1,0,0:0:0:0:
448,192,35987,1,0,0:0:0:0:
192,192,35987,1,0,0:0:0:0:
64,192,36071,1,0,0:0:0:0:
320,192,36071,1,0,0:0:0:0:
448,192,36240,1,0,0:0:0:0:
192,192,36240,1,0,0:0:0:0:
64,192,36408,1,0,0:0:0:0:
320,192,36408,1,0,0:0:0:0:
448,192,36577,1,0,0:0:0:0:
192,192,36577,1,0,0:0:0:0:
320,192,36745,1,0,0:0:0:0:
64,192,36745,1,0,0:0:0:0:
448,192,36914,1,0,0:0:0:0:
192,192,36914,1,0,0:0:0:0:
192,192,37083,1,0,0:0:0:0:
320,192,37083,1,0,0:0:0:0:
64,192,37251,1,0,0:0:0:0:
448,192,37251,1,0,0:0:0:0:
64,192,37420,1,0,0:0:0:0:
320,192,37420,1,0,0:0:0:0:
192,192,37504,1,0,0:0:0:0:
320,192,37588,1,0,0:0:0:0:
448,192,37672,1,0,0:0:0:0:
320,192,37757,1,0,0:0:0:0:
64,192,37757,1,0,0:0:0:0:
192,192,37841,1,0,0:0:0:0:
320,192,37925,1,0,0:0:0:0:
448,192,38010,1,0,0:0:0:0:
64,192,38094,1,0,0:0:0:0:
320,192,38094,1,0,0:0:0:0:
192,192,38178,1,0,0:0:0:0:
320,192,38262,1,0,0:0:0:0:
448,192,38347,1,0,0:0:0:0:
64,192,38431,1,0,0:0:0:0:
320,192,38431,1,0,0:0:0:0:
192,192,38515,1,0,0:0:0:0:
320,192,38599,1,0,0:0:0:0:
448,192,38684,1,0,0:0:0:0:
320,192,38768,1,0,0:0:0:0:
64,192,38768,1,0,0:0:0:0:
448,192,38852,1,0,0:0:0:0:
320,192,38936,1,0,0:0:0:0:
192,192,39021,1,0,0:0:0:0:
64,192,39105,1,0,0:0:0:0:
448,192,39105,1,0,0:0:0:0:
320,192,39189,1,0,0:0:0:0:
192,192,39274,1,0,0:0:0:0:
64,192,39358,1,0,0:0:0:0:
192,192,39442,1,0,0:0:0:0:
448,192,39442,1,0,0:0:0:0:
320,192,39526,1,0,0:0:0:0:
448,192,39611,1,0,0:0:0:0:
320,192,39695,1,0,0:0:0:0:
192,192,39779,1,0,0:0:0:0:
448,192,39779,1,0,0:0:0:0:
320,192,39863,1,0,0:0:0:0:
192,192,39948,1,0,0:0:0:0:
64,192,40032,1,0,0:0:0:0:
448,192,40116,1,0,0:0:0:0:
320,192,40116,1,0,0:0:0:0:
192,192,40116,1,0,0:0:0:0:
64,192,40285,128,0,40453:0:0:0:0:
192,192,40285,1,0,0:0:0:0:
448,192,40453,128,0,40622:0:0:0:0:
320,192,40453,1,0,0:0:0:0:
192,192,40566,1,0,0:0:0:0:
64,192,40622,128,0,40790:0:0:0:0:
448,192,40790,128,0,40959:0:0:0:0:
320,192,40790,1,0,0:0:0:0:
192,192,40903,1,0,0:0:0:0:
64,192,40959,128,0,41128:0:0:0:0:
448,192,41128,128,0,41296:0:0:0:0:
320,192,41128,1,0,0:0:0:0:
192,192,41240,1,0,0:0:0:0:
64,192,41296,128,0,41465:0:0:0:0:
320,192,41465,1,0,0:0:0:0:
192,192,41577,1,0,0:0:0:0:
320,192,41633,128,0,41802:0:0:0:0:
64,192,41802,128,0,41970:0:0:0:0:
448,192,41802,1,0,0:0:0:0:
192,192,41914,1,0,0:0:0:0:
320,192,41970,128,0,42139:0:0:0:0:
64,192,42139,128,0,42307:0:0:0:0:
448,192,42139,1,0,0:0:0:0:
192,192,42251,1,0,0:0:0:0:
320,192,42307,128,0,42476:0:0:0:0:
64,192,42476,128,0,42644:0:0:0:0:
448,192,42476,1,0,0:0:0:0:
192,192,42588,1,0,0:0:0:0:
320,192,42644,128,0,42813:0:0:0:0:
448,192,42813,1,0,0:0:0:0:
64,192,42813,1,0,0:0:0:0:
192,192,42897,1,0,0:0:0:0:
320,192,42981,1,0,0:0:0:0:
192,192,43066,1,0,0:0:0:0:
320,192,43150,1,0,0:0:0:0:
192,192,43234,1,0,0:0:0:0:
320,192,43319,1,0,0:0:0:0:
192,192,43403,1,0,0:0:0:0:
320,192,43487,1,0,0:0:0:0:
448,192,43571,1,0,0:0:0:0:
320,192,43656,1,0,0:0:0:0:
448,192,43740,1,0,0:0:0:0:
320,192,43824,1,0,0:0:0:0:
448,192,43908,1,0,0:0:0:0:
320,192,43993,1,0,0:0:0:0:
448,192,44077,1,0,0:0:0:0:
320,192,44161,1,0,0:0:0:0:
64,192,44161,1,0,0:0:0:0:
192,192,44245,1,0,0:0:0:0:
64,192,44330,1,0,0:0:0:0:
448,192,44414,1,0,0:0:0:0:
320,192,44498,1,0,0:0:0:0:
64,192,44498,1,0,0:0:0:0:
192,192,44583,1,0,0:0:0:0:
64,192,44667,1,0,0:0:0:0:
448,192,44751,1,0,0:0:0:0:
320,192,44835,1,0,0:0:0:0:
64,192,44835,1,0,0:0:0:0:
192,192,44920,1,0,0:0:0:0:
64,192,45004,1,0,0:0:0:0:
448,192,45088,1,0,0:0:0:0:
320,192,45172,1,0,0:0:0:0:
64,192,45172,1,0,0:0:0:0:
192,192,45257,1,0,0:0:0:0:
64,192,45341,1,0,0:0:0:0:
448,192,45510,1,0,0:0:0:0:
320,192,45510,1,0,0:0:0:0:
64,192,45510,1,0,0:0:0:0:
192,192,45678,1,0,0:0:0:0:
320,192,45847,1,0,0:0:0:0:
448,192,46015,1,0,0:0:0:0:
64,192,46184,1,0,0:0:0:0:
192,192,46352,1,0,0:0:0:0:
320,192,46521,1,0,0:0:0:0:
448,192,46689,1,0,0:0:0:0:
448,192,47026,1,0,0:0:0:0:
320,192,47195,1,0,0:0:0:0:
192,192,47363,1,0,0:0:0:0:
448,192,47532,1,0,0:0:0:0:
320,192,47701,1,0,0:0:0:0:
192,192,47869,1,0,0:0:0:0:
64,192,48206,1,0,0:0:0:0:
192,192,48375,1,0,0:0:0:0:
320,192,48543,1,0,0:0:0:0:
448,192,48712,1,0,0:0:0:0:
64,192,48880,1,0,0:0:0:0:
192,192,49049,1,0,0:0:0:0:
320,192,49217,1,0,0:0:0:0:
448,192,49386,1,0,0:0:0:0:
448,192,49554,1,0,0:0:0:0:
320,192,49723,1,0,0:0:0:0:
448,192,49892,1,0,0:0:0:0:
320,192,50060,1,0,0:0:0:0:
192,192,50229,1,0,0:0:0:0:
64,192,50397,1,0,0:0:0:0:
448,192,50397,1,0,0:0:0:0:
192,192,50566,1,0,0:0:0:0:
64,192,50734,1,0,0:0:0:0:
448,192,50734,1,0,0:0:0:0:
192,192,50903,1,0,0:0:0:0:
448,192,50903,1,0,0:0:0:0:
320,192,51071,1,0,0:0:0:0:
448,192,51240,1,0,0:0:0:0:
64,192,51408,1,0,0:0:0:0:
192,192,51577,1,0,0:0:0:0:
320,192,51745,1,0,0:0:0:0:
448,192,51914,1,0,0:0:0:0:
64,192,52083,1,0,0:0:0:0:
448,192,52420,1,0,0:0:0:0:
320,192,52588,1,0,0:0:0:0:
192,192,52757,1,0,0:0:0:0:
64,192,52925,1,0,0:0:0:0:
448,192,53094,1,0,0:0:0:0:
320,192,53262,1,0,0:0:0:0:
64,192,53599,1,0,0:0:0:0:
192,192,53768,1,0,0:0:0:0:
320,192,53936,1,0,0:0:0:0:
448,192,54105,1,0,0:0:0:0:
64,192,54274,1,0,0:0:0:0:
192,192,54442,1,0,0:0:0:0:
320,192,54611,1,0,0:0:0:0:
448,192,54779,1,0,0:0:0:0:
64,192,54948,1,0,0:0:0:0:
192,192,54948,1,0,0:0:0:0:
448,192,55032,1,0,0:0:0:0:
320,192,55032,1,0,0:0:0:0:
192,192,55116,1,0,0:0:0:0:
64,192,55116,1,0,0:0:0:0:
448,192,55201,1,0,0:0:0:0:
320,192,55201,1,0,0:0:0:0:
192,192,55285,1,0,0:0:0:0:
64,192,55285,1,0,0:0:0:0:
320,192,55369,1,0,0:0:0:0:
448,192,55369,1,0,0:0:0:0:
192,192,55453,1,0,0:0:0:0:
64,192,55453,1,0,0:0:0:0:
320,192,55538,1,0,0:0:0:0:
448,192,55538,1,0,0:0:0:0:
192,192,55622,1,0,0:0:0:0:
64,192,55622,1,0,0:0:0:0:
320,192,55706,1,0,0:0:0:0:
448,192,55706,1,0,0:0:0:0:
192,192,55790,1,0,0:0:0:0:
64,192,55790,1,0,0:0:0:0:
320,192,55875,1,0,0:0:0:0:
448,192,55875,1,0,0:0:0:0:
192,192,55959,1,0,0:0:0:0:
64,192,55959,1,0,0:0:0:0:
320,192,56043,1,0,0:0:0:0:
448,192,56043,1,0,0:0:0:0:
192,192,56128,1,0,0:0:0:0:
64,192,56128,1,0,0:0:0:0:
320,192,56212,1,0,0:0:0:0:
448,192,56212,1,0,0:0:0:0:
192,192,56296,1,0,0:0:0:0:
64,192,56296,1,0,0:0:0:0:
320,192,56296,1,0,0:0:0:0:
448,192,56465,1,0,0:0:0:0:
320,192,56633,1,0,0:0:0:0:
64,192,56633,1,0,0:0:0:0:
192,192,56802,1,0,0:0:0:0:
64,192,56970,1,0,0:0:0:0:
448,192,56970,1,0,0:0:0:0:
192,192,57139,1,0,0:0:0:0:
320,192,57307,1,0,0:0:0:0:
64,192,57307,1,0,0:0:0:0:
448,192,57476,1,0,0:0:0:0:
320,192,57644,1,0,0:0:0:0:
192,192,57644,1,0,0:0:0:0:
64,192,57813,1,0,0:0:0:0:
192,192,57981,1,0,0:0:0:0:
448,192,57981,1,0,0:0:0:0:
320,192,58150,1,0,0:0:0:0:
448,192,58319,1,0,0:0:0:0:
64,192,58319,1,0,0:0:0:0:
320,192,58487,1,0,0:0:0:0:
192,192,58656,1,0,0:0:0:0:
448,192,58656,1,0,0:0:0:0:
64,192,58824,1,0,0:0:0:0:
192,192,58993,1,0,0:0:0:0:
448,192,58993,1,0,0:0:0:0:
320,192,59161,1,0,0:0:0:0:
448,192,59330,1,0,0:0:0:0:
64,192,59330,1,0,0:0:0:0:
192,192,59498,1,0,0:0:0:0:
320,192,59667,1,0,0:0:0:0:
64,192,59667,1,0,0:0:0:0:
448,192,59835,1,0,0:0:0:0:
64,192,60004,1,0,0:0:0:0:
320,192,60004,1,0,0:0:0:0:
192,192,60172,1,0,0:0:0:0:
320,192,60341,1,0,0:0:0:0:
192,192,60510,1,0,0:0:0:0:
64,192,60678,1,0,0:0:0:0:
192,192,60847,1,0,0:0:0:0:
320,192,61015,1,0,0:0:0:0:
64,192,61015,1,0,0:0:0:0:
448,192,61184,1,0,0:0:0:0:
64,192,61184,1,0,0:0:0:0:
192,192,61352,1,0,0:0:0:0:
320,192,61521,1,0,0:0:0:0:
448,192,61689,1,0,0:0:0:0:
64,192,61689,1,0,0:0:0:0:
192,192,61689,1,0,0:0:0:0:
192,192,61858,1,0,0:0:0:0:
320,192,62026,1,0,0:0:0:0:
448,192,62026,1,0,0:0:0:0:
192,192,62195,1,0,0:0:0:0:
64,192,62363,1,0,0:0:0:0:
320,192,62363,1,0,0:0:0:0:
448,192,62532,1,0,0:0:0:0:
320,192,62701,1,0,0:0:0:0:
192,192,62701,1,0,0:0:0:0:
64,192,62869,1,0,0:0:0:0:
192,192,63038,1,0,0:0:0:0:
448,192,63038,1,0,0:0:0:0:
64,192,63038,1,0,0:0:0:0:
320,192,63206,1,0,0:0:0:0:
192,192,63375,1,0,0:0:0:0:
448,192,63375,1,0,0:0:0:0:
64,192,63543,1,0,0:0:0:0:
192,192,63712,1,0,0:0:0:0:
448,192,63712,1,0,0:0:0:0:
320,192,63880,1,0,0:0:0:0:
192,192,64049,1,0,0:0:0:0:
448,192,64049,1,0,0:0:0:0:
448,192,64386,1,0,0:0:0:0:
320,192,64386,1,0,0:0:0:0:
64,192,64386,1,0,0:0:0:0:
192,192,64554,1,0,0:0:0:0:
320,192,64723,1,0,0:0:0:0:
448,192,64723,1,0,0:0:0:0:
64,192,64892,1,0,0:0:0:0:
192,192,65060,1,0,0:0:0:0:
448,192,65060,1,0,0:0:0:0:
320,192,65229,1,0,0:0:0:0:
192,192,65397,1,0,0:0:0:0:
64,192,65397,1,0,0:0:0:0:
320,192,65566,1,0,0:0:0:0:
448,192,65734,1,0,0:0:0:0:
192,192,65734,1,0,0:0:0:0:
64,192,65819,1,0,0:0:0:0:
192,192,65903,1,0,0:0:0:0:
320,192,65987,1,0,0:0:0:0:
448,192,66071,1,0,0:0:0:0:
64,192,66156,1,0,0:0:0:0:
192,192,66240,1,0,0:0:0:0:
320,192,66324,1,0,0:0:0:0:
448,192,66408,1,0,0:0:0:0:
64,192,66493,1,0,0:0:0:0:
192,192,66577,1,0,0:0:0:0:
320,192,66661,1,0,0:0:0:0:
448,192,66745,1,0,0:0:0:0:
64,192,66830,1,0,0:0:0:0:
192,192,66914,1,0,0:0:0:0:
320,192,66998,1,0,0:0:0:0:
448,192,67083,1,0,0:0:0:0:
64,192,67083,1,0,0:0:0:0:
192,192,67083,1,0,0:0:0:0:
320,192,67167,1,0,0:0:0:0:
192,192,67251,1,0,0:0:0:0:
64,192,67335,1,0,0:0:0:0:
448,192,67420,1,0,0:0:0:0:
320,192,67504,1,0,0:0:0:0:
192,192,67588,1,0,0:0:0:0:
64,192,67672,1,0,0:0:0:0:
448,192,67757,1,0,0:0:0:0:
320,192,67841,1,0,0:0:0:0:
192,192,67925,1,0,0:0:0:0:
64,192,68010,1,0,0:0:0:0:
448,192,68094,1,0,0:0:0:0:
320,192,68178,1,0,0:0:0:0:
192,192,68262,1,0,0:0:0:0:
64,192,68347,1,0,0:0:0:0:
448,192,68431,1,0,0:0:0:0:
192,192,68431,1,0,0:0:0:0:
320,192,68431,128,0,69779:0:0:0:0:
64,192,68599,1,0,0:0:0:0:
192,192,68768,1,0,0:0:0:0:
448,192,68768,1,0,0:0:0:0:
64,192,68936,1,0,0:0:0:0:
448,192,69105,1,0,0:0:0:0:
192,192,69105,128,0,69358:0:0:0:0:
64,192,69274,1,0,0:0:0:0:
448,192,69358,128,0,69611:0:0:0:0:
64,192,69442,1,0,0:0:0:0:
192,192,69611,128,0,69779:0:0:0:0:
64,192,69779,128,0,71128:0:0:0:0:
320,192,69948,1,0,0:0:0:0:
448,192,70116,1,0,0:0:0:0:
192,192,70116,1,0,0:0:0:0:
320,192,70285,1,0,0:0:0:0:
448,192,70453,1,0,0:0:0:0:
192,192,70453,128,0,70706:0:0:0:0:
448,192,70622,1,0,0:0:0:0:
320,192,70706,128,0,70959:0:0:0:0:
448,192,70790,1,0,0:0:0:0:
192,192,70959,128,0,71128:0:0:0:0:
448,192,71128,128,0,72476:0:0:0:0:
320,192,71128,1,0,0:0:0:0:
192,192,71296,1,0,0:0:0:0:
320,192,71465,1,0,0:0:0:0:
64,192,71465,1,0,0:0:0:0:
192,192,71633,1,0,0:0:0:0:
320,192,71802,1,0,0:0:0:0:
64,192,71802,128,0,72054:0:0:0:0:
320,192,71970,1,0,0:0:0:0:
192,192,72054,128,0,72307:0:0:0:0:
320,192,72139,1,0,0:0:0:0:
320,192,72307,128,0,72476:0:0:0:0:
64,192,72476,128,0,73824:0:0:0:0:
192,192,72476,1,0,0:0:0:0:
320,192,72644,1,0,0:0:0:0:
192,192,72813,1,0,0:0:0:0:
448,192,72813,1,0,0:0:0:0:
320,192,72981,1,0,0:0:0:0:
448,192,73150,1,0,0:0:0:0:
192,192,73150,128,0,73403:0:0:0:0:
320,192,73319,1,0,0:0:0:0:
448,192,73319,1,0,0:0:0:0:
448,192,73403,128,0,73656:0:0:0:0:
320,192,73656,1,0,0:0:0:0:
192,192,73656,128,0,73824:0:0:0:0:
320,192,73824,128,0,75172:0:0:0:0:
448,192,73824,1,0,0:0:0:0:
192,192,73993,1,0,0:0:0:0:
448,192,74161,1,0,0:0:0:0:
64,192,74161,1,0,0:0:0:0:
192,192,74330,1,0,0:0:0:0:
448,192,74498,1,0,0:0:0:0:
64,192,74498,128,0,74751:0:0:0:0:
192,192,74667,1,0,0:0:0:0:
448,192,74751,128,0,75004:0:0:0:0:
192,192,74835,1,0,0:0:0:0:
64,192,75004,1,0,0:0:0:0:
192,192,75004,128,0,75172:0:0:0:0:
448,192,75172,128,0,76521:0:0:0:0:
64,192,75172,1,0,0:0:0:0:
192,192,75341,1,0,0:0:0:0:
64,192,75425,128,0,75678:0:0:0:0:
320,192,75510,1,0,0:0:0:0:
192,192,75510,1,0,0:0:0:0:
320,192,75678,128,0,75847:0:0:0:0:
192,192,75678,1,0,0:0:0:0:
64,192,75847,128,0,76099:0:0:0:0:
192,192,75847,1,0,0:0:0:0:
192,192,76015,1,0,0:0:0:0:
320,192,76099,128,0,76352:0:0:0:0:
192,192,76184,1,0,0:0:0:0:
64,192,76184,1,0,0:0:0:0:
64,192,76352,128,0,76521:0:0:0:0:
192,192,76352,1,0,0:0:0:0:
192,192,76521,128,0,77869:0:0:0:0:
320,192,76521,1,0,0:0:0:0:
320,192,76689,1,0,0:0:0:0:
448,192,76858,1,0,0:0:0:0:
64,192,76858,1,0,0:0:0:0:
320,192,77026,1,0,0:0:0:0:
64,192,77195,1,0,0:0:0:0:
448,192,77195,128,0,77448:0:0:0:0:
320,192,77363,1,0,0:0:0:0:
64,192,77448,128,0,77701:0:0:0:0:
320,192,77532,1,0,0:0:0:0:
448,192,77701,128,0,77869:0:0:0:0:
320,192,77701,1,0,0:0:0:0:
64,192,77869,1,0,0:0:0:0:
320,192,77869,128,0,78122:0:0:0:0:
192,192,77953,1,0,0:0:0:0:
448,192,78038,1,0,0:0:0:0:
64,192,78122,1,0,0:0:0:0:
192,192,78206,1,0,0:0:0:0:
320,192,78206,128,0,78459:0:0:0:0:
448,192,78290,1,0,0:0:0:0:
64,192,78375,1,0,0:0:0:0:
192,192,78459,1,0,0:0:0:0:
448,192,78543,1,0,0:0:0:0:
320,192,78543,128,0,78796:0:0:0:0:
64,192,78628,1,0,0:0:0:0:
192,192,78712,1,0,0:0:0:0:
448,192,78796,1,0,0:0:0:0:
64,192,78880,1,0,0:0:0:0:
320,192,78880,128,0,79217:0:0:0:0:
192,192,78965,1,0,0:0:0:0:
448,192,79049,1,0,0:0:0:0:
64,192,79133,1,0,0:0:0:0:
64,192,79217,128,0,80566:0:0:0:0:
192,192,79217,1,0,0:0:0:0:
448,192,79217,1,0,0:0:0:0:
192,192,79386,1,0,0:0:0:0:
320,192,79554,1,0,0:0:0:0:
448,192,79554,1,0,0:0:0:0:
192,192,79723,1,0,0:0:0:0:
192,192,79892,128,0,80144:0:0:0:0:
320,192,79892,1,0,0:0:0:0:
448,192,79892,1,0,0:0:0:0:
448,192,80060,1,0,0:0:0:0:
320,192,80144,128,0,80397:0:0:0:0:
448,192,80229,1,0,0:0:0:0:
192,192,80397,128,0,80566:0:0:0:0:
448,192,80397,1,0,0:0:0:0:
448,192,80566,128,0,81914:0:0:0:0:
320,192,80566,1,0,0:0:0:0:
192,192,80734,1,0,0:0:0:0:
64,192,80903,1,0,0:0:0:0:
320,192,80903,1,0,0:0:0:0:
192,192,81071,1,0,0:0:0:0:
320,192,81240,128,0,81493:0:0:0:0:
64,192,81240,1,0,0:0:0:0:
192,192,81408,1,0,0:0:0:0:
64,192,81493,128,0,81745:0:0:0:0:
192,192,81577,1,0,0:0:0:0:
320,192,81745,128,0,81914:0:0:0:0:
192,192,81745,1,0,0:0:0:0:
192,192,81914,128,0,83262:0:0:0:0:
64,192,81914,1,0,0:0:0:0:
320,192,82083,1,0,0:0:0:0:
448,192,82251,1,0,0:0:0:0:
64,192,82251,1,0,0:0:0:0:
320,192,82420,1,0,0:0:0:0:
64,192,82588,128,0,82841:0:0:0:0:
448,192,82588,1,0,0:0:0:0:
320,192,82757,1,0,0:0:0:0:
320,192,82841,128,0,83010:0:0:0:0:
448,192,82925,1,0,0:0:0:0:
64,192,83094,128,0,83262:0:0:0:0:
448,192,83094,1,0,0:0:0:0:
448,192,83262,128,0,84611:0:0:0:0:
320,192,83262,1,0,0:0:0:0:
64,192,83431,1,0,0:0:0:0:
320,192,83599,1,0,0:0:0:0:
192,192,83599,1,0,0:0:0:0:
64,192,83768,1,0,0:0:0:0:
320,192,83936,128,0,84189:0:0:0:0:
192,192,83936,1,0,0:0:0:0:
64,192,83936,1,0,0:0:0:0:
192,192,84105,1,0,0:0:0:0:
64,192,84105,1,0,0:0:0:0:
64,192,84189,128,0,84442:0:0:0:0:
192,192,84274,1,0,0:0:0:0:
192,192,84442,128,0,84611:0:0:0:0:
320,192,84442,1,0,0:0:0:0:
64,192,84611,128,0,85959:0:0:0:0:
320,192,84611,1,0,0:0:0:0:
320,192,84779,1,0,0:0:0:0:
192,192,84948,1,0,0:0:0:0:
448,192,84948,1,0,0:0:0:0:
320,192,85116,1,0,0:0:0:0:
448,192,85285,128,0,85538:0:0:0:0:
192,192,85285,1,0,0:0:0:0:
320,192,85285,1,0,0:0:0:0:
320,192,85453,1,0,0:0:0:0:
192,192,85538,128,0,85790:0:0:0:0:
320,192,85622,1,0,0:0:0:0:
448,192,85622,1,0,0:0:0:0:
448,192,85790,128,0,85959:0:0:0:0:
320,192,85790,1,0,0:0:0:0:
320,192,85959,128,0,87307:0:0:0:0:
192,192,85959,1,0,0:0:0:0:
192,192,86128,1,0,0:0:0:0:
64,192,86296,1,0,0:0:0:0:
448,192,86296,1,0,0:0:0:0:
192,192,86465,1,0,0:0:0:0:
192,192,86633,128,0,86886:0:0:0:0:
64,192,86633,1,0,0:0:0:0:
448,192,86633,1,0,0:0:0:0:
64,192,86802,1,0,0:0:0:0:
448,192,86886,128,0,87139:0:0:0:0:
64,192,86970,1,0,0:0:0:0:
192,192,86970,1,0,0:0:0:0:
64,192,87139,128,0,87307:0:0:0:0:
192,192,87139,1,0,0:0:0:0:
448,192,87307,128,0,88656:0:0:0:0:
192,192,87307,1,0,0:0:0:0:
192,192,87476,1,0,0:0:0:0:
64,192,87644,1,0,0:0:0:0:
320,192,87644,1,0,0:0:0:0:
192,192,87813,1,0,0:0:0:0:
320,192,87981,1,0,0:0:0:0:
64,192,87981,1,0,0:0:0:0:
192,192,88150,1,0,0:0:0:0:
64,192,88319,1,0,0:0:0:0:
320,192,88319,1,0,0:0:0:0:
192,192,88487,1,0,0:0:0:0:
64,192,88656,128,0,90004:0:0:0:0:
192,192,88656,1,0,0:0:0:0:
320,192,88656,1,0,0:0:0:0:
192,192,88740,1,0,0:0:0:0:
320,192,88824,1,0,0:0:0:0:
448,192,88908,1,0,0:0:0:0:
192,192,88993,1,0,0:0:0:0:
320,192,89077,1,0,0:0:0:0:
448,192,89161,1,0,0:0:0:0:
192,192,89245,1,0,0:0:0:0:
192,192,89330,128,0,90004:0:0:0:0:
320,192,89330,1,0,0:0:0:0:
448,192,89414,1,0,0:0:0:0:
320,192,89498,1,0,0:0:0:0:
448,192,89583,1,0,0:0:0:0:
320,192,89667,1,0,0:0:0:0:
448,192,89751,1,0,0:0:0:0:
320,192,89835,1,0,0:0:0:0:
448,192,89920,1,0,0:0:0:0:
320,192,90004,128,0,93038:0:0:0:0:
448,192,90004,128,0,93038:0:0:0:0:
