osu file format v10

[General]
AudioFilename: Identic_Conflict.mp3
AudioLeadIn: 500
PreviewTime: 45151
Countdown: 0
SampleSet: Normal
StackLeniency: 0.7
Mode: 1
LetterboxInBreaks: 0

[Editor]
Bookmarks: 23746,44739
DistanceSpacing: 0
BeatDivisor: 4
GridSize: 32

[Metadata]
Title:Identic Conflict
TitleUnicode:Identic Conflict
Artist:bbn
ArtistUnicode:bbn
Creator:Flower
Version:Taiko Oni
Source:Oblivious Garden
Tags:corypheesoft Evening Primrose
BeatmapID:176435
BeatmapSetID:49188

[Difficulty]
HPDrainRate:5
CircleSize:5
OverallDifficulty:6
ApproachRate:5
SliderMultiplier:1.4
SliderTickRate:1

[Events]
//Background and Video events
Video,0,"Identic Conflict.flv"
0,0,"taiko_bg.jpg"
//Break Periods
//Storyboard Layer 0 (Background)
//Storyboard Layer 1 (Fail)
//Storyboard Layer 2 (Pass)
//Storyboard Layer 3 (Foreground)
//Storyboard Sound Samples
//Background Colour Transformations
3,100,0,0,0

[TimingPoints]
2027,337.078651685393,4,1,0,70,1,0
2027,-117.647058823529,4,1,0,70,0,0
23937,337.078651685393,4,1,0,75,1,0
45510,-100,4,1,0,70,0,0
68431,-100,4,1,0,75,0,1
90004,-100,4,1,0,75,0,0

[Colours]
Combo1 : 68,194,255
Combo2 : 255,62,62

[HitObjects]
256,192,2027,1,4,0:0:0
256,192,3375,1,0,0:0:0
256,192,4723,1,0,0:0:0
256,192,6071,1,0,0:0:0
256,192,7420,1,4,0:0:0
256,192,8768,1,0,0:0:0
256,192,10116,1,0,0:0:0
256,192,11465,1,0,0:0:0
256,192,12307,1,8,0:0:0
256,192,12644,1,8,0:0:0
256,192,12813,1,4,0:0:0
256,192,13487,1,0,0:0:0
256,192,14161,1,0,0:0:0
256,192,14835,1,0,0:0:0
256,192,15510,1,4,0:0:0
256,192,16184,1,0,0:0:0
256,192,16858,1,0,0:0:0
256,192,17195,1,0,0:0:0
256,192,17532,1,0,0:0:0
256,192,17701,1,0,0:0:0
256,192,17869,1,8,0:0:0
256,192,18038,1,8,0:0:0
256,192,18206,1,4,0:0:0
256,192,18543,1,0,0:0:0
256,192,18880,1,8,0:0:0
256,192,19218,1,8,0:0:0
256,192,19555,1,4,0:0:0
256,192,19892,1,0,0:0:0
256,192,20060,1,0,0:0:0
256,192,20229,1,8,0:0:0
256,192,20566,1,8,0:0:0
256,192,20903,1,4,0:0:0
256,192,21240,1,0,0:0:0
256,192,21577,1,0,0:0:0
256,192,21746,1,0,0:0:0
256,192,21830,1,0,0:0:0
256,192,21914,1,8,0:0:0
256,192,22083,1,8,0:0:0
256,192,22251,12,0,23262,0:0:0
256,192,23937,5,4,0:0:0
256,192,24105,1,8,0:0:0
256,192,24274,1,0,0:0:0
256,192,24358,1,0,0:0:0
256,192,24442,1,8,0:0:0
256,192,24611,1,0,0:0:0
256,192,24695,1,0,0:0:0
256,192,24779,1,8,0:0:0
256,192,24863,1,8,0:0:0
256,192,24948,1,0,0:0:0
256,192,25116,1,8,0:0:0
256,192,25285,1,0,0:0:0
256,192,25369,1,0,0:0:0
256,192,25453,1,8,0:0:0
256,192,25622,1,0,0:0:0
256,192,25790,1,8,0:0:0
256,192,25875,1,0,0:0:0
256,192,25959,1,0,0:0:0
256,192,26043,1,0,0:0:0
256,192,26128,1,8,0:0:0
256,192,26296,1,0,0:0:0
256,192,26380,1,0,0:0:0
256,192,26465,1,8,0:0:0
256,192,26549,1,8,0:0:0
256,192,26633,1,0,0:0:0
256,192,26717,1,0,0:0:0
256,192,26802,1,8,0:0:0
256,192,26970,1,0,0:0:0
256,192,27139,1,8,0:0:0
256,192,27223,1,0,0:0:0
256,192,27307,1,0,0:0:0
256,192,27476,1,8,0:0:0
256,192,27644,1,0,0:0:0
256,192,27729,1,0,0:0:0
256,192,27813,1,8,0:0:0
256,192,27981,1,0,0:0:0
256,192,28150,1,8,0:0:0
256,192,28487,1,8,0:0:0
256,192,28656,1,0,0:0:0
256,192,28824,1,0,0:0:0
256,192,28908,1,0,0:0:0
256,192,28993,1,0,0:0:0
256,192,29077,1,0,0:0:0
256,192,29161,1,8,0:0:0
256,192,29330,1,8,0:0:0
256,192,29414,1,0,0:0:0
256,192,29498,1,0,0:0:0
256,192,29667,1,8,0:0:0
256,192,29751,1,0,0:0:0
256,192,29835,1,0,0:0:0
256,192,30004,1,8,0:0:0
256,192,30088,1,8,0:0:0
256,192,30172,1,0,0:0:0
256,192,30341,1,8,0:0:0
256,192,30425,1,8,0:0:0
256,192,30510,1,0,0:0:0
256,192,30678,1,0,0:0:0
256,192,30847,1,0,0:0:0
256,192,30931,1,0,0:0:0
256,192,31015,1,8,0:0:0
256,192,31184,1,0,0:0:0
256,192,31268,1,0,0:0:0
256,192,31352,1,8,0:0:0
256,192,31521,1,8,0:0:0
256,192,31689,1,8,0:0:0
256,192,31858,1,8,0:0:0
256,192,31942,1,8,0:0:0
256,192,32026,1,0,0:0:0
256,192,32111,1,0,0:0:0
256,192,32195,1,8,0:0:0
256,192,32363,1,0,0:0:0
256,192,32532,1,8,0:0:0
256,192,32616,1,8,0:0:0
256,192,32701,1,0,0:0:0
256,192,32869,1,8,0:0:0
256,192,33038,1,0,0:0:0
256,192,33122,1,0,0:0:0
256,192,33206,1,8,0:0:0
256,192,33290,1,8,0:0:0
256,192,33375,1,0,0:0:0
256,192,33459,1,0,0:0:0
256,192,33543,1,8,0:0:0
256,192,33712,1,0,0:0:0
256,192,33796,1,0,0:0:0
256,192,33880,1,8,0:0:0
256,192,34049,1,0,0:0:0
256,192,34217,1,8,0:0:0
256,192,34302,1,8,0:0:0
256,192,34386,1,0,0:0:0
256,192,34470,1,0,0:0:0
256,192,34554,1,8,0:0:0
256,192,34723,1,4,0:0:0
256,192,35397,1,0,0:0:0
256,192,35481,1,0,0:0:0
256,192,35566,1,8,0:0:0
256,192,35650,1,8,0:0:0
256,192,35734,1,0,0:0:0
256,192,35819,1,0,0:0:0
256,192,35903,1,8,0:0:0
256,192,35987,1,0,0:0:0
256,192,36071,1,8,0:0:0
256,192,36240,1,0,0:0:0
256,192,36408,1,8,0:0:0
256,192,36577,1,0,0:0:0
256,192,36745,1,8,0:0:0
256,192,36914,1,0,0:0:0
256,192,37083,1,12,0:0:0
256,192,37251,1,0,0:0:0
256,192,37420,1,8,0:0:0
256,192,37504,1,8,0:0:0
256,192,37588,1,8,0:0:0
256,192,37672,1,0,0:0:0
256,192,37757,1,8,0:0:0
256,192,37841,1,8,0:0:0
256,192,37925,1,8,0:0:0
256,192,38010,1,0,0:0:0
256,192,38094,1,0,0:0:0
256,192,38178,1,0,0:0:0
256,192,38262,1,8,0:0:0
256,192,38347,1,0,0:0:0
256,192,38431,1,8,0:0:0
256,192,38515,1,0,0:0:0
256,192,38599,1,8,0:0:0
256,192,38684,1,0,0:0:0
256,192,38768,1,8,0:0:0
256,192,38852,1,0,0:0:0
256,192,38936,1,0,0:0:0
256,192,39021,1,8,0:0:0
256,192,39105,1,8,0:0:0
256,192,39189,1,0,0:0:0
256,192,39274,1,8,0:0:0
256,192,39358,1,0,0:0:0
256,192,39442,1,0,0:0:0
256,192,39526,1,0,0:0:0
256,192,39611,1,8,0:0:0
256,192,39695,1,0,0:0:0
256,192,39779,1,0,0:0:0
256,192,39863,1,0,0:0:0
256,192,39948,1,8,0:0:0
256,192,40116,1,0,0:0:0
256,192,40285,1,8,0:0:0
256,192,40453,1,0,0:0:0
256,192,40622,1,8,0:0:0
256,192,40790,1,0,0:0:0
256,192,40959,1,8,0:0:0
256,192,41128,1,0,0:0:0
256,192,41296,1,8,0:0:0
256,192,41465,1,0,0:0:0
256,192,41550,1,0,0:0:0
256,192,41634,1,8,0:0:0
256,192,41802,1,0,0:0:0
256,192,41887,1,0,0:0:0
256,192,41971,1,8,0:0:0
256,192,42139,1,0,0:0:0
256,192,42224,1,0,0:0:0
256,192,42308,1,8,0:0:0
256,192,42477,1,0,0:0:0
256,192,42561,1,0,0:0:0
256,192,42645,1,8,0:0:0
256,192,42813,1,0,0:0:0
256,192,42897,1,0,0:0:0
256,192,42981,1,0,0:0:0
256,192,43150,1,8,0:0:0
256,192,43319,1,0,0:0:0
256,192,43487,1,0,0:0:0
256,192,43571,1,0,0:0:0
256,192,43656,1,0,0:0:0
256,192,43824,1,8,0:0:0
256,192,43993,1,0,0:0:0
256,192,44161,2,0,B|160:192,6,70
256,192,45510,1,4,0:0:0
256,192,45678,1,0,0:0:0
256,192,45847,1,8,0:0:0
256,192,46015,1,0,0:0:0
256,192,46184,1,0,0:0:0
256,192,46352,1,0,0:0:0
256,192,46521,1,8,0:0:0
256,192,46689,1,0,0:0:0
256,192,46774,1,0,0:0:0
256,192,46858,1,0,0:0:0
256,192,47026,1,0,0:0:0
256,192,47195,1,8,0:0:0
256,192,47363,1,0,0:0:0
256,192,47532,1,0,0:0:0
256,192,47701,1,0,0:0:0
256,192,47869,1,8,0:0:0
256,192,48206,1,0,0:0:0
256,192,48375,1,0,0:0:0
256,192,48543,1,8,0:0:0
256,192,48712,1,0,0:0:0
256,192,48880,1,0,0:0:0
256,192,49049,1,8,0:0:0
256,192,49217,1,8,0:0:0
256,192,49386,1,0,0:0:0
256,192,49554,1,8,0:0:0
256,192,49723,1,0,0:0:0
256,192,49892,1,0,0:0:0
256,192,50060,1,8,0:0:0
256,192,50229,1,8,0:0:0
256,192,50397,1,0,0:0:0
256,192,50566,1,0,0:0:0
256,192,50734,1,8,0:0:0
256,192,50903,1,0,0:0:0
256,192,51071,1,0,0:0:0
256,192,51240,1,8,0:0:0
256,192,51408,1,0,0:0:0
256,192,51577,1,0,0:0:0
256,192,51745,1,0,0:0:0
256,192,51914,1,8,0:0:0
256,192,52083,1,0,0:0:0
256,192,52167,1,0,0:0:0
256,192,52251,1,0,0:0:0
256,192,52420,1,0,0:0:0
256,192,52588,1,8,0:0:0
256,192,52757,1,0,0:0:0
256,192,52925,1,0,0:0:0
256,192,53094,1,0,0:0:0
256,192,53262,1,8,0:0:0
256,192,53599,1,0,0:0:0
256,192,53768,1,0,0:0:0
256,192,53936,1,8,0:0:0
256,192,54105,1,0,0:0:0
256,192,54274,1,0,0:0:0
256,192,54442,1,0,0:0:0
256,192,54611,1,8,0:0:0
256,192,54779,1,0,0:0:0
256,192,54948,1,8,0:0:0
256,192,55032,1,8,0:0:0
256,192,55116,1,0,0:0:0
256,192,55285,1,0,0:0:0
256,192,55369,1,0,0:0:0
256,192,55453,1,8,0:0:0
256,192,55622,1,8,0:0:0
256,192,55706,1,8,0:0:0
256,192,55790,1,0,0:0:0
256,192,55959,1,0,0:0:0
256,192,56043,1,0,0:0:0
256,192,56128,1,8,0:0:0
256,192,56296,1,4,0:0:0
256,192,56465,1,8,0:0:0
256,192,56633,1,0,0:0:0
256,192,56802,1,8,0:0:0
256,192,56970,1,0,0:0:0
256,192,57139,1,8,0:0:0
256,192,57307,1,0,0:0:0
256,192,57476,1,8,0:0:0
256,192,57560,1,8,0:0:0
256,192,57644,1,0,0:0:0
256,192,57813,1,8,0:0:0
256,192,57981,1,0,0:0:0
256,192,58150,1,8,0:0:0
256,192,58319,1,0,0:0:0
256,192,58487,1,8,0:0:0
256,192,58656,1,0,0:0:0
256,192,58993,1,0,0:0:0
256,192,59161,1,8,0:0:0
256,192,59330,1,0,0:0:0
256,192,59498,1,8,0:0:0
256,192,59667,1,0,0:0:0
256,192,59835,1,8,0:0:0
256,192,60004,1,0,0:0:0
256,192,60172,1,8,0:0:0
256,192,60341,1,8,0:0:0
256,192,60425,1,8,0:0:0
256,192,60510,1,0,0:0:0
256,192,60678,1,0,0:0:0
256,192,60762,1,0,0:0:0
256,192,60847,1,8,0:0:0
256,192,61015,1,8,0:0:0
256,192,61099,1,8,0:0:0
256,192,61184,1,0,0:0:0
256,192,61352,1,0,0:0:0
256,192,61436,1,0,0:0:0
256,192,61521,1,8,0:0:0
256,192,61689,1,4,0:0:0
256,192,61858,1,0,0:0:0
256,192,62026,1,8,0:0:0
256,192,62195,1,0,0:0:0
256,192,62363,1,0,0:0:0
256,192,62532,1,8,0:0:0
256,192,62701,1,8,0:0:0
256,192,62869,1,0,0:0:0
256,192,63038,1,4,0:0:0
256,192,63206,1,0,0:0:0
256,192,63290,1,0,0:0:0
256,192,63375,1,8,0:0:0
256,192,63543,1,0,0:0:0
256,192,63712,1,0,0:0:0
256,192,63880,1,0,0:0:0
256,192,64049,1,8,0:0:0
256,192,64386,1,4,0:0:0
256,192,64554,1,0,0:0:0
256,192,64723,1,8,0:0:0
256,192,64892,1,0,0:0:0
256,192,65060,1,0,0:0:0
256,192,65229,1,0,0:0:0
256,192,65397,1,8,0:0:0
256,192,65566,1,0,0:0:0
256,192,65734,1,8,0:0:0
256,192,65819,1,0,0:0:0
256,192,65903,1,8,0:0:0
256,192,65987,1,8,0:0:0
256,192,66071,1,0,0:0:0
256,192,66156,1,8,0:0:0
256,192,66240,1,8,0:0:0
256,192,66324,1,0,0:0:0
256,192,66408,1,8,0:0:0
256,192,66493,1,0,0:0:0
256,192,66577,1,8,0:0:0
256,192,66661,1,8,0:0:0
256,192,66745,1,0,0:0:0
256,192,66830,1,0,0:0:0
256,192,66914,1,8,0:0:0
256,192,67083,1,8,0:0:0
256,192,67167,1,0,0:0:0
256,192,67251,1,8,0:0:0
256,192,67335,1,8,0:0:0
256,192,67420,1,0,0:0:0
256,192,67504,1,0,0:0:0
256,192,67588,1,8,0:0:0
256,192,67672,1,0,0:0:0
256,192,67757,1,8,0:0:0
256,192,67841,1,8,0:0:0
256,192,67925,1,0,0:0:0
256,192,68010,1,8,0:0:0
256,192,68094,1,8,0:0:0
256,192,68178,1,0,0:0:0
256,192,68262,1,8,0:0:0
256,192,68431,1,4,0:0:0
256,192,68599,1,0,0:0:0
256,192,68684,1,0,0:0:0
256,192,68768,1,8,0:0:0
256,192,68936,1,0,0:0:0
256,192,69021,1,0,0:0:0
256,192,69105,1,8,0:0:0
256,192,69189,1,0,0:0:0
256,192,69358,1,8,0:0:0
256,192,69442,1,0,0:0:0
256,192,69526,1,0,0:0:0
256,192,69611,1,8,0:0:0
256,192,69779,1,0,0:0:0
256,192,69863,1,0,0:0:0
256,192,70032,1,0,0:0:0
256,192,70116,1,8,0:0:0
256,192,70201,1,0,0:0:0
256,192,70285,1,0,0:0:0
256,192,70453,1,0,0:0:0
256,192,70538,1,0,0:0:0
256,192,70622,1,0,0:0:0
256,192,70706,1,8,0:0:0
256,192,70875,1,0,0:0:0
256,192,70959,1,8,0:0:0
256,192,71128,1,8,0:0:0
256,192,71296,1,8,0:0:0
256,192,71380,1,8,0:0:0
256,192,71465,1,8,0:0:0
256,192,71633,1,8,0:0:0
256,192,71802,1,8,0:0:0
256,192,71886,1,0,0:0:0
256,192,72054,1,8,0:0:0
256,192,72139,1,0,0:0:0
256,192,72223,1,0,0:0:0
256,192,72307,1,8,0:0:0
256,192,72476,1,0,0:0:0
256,192,72560,1,0,0:0:0
256,192,72729,1,0,0:0:0
256,192,72813,1,8,0:0:0
256,192,72897,1,0,0:0:0
256,192,72981,1,0,0:0:0
256,192,73150,1,0,0:0:0
256,192,73234,1,0,0:0:0
256,192,73319,1,0,0:0:0
256,192,73403,1,8,0:0:0
256,192,73487,1,0,0:0:0
256,192,73571,1,0,0:0:0
256,192,73656,1,8,0:0:0
256,192,73824,1,8,0:0:0
256,192,73908,1,0,0:0:0
256,192,74077,1,0,0:0:0
256,192,74161,1,8,0:0:0
256,192,74330,1,0,0:0:0
256,192,74498,1,8,0:0:0
256,192,74583,1,0,0:0:0
256,192,74667,1,0,0:0:0
256,192,74751,1,8,0:0:0
256,192,74920,1,8,0:0:0
256,192,75004,1,0,0:0:0
256,192,75172,1,0,0:0:0
256,192,75341,1,0,0:0:0
256,192,75425,1,8,0:0:0
256,192,75594,1,0,0:0:0
256,192,75678,1,8,0:0:0
256,192,75762,1,8,0:0:0
256,192,75847,1,0,0:0:0
256,192,76015,1,0,0:0:0
256,192,76099,1,8,0:0:0
256,192,76184,1,0,0:0:0
256,192,76268,1,0,0:0:0
256,192,76352,1,8,0:0:0
256,192,76521,1,8,0:0:0
256,192,76689,1,0,0:0:0
256,192,76774,1,0,0:0:0
256,192,76858,1,8,0:0:0
256,192,77026,1,0,0:0:0
256,192,77111,1,0,0:0:0
256,192,77195,1,8,0:0:0
256,192,77279,1,0,0:0:0
256,192,77448,1,0,0:0:0
256,192,77532,1,0,0:0:0
256,192,77616,1,0,0:0:0
256,192,77701,1,8,0:0:0
256,192,77869,1,8,0:0:0
256,192,77953,1,8,0:0:0
256,192,78038,1,8,0:0:0
256,192,78122,1,0,0:0:0
256,192,78206,1,0,0:0:0
256,192,78290,1,0,0:0:0
256,192,78375,1,8,0:0:0
256,192,78543,1,8,0:0:0
256,192,78628,1,8,0:0:0
256,192,78712,1,8,0:0:0
256,192,78796,1,0,0:0:0
256,192,78880,1,0,0:0:0
256,192,78965,1,0,0:0:0
256,192,79049,1,8,0:0:0
256,192,79217,1,12,0:0:0
256,192,79386,1,0,0:0:0
256,192,79470,1,0,0:0:0
256,192,79639,1,0,0:0:0
256,192,79723,1,0,0:0:0
256,192,79807,1,0,0:0:0
256,192,79892,1,8,0:0:0
256,192,80060,1,0,0:0:0
256,192,80144,1,8,0:0:0
256,192,80229,1,0,0:0:0
256,192,80313,1,0,0:0:0
256,192,80397,1,8,0:0:0
256,192,80566,1,0,0:0:0
256,192,80734,1,0,0:0:0
256,192,80819,1,0,0:0:0
256,192,80903,1,8,0:0:0
256,192,80987,1,8,0:0:0
256,192,81156,1,0,0:0:0
256,192,81240,1,0,0:0:0
256,192,81408,1,0,0:0:0
256,192,81493,1,8,0:0:0
256,192,81577,1,0,0:0:0
256,192,81661,1,0,0:0:0
256,192,81745,1,8,0:0:0
256,192,81914,1,8,0:0:0
256,192,82083,1,0,0:0:0
256,192,82167,1,0,0:0:0
256,192,82251,1,8,0:0:0
256,192,82335,1,0,0:0:0
256,192,82420,1,8,0:0:0
256,192,82588,1,8,0:0:0
256,192,82672,1,8,0:0:0
256,192,82757,1,0,0:0:0
256,192,82841,1,0,0:0:0
256,192,82925,1,0,0:0:0
256,192,83094,1,0,0:0:0
256,192,83262,1,8,0:0:0
256,192,83431,1,0,0:0:0
256,192,83515,1,0,0:0:0
256,192,83599,1,8,0:0:0
256,192,83768,1,8,0:0:0
256,192,83936,1,0,0:0:0
256,192,84105,1,0,0:0:0
256,192,84189,1,8,0:0:0
256,192,84274,1,0,0:0:0
256,192,84358,1,0,0:0:0
256,192,84442,1,8,0:0:0
256,192,84611,1,12,0:0:0
256,192,84779,1,8,0:0:0
256,192,84863,1,8,0:0:0
256,192,84948,1,0,0:0:0
256,192,85116,1,8,0:0:0
256,192,85201,1,0,0:0:0
256,192,85285,1,8,0:0:0
256,192,85369,1,8,0:0:0
256,192,85453,1,8,0:0:0
256,192,85538,1,0,0:0:0
256,192,85706,1,0,0:0:0
256,192,85790,1,8,0:0:0
256,192,85959,1,12,0:0:0
256,192,86128,1,0,0:0:0
256,192,86212,1,0,0:0:0
256,192,86296,1,8,0:0:0
256,192,86380,1,0,0:0:0
256,192,86465,1,0,0:0:0
256,192,86633,1,8,0:0:0
256,192,86717,1,8,0:0:0
256,192,86802,1,8,0:0:0
256,192,86886,1,0,0:0:0
256,192,86970,1,0,0:0:0
256,192,87054,1,0,0:0:0
256,192,87139,1,8,0:0:0
256,192,87307,1,8,0:0:0
256,192,87476,1,0,0:0:0
256,192,87560,1,8,0:0:0
256,192,87644,1,0,0:0:0
256,192,87729,1,0,0:0:0
256,192,87813,1,8,0:0:0
256,192,87981,1,8,0:0:0
256,192,88150,1,0,0:0:0
256,192,88234,1,0,0:0:0
256,192,88319,1,8,0:0:0
256,192,88487,1,8,0:0:0
256,192,88656,1,0,0:0:0
256,192,88740,1,0,0:0:0
256,192,88824,1,8,0:0:0
256,192,88908,1,0,0:0:0
256,192,88993,1,0,0:0:0
256,192,89077,1,0,0:0:0
256,192,89161,1,8,0:0:0
256,192,89330,1,0,0:0:0
256,192,89414,1,0,0:0:0
256,192,89498,1,8,0:0:0
256,192,89583,1,0,0:0:0
256,192,89667,1,0,0:0:0
256,192,89751,1,0,0:0:0
256,192,89835,1,8,0:0:0
256,192,90004,1,4,0:0:0
