osu file format v10

[General]
AudioFilename: Identic_Conflict.mp3
AudioLeadIn: 500
PreviewTime: 45151
Countdown: 0
SampleSet: Normal
StackLeniency: 0.7
Mode: 1
LetterboxInBreaks: 0

[Editor]
Bookmarks: 23746,44739
DistanceSpacing: 0
BeatDivisor: 4
GridSize: 32

[Metadata]
Title:Identic Conflict
TitleUnicode:Identic Conflict
Artist:bbn
ArtistUnicode:bbn
Creator:Flower
Version:Taiko Muzukashii
Source:Oblivious Garden
Tags:corypheesoft Evening Primrose
BeatmapID:176434
BeatmapSetID:49188

[Difficulty]
HPDrainRate:5
CircleSize:5
OverallDifficulty:4
ApproachRate:5
SliderMultiplier:1.33
SliderTickRate:1

[Events]
//Background and Video events
Video,0,"Identic Conflict.flv"
0,0,"taiko_bg.jpg"
//Break Periods
//Storyboard Layer 0 (Background)
//Storyboard Layer 1 (Fail)
//Storyboard Layer 2 (Pass)
//Storyboard Layer 3 (Foreground)
//Storyboard Sound Samples
//Background Colour Transformations
3,100,0,0,0

[TimingPoints]
2027,337.078651685393,4,1,0,70,1,0
2027,-117.647058823529,4,1,0,70,0,0
23937,337.078651685393,4,1,0,75,1,0
45510,-100,4,1,0,70,0,0
68431,-100,4,1,0,75,0,1
90004,-100,4,1,0,75,0,0

[Colours]
Combo1 : 68,194,255
Combo2 : 255,62,62

[HitObjects]
256,192,2027,1,4,0:0:0
256,192,3375,1,0,0:0:0
256,192,4723,1,0,0:0:0
256,192,6071,1,0,0:0:0
256,192,7420,1,4,0:0:0
256,192,8768,1,0,0:0:0
256,192,10116,1,0,0:0:0
256,192,11465,1,0,0:0:0
256,192,12307,1,8,0:0:0
256,192,12644,1,8,0:0:0
256,192,12813,1,0,0:0:0
256,192,14161,1,0,0:0:0
256,192,15510,1,4,0:0:0
256,192,16858,1,0,0:0:0
256,192,18206,1,4,0:0:0
256,192,19555,1,4,0:0:0
256,192,20903,1,4,0:0:0
256,192,22251,1,12,0:0:0
256,192,23937,1,0,0:0:0
256,192,24105,1,0,0:0:0
256,192,24274,1,8,0:0:0
256,192,24611,1,0,0:0:0
256,192,24779,1,0,0:0:0
256,192,24863,1,0,0:0:0
256,192,24948,1,8,0:0:0
256,192,25285,1,8,0:0:0
256,192,25453,1,0,0:0:0
256,192,25622,1,8,0:0:0
256,192,25790,1,8,0:0:0
256,192,25959,1,8,0:0:0
256,192,26128,1,0,0:0:0
256,192,26296,1,8,0:0:0
256,192,26633,1,8,0:0:0
256,192,26802,1,0,0:0:0
256,192,26886,1,0,0:0:0
256,192,26970,1,8,0:0:0
256,192,27307,1,8,0:0:0
256,192,27476,1,0,0:0:0
256,192,27644,1,8,0:0:0
256,192,27981,2,0,B|352:128|192:96|256:288|384:192|416:96,1,266
416,96,29330,1,0,0:0:0
416,96,29498,1,0,0:0:0
416,96,29667,1,8,0:0:0
416,96,29835,1,8,0:0:0
416,96,30172,1,0,0:0:0
416,96,30257,1,0,0:0:0
416,96,30341,1,8,0:0:0
416,96,30510,1,0,0:0:0
416,96,30678,1,0,0:0:0
416,96,31015,1,0,0:0:0
416,96,31352,1,0,0:0:0
416,96,31689,1,8,0:0:0
416,96,32026,1,0,0:0:0
416,96,32195,1,8,0:0:0
416,96,32363,1,0,0:0:0
416,96,32532,1,8,0:0:0
416,96,32869,1,0,0:0:0
416,96,32953,1,0,0:0:0
416,96,33038,1,8,0:0:0
416,96,33206,1,0,0:0:0
416,96,33375,1,8,0:0:0
416,96,33543,1,0,0:0:0
416,96,33880,1,0,0:0:0
416,96,34049,1,8,0:0:0
416,96,34217,1,0,0:0:0
416,96,34386,1,8,0:0:0
416,96,34723,1,4,0:0:0
416,96,35397,1,0,0:0:0
416,96,35734,1,0,0:0:0
416,96,36071,1,8,0:0:0
416,96,36240,1,0,0:0:0
416,96,36324,1,0,0:0:0
416,96,36408,1,8,0:0:0
416,96,36577,1,0,0:0:0
416,96,36745,1,8,0:0:0
416,96,37083,1,8,0:0:0
416,96,37420,1,0,0:0:0
416,96,37588,1,0,0:0:0
416,96,37672,1,0,0:0:0
416,96,37757,1,8,0:0:0
416,96,38094,1,0,0:0:0
416,96,38262,1,0,0:0:0
416,96,38431,1,8,0:0:0
416,96,38768,1,0,0:0:0
416,96,38936,1,0,0:0:0
416,96,39105,1,8,0:0:0
416,96,39274,1,0,0:0:0
416,96,39442,1,8,0:0:0
416,96,39611,1,0,0:0:0
416,96,39779,1,8,0:0:0
416,96,40116,1,0,0:0:0
416,96,40285,1,8,0:0:0
416,96,40622,1,8,0:0:0
416,96,40706,1,0,0:0:0
416,96,40790,1,0,0:0:0
416,96,40959,1,8,0:0:0
416,96,41296,1,8,0:0:0
416,96,41465,1,0,0:0:0
416,96,41633,1,8,0:0:0
416,96,41970,1,8,0:0:0
416,96,42054,1,0,0:0:0
416,96,42139,1,0,0:0:0
416,96,42307,1,8,0:0:0
416,96,42644,1,8,0:0:0
416,96,42813,1,0,0:0:0
416,96,42981,1,0,0:0:0
416,96,43150,1,8,0:0:0
416,96,43319,1,0,0:0:0
416,96,43487,1,0,0:0:0
416,96,43656,1,0,0:0:0
416,96,43824,1,8,0:0:0
416,96,43993,1,0,0:0:0
416,96,44161,2,0,B|128:224|384:352|128:128,1,399
128,128,45510,1,4,0:0:0
128,128,46184,1,8,0:0:0
128,128,46521,1,8,0:0:0
128,128,46689,1,0,0:0:0
128,128,47026,1,0,0:0:0
128,128,47195,1,8,0:0:0
128,128,47532,1,8,0:0:0
128,128,47869,1,8,0:0:0
128,128,48206,1,0,0:0:0
128,128,48543,1,0,0:0:0
128,128,48880,1,8,0:0:0
128,128,49049,1,8,0:0:0
128,128,49217,1,8,0:0:0
128,128,49386,1,0,0:0:0
128,128,49554,1,8,0:0:0
128,128,49892,1,0,0:0:0
128,128,50229,1,8,0:0:0
128,128,50397,1,0,0:0:0
128,128,50734,1,8,0:0:0
128,128,50903,1,0,0:0:0
128,128,51240,1,0,0:0:0
128,128,51577,1,8,0:0:0
128,128,51914,1,8,0:0:0
128,128,52083,1,0,0:0:0
128,128,52420,1,0,0:0:0
128,128,52588,1,8,0:0:0
128,128,52925,1,0,0:0:0
128,128,53094,1,0,0:0:0
128,128,53262,1,8,0:0:0
128,128,53599,1,0,0:0:0
128,128,53936,1,0,0:0:0
128,128,54274,1,8,0:0:0
128,128,54442,1,8,0:0:0
128,128,54611,1,8,0:0:0
128,128,54779,1,0,0:0:0
128,128,54948,1,8,0:0:0
128,128,55285,1,8,0:0:0
128,128,55622,1,8,0:0:0
128,128,55959,1,8,0:0:0
128,128,56296,1,4,0:0:0
128,128,56633,1,0,0:0:0
128,128,56970,1,8,0:0:0
128,128,57307,1,8,0:0:0
128,128,57476,1,0,0:0:0
128,128,57813,1,0,0:0:0
128,128,57981,1,8,0:0:0
128,128,58150,1,0,0:0:0
128,128,58487,1,0,0:0:0
128,128,58656,1,8,0:0:0
128,128,58993,1,0,0:0:0
128,128,59330,1,0,0:0:0
128,128,59498,1,0,0:0:0
128,128,59667,1,8,0:0:0
128,128,60004,1,8,0:0:0
128,128,60172,1,0,0:0:0
128,128,60341,1,8,0:0:0
128,128,60678,1,0,0:0:0
128,128,61015,1,8,0:0:0
128,128,61352,1,8,0:0:0
128,128,61689,1,4,0:0:0
128,128,62026,1,0,0:0:0
128,128,62363,1,0,0:0:0
128,128,62532,1,0,0:0:0
128,128,62701,1,8,0:0:0
128,128,62869,1,0,0:0:0
128,128,63038,1,4,0:0:0
128,128,63375,1,0,0:0:0
128,128,63712,1,0,0:0:0
128,128,63880,1,0,0:0:0
128,128,64049,1,8,0:0:0
128,128,64386,1,4,0:0:0
128,128,64723,1,0,0:0:0
128,128,65060,1,8,0:0:0
128,128,65229,1,8,0:0:0
128,128,65397,1,8,0:0:0
128,128,65566,1,0,0:0:0
256,192,65734,12,0,68094,0:0:0
256,192,68431,5,4,0:0:0
256,192,68768,1,0,0:0:0
256,192,68936,1,0,0:0:0
256,192,69105,1,8,0:0:0
256,192,69358,1,8,0:0:0
256,192,69611,1,8,0:0:0
256,192,69695,1,8,0:0:0
256,192,69779,1,0,0:0:0
256,192,70116,1,0,0:0:0
256,192,70285,1,0,0:0:0
256,192,70453,1,0,0:0:0
256,192,70706,1,0,0:0:0
256,192,70959,1,8,0:0:0
256,192,71043,1,8,0:0:0
256,192,71128,1,8,0:0:0
256,192,71465,1,0,0:0:0
256,192,71802,1,8,0:0:0
256,192,72054,1,8,0:0:0
256,192,72307,1,8,0:0:0
256,192,72476,1,0,0:0:0
256,192,72813,1,0,0:0:0
256,192,73150,1,0,0:0:0
256,192,73403,1,8,0:0:0
256,192,73656,1,8,0:0:0
256,192,73824,1,8,0:0:0
256,192,74161,1,0,0:0:0
256,192,74498,1,8,0:0:0
256,192,74751,1,8,0:0:0
256,192,75004,1,0,0:0:0
256,192,75088,1,0,0:0:0
256,192,75172,1,0,0:0:0
256,192,75425,1,8,0:0:0
256,192,75678,1,8,0:0:0
256,192,75762,1,0,0:0:0
256,192,75847,1,0,0:0:0
256,192,76099,1,0,0:0:0
256,192,76352,1,8,0:0:0
256,192,76521,1,8,0:0:0
256,192,76858,1,0,0:0:0
256,192,77195,1,8,0:0:0
256,192,77448,1,0,0:0:0
256,192,77701,1,8,0:0:0
256,192,77785,1,8,0:0:0
256,192,77869,1,8,0:0:0
256,192,78122,1,0,0:0:0
256,192,78375,1,8,0:0:0
256,192,78459,1,8,0:0:0
256,192,78543,1,8,0:0:0
256,192,78796,1,0,0:0:0
256,192,79049,1,8,0:0:0
256,192,79133,1,8,0:0:0
256,192,79217,1,8,0:0:0
256,192,79554,1,0,0:0:0
256,192,79892,1,8,0:0:0
256,192,80144,1,0,0:0:0
256,192,80397,1,0,0:0:0
256,192,80566,1,8,0:0:0
256,192,80903,1,0,0:0:0
256,192,81240,1,0,0:0:0
256,192,81493,1,8,0:0:0
256,192,81745,1,8,0:0:0
256,192,81914,1,0,0:0:0
256,192,82251,1,0,0:0:0
256,192,82588,1,8,0:0:0
256,192,82841,1,0,0:0:0
256,192,83094,1,8,0:0:0
256,192,83262,1,0,0:0:0
256,192,83599,1,0,0:0:0
256,192,83936,1,0,0:0:0
256,192,84189,1,0,0:0:0
256,192,84442,1,8,0:0:0
256,192,84611,1,8,0:0:0
256,192,84948,1,0,0:0:0
256,192,85285,1,8,0:0:0
256,192,85538,1,0,0:0:0
256,192,85790,1,8,0:0:0
256,192,85959,1,8,0:0:0
256,192,86296,1,0,0:0:0
256,192,86633,1,8,0:0:0
256,192,86886,1,0,0:0:0
256,192,87139,1,8,0:0:0
256,192,87307,1,0,0:0:0
256,192,87644,1,0,0:0:0
256,192,87981,1,0,0:0:0
256,192,88319,1,0,0:0:0
256,192,88656,12,0,90004,0:0:0
