osu file format v10

[General]
AudioFilename: Identic_Conflict.mp3
AudioLeadIn: 500
PreviewTime: 45151
Countdown: 0
SampleSet: Soft
StackLeniency: 0.7
Mode: 0
LetterboxInBreaks: 1

[Editor]
Bookmarks: 41453
DistanceSpacing: 0.9
BeatDivisor: 4
GridSize: 4

[Metadata]
Title:Identic Conflict
TitleUnicode:Identic Conflict
Artist:bbn
ArtistUnicode:bbn
Creator:Flower
Version:Normal
Source:Oblivious Garden
Tags:corypheesoft Evening Primrose
BeatmapID:162312
BeatmapSetID:49188

[Difficulty]
HPDrainRate:3
CircleSize:3
OverallDifficulty:3
ApproachRate:5
SliderMultiplier:1
SliderTickRate:1

[Events]
//Background and Video events
Video,0,"Identic Conflict.flv"
0,0,"dyanna.jpg"
//Break Periods
//Storyboard Layer 0 (Background)
//Storyboard Layer 1 (Fail)
//Storyboard Layer 2 (Pass)
//Storyboard Layer 3 (Foreground)
//Storyboard Sound Samples
//Background Colour Transformations
3,100,0,0,0

[TimingPoints]
2027,337.078651685393,4,2,0,10,1,0
12307,-133.333333333333,4,2,0,30,0,0
23937,337.078651685393,4,2,0,50,1,0
45510,-100,4,2,0,30,0,0
56296,-100,4,2,0,35,0,0
58993,-100,4,2,0,30,0,0
61689,-100,4,2,0,35,0,0
64386,-100,4,2,0,40,0,0
65734,-100,4,2,0,35,0,0
67083,-100,4,2,0,40,0,0
68431,-100,4,2,0,60,0,1
90004,-100,4,2,0,60,0,0

[Colours]
Combo1 : 255,247,85
Combo2 : 250,250,250
Combo3 : 132,215,255
Combo4 : 255,2,2
Combo5 : 223,96,255
Combo6 : 7,51,199

[HitObjects]
256,328,2027,1,4,0:0:0
392,192,3375,1,0,0:0:0
256,56,4723,1,0,0:0:0
120,192,6071,1,0,0:0:0
352,289,7420,5,0,0:0:0
352,96,8768,1,0,0:0:0
159,96,10116,1,0,0:0:0
159,289,11465,1,0,0:0:0
256,216,12307,6,0,B|256:96,1,112.500004291535,2|4,0:0|0:0,0:0:0
380,340,14161,1,2,0:0:0
132,340,15510,6,0,B|104:304|57:299|57:299|57:227,1,150.000005722046,2|0,0:0|0:0,0:0:0
60,104,16858,1,2,0:0:0
256,192,18206,5,4,0:0:0
256,192,19555,1,4,0:0:0
256,192,20903,1,4,0:0:0
256,192,22251,1,4,0:0:0
256,192,23937,6,0,B|280:233|280:233|313:251|327:284,1,100,6|8,0:0|0:0,0:0:0
244,320,24611,1,0,0:0:0
244,320,24948,1,8,0:0:0
160,292,25285,6,0,B|128:252|128:252|136:228|132:188,1,100,2|8,0:0|0:0,0:0:0
120,116,25959,2,0,B|68:80,2,50,2|0|8,0:0|0:0|0:0,0:0:0
200,72,26633,6,0,B|248:56|248:56|296:72|296:72,2,100,2|8|2,0:0|0:0|0:0,0:0:0
228,156,27644,1,8,0:0:0
272,232,27981,2,0,B|304:276,2,50,2|0|8,0:0|0:0|0:0,0:0:0
96,188,28993,6,0,B|124:168|126:125|126:125|142:101,1,100,8|2,0:0|0:0,0:0:0
204,36,29667,1,8,0:0:0
288,72,30004,2,0,B|309:82|309:82|361:79|387:97,1,100,2|8,0:0|0:0,0:0:0
340,172,30678,6,0,B|334:227|334:227|308:274,1,100,2|8,0:0|0:0,0:0:0
240,320,31352,2,0,B|213:346|209:365,2,50,2|0|8,0:0|0:0|0:0,0:0:0
172,260,32026,6,0,B|160:228|160:228|124:212|92:180,1,100,2|8,0:0|0:0,0:0:0
28,144,32701,1,2,0:0:0
28,144,33038,1,8,0:0:0
96,88,33375,2,0,B|184:44|184:44|204:120|284:144|348:100,1,300,2|8,0:0|0:0,0:0:0
284,36,34723,1,4,0:0:0
432,140,35397,6,0,B|464:204|464:204|428:256|416:308|432:368,1,200,2|2,0:0|0:0,0:0:0
336,344,36408,1,8,0:0:0
288,268,36745,2,0,B|260:268|260:268|242:238|204:224,1,100,2|8,0:0|0:0,0:0:0
176,308,37420,6,0,B|128:308|128:308|116:280|88:264,1,100,2|8,0:0|0:0,0:0:0
48,344,38094,2,0,B|36:320|12:308|12:308|12:248,1,100,0|8,0:0|0:0,0:0:0
56,180,38768,2,0,B|84:172|104:152|104:152|148:152,1,100,2|8,0:0|0:0,0:0:0
232,120,39442,2,0,B|248:96|252:64,2,50,2|0|8,0:0|0:0|0:0,0:0:0
252,208,40116,6,0,B|239:234|200:247,2,50,6|0|8,0:0|0:0|0:0,0:0:0
320,268,40790,2,0,B|324:300|308:328,2,50,2|0|8,0:0|0:0|0:0,0:0:0
408,248,41465,2,0,B|424:272|432:296,2,50,6|0|8,0:0|0:0|0:0,0:0:0
452,168,42139,2,0,B|480:172|502:184,2,50,2|0|8,0:0|0:0|0:0,0:0:0
256,192,42813,12,4,44161,0:0:0
348,28,45510,5,4,0:0:0
300,104,45847,1,0,0:0:0
356,172,46184,2,0,B|402:184|402:184|450:214,1,100,0|2,0:0|0:0,0:0:0
296,308,47195,1,0,0:0:0
208,324,47532,2,0,B|196:346|196:346|168:363,2,50,0|0|2,0:0|0:0|0:0,0:0:0
128,284,48206,5,0,0:0:0
96,200,48543,1,0,0:0:0
120,112,48880,2,0,B|96:92|88:68,2,50,0|0|2,0:0|0:0|0:0,0:0:0
192,56,49554,5,2,0:0:0
284,64,49892,1,0,0:0:0
348,124,50229,1,2,0:0:0
364,212,50566,1,0,0:0:0
372,300,50903,6,0,B|396:300|396:300|432:316|472:300,2,100
292,340,51914,1,2,0:0:0
136,252,52588,1,0,0:0:0
132,164,52925,2,0,B|164:120|164:120|220:104,1,100,0|2,0:0|0:0,0:0:0
292,136,53599,6,0,B|325:179|325:179|369:191,1,100
456,168,54274,1,0,0:0:0
464,80,54611,1,2,0:0:0
256,192,54948,12,4,56296,0:0:0
344,88,57644,1,0,0:0:0
344,268,58319,1,2,0:0:0
164,268,58993,5,0,0:0:0
164,268,59330,1,0,0:0:0
76,268,59667,1,2,0:0:0
76,268,60004,1,2,0:0:0
32,188,60341,5,0,0:0:0
56,100,60678,1,2,0:0:0
144,128,61015,1,0,0:0:0
176,44,61352,1,2,0:0:0
252,92,61689,6,0,B|300:80|300:80|340:36,1,100,4|8,0:0|0:0,0:0:0
412,84,62363,2,0,B|452:112|452:112|488:164,2,100,2|10|4,0:0|0:0|0:0,0:0:0
380,168,63375,1,8,0:0:0
300,208,63712,2,0,B|280:196|280:196|268:168,2,50,2|0|8,0:0|0:0|0:0,0:0:0
372,260,64386,6,0,B|389:283|389:283|397:321|442:337,2,100,4|8|2,0:0|0:0|0:0,0:0:0
288,292,65397,1,8,0:0:0
256,192,65734,12,4,68431,0:0:0
140,292,69105,6,0,B|140:340|192:364,2,75,2|2|0,0:0|0:0|0:0,0:0:0
140,248,69779,2,0,B|140:148,1,100,2|8,0:0|0:0,0:0:0
212,92,70453,6,0,B|212:44|160:20,2,75,0|2|0,0:0|0:0|0:0,0:0:0
232,132,71127,2,0,B|232:188|272:228,1,100,2|8,0:0|0:0,0:0:0
296,308,71802,6,0,B|336:304|348:272|348:272|388:272,1,100,2|0,0:0|0:0,0:0:0
412,356,72476,2,0,B|440:354|468:368|468:368|511:353,1,100,2|8,0:0|0:0,0:0:0
468,272,73150,6,0,B|467:217|467:217|442:198|424:175,1,100,2|0,0:0|0:0,0:0:0
348,160,73824,1,2,0:0:0
348,72,74161,1,8,0:0:0
268,108,74498,6,0,B|214:41|129:63|106:128,1,200,2|2,0:0|0:0,0:0:0
88,216,75510,1,8,0:0:0
160,272,75847,2,0,B|216:264|276:272,1,100,0|8,0:0|0:0,0:0:0
336,320,76521,1,2,0:0:0
404,264,76858,1,8,0:0:0
340,204,77195,6,0,B|371:149|351:102|315:57|244:75,2,200,2|2|2,0:0|0:0|0:0,0:0:0
180,120,79217,1,4,0:0:0
128,292,79892,6,0,B|144:356|216:348,1,100,2|8,0:0|0:0,0:0:0
288,348,80566,1,4,0:0:0
428,236,81240,2,0,B|428:176|372:140,1,100,2|8,0:0|0:0,0:0:0
304,108,81914,1,4,0:0:0
132,56,82588,6,0,B|84:84|88:148,1,100,2|8,0:0|0:0,0:0:0
84,228,83262,1,4,0:0:0
236,328,83936,6,0,B|296:352|336:304,1,100,2|8,0:0|0:0,0:0:0
384,240,84611,2,0,B|404:180|384:100|316:68,1,200,4|2,0:0|0:0,0:0:0
260,136,85622,2,0,B|228:99|171:90,1,100,8|4,0:0|0:0,0:0:0
96,136,86296,1,8,0:0:0
104,224,86633,6,0,B|140:267|196:264,1,100,2|8,0:0|0:0,0:0:0
276,236,87307,1,4,0:0:0
256,192,87476,12,4,90004,0:0:0
