osu file format v10

[General]
AudioFilename: Identic_Conflict.mp3
AudioLeadIn: 500
PreviewTime: 45151
Countdown: 0
SampleSet: Soft
StackLeniency: 0.7
Mode: 0
LetterboxInBreaks: 1

[Editor]
Bookmarks: 41453
DistanceSpacing: 1
BeatDivisor: 4
GridSize: 4

[Metadata]
Title:Identic Conflict
TitleUnicode:Identic Conflict
Artist:bbn
ArtistUnicode:bbn
Creator:Flower
Version:Hyper
Source:Oblivious Garden
Tags:corypheesoft Evening Primrose
BeatmapID:164457
BeatmapSetID:49188

[Difficulty]
HPDrainRate:5
CircleSize:4
OverallDifficulty:5
ApproachRate:7
SliderMultiplier:1.5
SliderTickRate:1

[Events]
//Background and Video events
Video,0,"Identic Conflict.flv"
0,0,"evleira02_1.jpg"
//Break Periods
//Storyboard Layer 0 (Background)
//Storyboard Layer 1 (Fail)
//Storyboard Layer 2 (Pass)
//Storyboard Layer 3 (Foreground)
//Storyboard Sound Samples
//Background Colour Transformations
3,100,0,0,0

[TimingPoints]
2027,337.078651685393,4,2,0,10,1,0
12307,-133.333333333333,4,2,0,30,0,0
23937,337.078651685393,4,2,0,50,1,0
45510,-100,4,2,0,30,0,0
56296,-100,4,2,0,45,0,0
65734,-100,4,2,0,35,0,0
67083,-100,4,2,0,40,0,0
68431,-100,4,2,0,60,0,1
90004,-100,4,2,0,60,0,0

[Colours]
Combo1 : 255,247,85
Combo2 : 250,250,250
Combo3 : 132,215,255
Combo4 : 255,2,2
Combo5 : 223,96,255
Combo6 : 7,51,199

[HitObjects]
256,80,2027,1,4,0:0:0
368,192,3375,1,0,0:0:0
256,304,4723,1,0,0:0:0
144,192,6071,1,0,0:0:0
335,112,7420,5,0,0:0:0
335,271,8768,1,0,0:0:0
176,271,10116,1,0,0:0:0
176,112,11464,1,0,0:0:0
328,192,12307,1,2,0:0:0
328,192,12644,1,2,0:0:0
328,192,12813,6,0,B|272:212|272:212|216:192|216:192|156:192|116:232,1,225.000008583069,4|2,0:0|0:0,0:0:0
68,304,13824,1,0,0:0:0
148,344,14161,2,0,B|196:372|256:348|256:348|316:372|364:344,1,225.000008583069,0|2,0:0|0:0,0:0:0
444,304,15173,1,0,0:0:0
372,248,15510,2,0,B|332:208|276:192|276:192|332:176|372:136,1,225.000008583069,0|2,0:0|0:0,0:0:0
408,52,16521,1,0,0:0:0
324,24,16858,2,0,B|288:44|256:112|256:112|224:44|188:24,1,225.000008583069,0|2,0:0|0:0,0:0:0
100,92,17869,1,0,0:0:0
116,192,18206,5,4,0:0:0
256,332,19555,1,4,0:0:0
396,192,20903,1,4,0:0:0
256,52,22252,1,4,0:0:0
256,52,23937,6,0,B|292:84|292:84|324:80|360:84|392:124,1,150,4|8,0:0|0:0,0:0:0
392,188,24442,1,2,0:0:0
320,164,24611,2,0,B|296:112|308:76|336:48|368:44,1,150,0|8,0:0|0:0,0:0:0
440,60,25116,1,2,0:0:0
472,184,25285,6,0,B|472:224|440:252,1,75
424,352,25622,2,0,B|389:332|381:290,1,75,8|2,0:0|0:0,0:0:0
320,248,25959,2,0,B|284:228|248:236,1,75
180,272,26296,1,8,0:0:0
236,324,26465,1,2,0:0:0
184,192,26633,6,0,B|132:186|100:220|92:260|100:296,1,150,0|8,0:0|0:0,0:0:0
152,344,27139,1,2,0:0:0
180,272,27307,2,0,B|124:264|104:232|92:184|120:144,1,150,0|8,0:0|0:0,0:0:0
164,112,27813,1,2,0:0:0
240,132,27981,1,4,0:0:0
240,132,28150,1,2,0:0:0
316,352,28487,5,0,0:0:0
356,288,28656,2,0,B|396:276,3,37.5,0|0|2|2,0:0|0:0|0:0|0:0,0:0:0
404,240,28993,2,0,B|444:228,3,37.5,0|0|2|0,0:0|0:0|0:0|0:0,0:0:0
468,204,29330,6,0,B|484:168|468:128,1,75,4|0,0:0|0:0,0:0:0
400,28,29667,2,0,B|384:64|400:104,1,75,8|0,0:0|0:0,0:0:0
308,216,30004,2,0,B|344:201|361:162,1,75
216,108,30341,2,0,B|241:137|284:140,1,75,8|0,0:0|0:0,0:0:0
316,72,30678,1,2,0:0:0
248,28,30847,6,0,B|204:28,2,37.5,0|0|8,0:0|0:0|0:0,0:0:0
136,72,31184,2,0,B|92:72,2,37.5,2|0|0,0:0|0:0|0:0,0:0:0
144,160,31521,1,2,0:0:0
224,216,31689,6,0,B|304:216,1,75,8|2,0:0|0:0,0:0:0
400,296,32026,2,0,B|320:296,1,75,0|2,0:0|0:0,0:0:0
256,328,32363,1,8,0:0:0
188,296,32532,1,2,0:0:0
119,328,32701,2,0,B|72:320|53:296|43:257|48:215,1,150,0|8,0:0|0:0,0:0:0
92,156,33206,1,2,0:0:0
164,176,33375,6,0,B|200:212|260:212|300:176,1,150,0|8,0:0|0:0,0:0:0
304,100,33880,1,2,0:0:0
232,128,34049,2,0,B|212:176|220:216|252:244|284:252,1,150,0|8,0:0|0:0,0:0:0
352,240,34554,1,2,0:0:0
384,172,34723,1,4,0:0:0
104,68,35397,6,0,B|68:88|56:128|56:164|92:196,1,150,0|8,0:0|0:0,0:0:0
164,208,35903,1,2,0:0:0
212,148,36071,6,0,B|180:124|140:136,1,75,0|2,0:0|0:0,0:0:0
164,208,36408,2,0,B|127:223|117:264,1,75,8|2,0:0|0:0,0:0:0
192,280,36745,2,0,B|193:319|227:343,1,75,0|2,0:0|0:0,0:0:0
268,280,37083,1,8,0:0:0
336,312,37251,1,2,0:0:0
404,284,37420,6,0,B|456:284,2,37.5,0|0|2,0:0|0:0|0:0,0:0:0
348,232,37757,1,8,0:0:0
448,120,38094,2,0,B|500:120,2,37.5,0|0|2,0:0|0:0|0:0,0:0:0
392,68,38431,1,8,0:0:0
256,132,38768,6,0,B|340:132,1,75,0|2,0:0|0:0,0:0:0
188,208,39105,2,0,B|272:208,1,75,8|2,0:0|0:0,0:0:0
72,136,39442,2,0,B|156:136,1,75,0|2,0:0|0:0,0:0:0
112,208,39779,1,8,0:0:0
148,276,39948,1,2,0:0:0
92,328,40116,6,0,B|52:316|40:272,1,75,4|2,0:0|0:0,0:0:0
284,264,40622,1,2,0:0:0
252,332,40790,2,0,B|221:360|177:349,1,75,0|2,0:0|0:0,0:0:0
324,168,41296,1,2,0:0:0
380,216,41465,2,0,B|389:256|357:289,1,75,4|2,0:0|0:0,0:0:0
300,52,41970,1,2,0:0:0
376,64,42139,2,0,B|404:94|393:138,1,75,0|2,0:0|0:0,0:0:0
140,108,42644,1,2,0:0:0
216,100,42813,6,0,B|252:112|264:156,1,75,4|2,0:0|0:0,0:0:0
336,184,43150,2,0,B|323:219|279:230,1,75,8|2,0:0|0:0,0:0:0
248,304,43487,2,0,B|213:288|204:242,1,75,0|2,0:0|0:0,0:0:0
124,212,43824,2,0,B|142:177|187:173,1,75,8|2,0:0|0:0,0:0:0
256,192,44161,12,2,45172,0:0:0
437,258,45510,6,0,B|449:299|430:333,1,75,4|0,0:0|0:0,0:0:0
368,228,45847,2,0,B|355:186|374:152,1,75,2|0,0:0|0:0,0:0:0
432,108,46184,2,0,B|472:96|480:56,2,75,0|0|2,0:0|0:0|0:0,0:0:0
368,68,46689,6,0,B|296:28|224:68,1,150
180,128,47195,1,2,0:0:0
180,128,47363,1,0,0:0:0
208,196,47532,2,0,B|246:182|255:131,2,75,0|0|2,0:0|0:0|0:0,0:0:0
68,248,48206,6,0,B|48:284|68:320,1,75
144,308,48543,2,0,B|165:343|206:344,1,75,2|0,0:0|0:0,0:0:0
260,284,48880,2,0,B|301:283|322:248,1,75
332,176,49217,1,2,0:0:0
288,116,49386,1,0,0:0:0
216,92,49554,6,0,B|60:92,1,150,2|0,0:0|0:0,0:0:0
260,284,50229,2,0,B|416:284,1,150,2|0,0:0|0:0,0:0:0
208,220,50903,6,0,B|164:220|140:252,1,75,4|0,0:0|0:0,0:0:0
48,360,51240,2,0,B|84:334|85:294,1,75,2|0,0:0|0:0,0:0:0
68,224,51577,2,0,B|40:196|44:152,2,75,0|0|2,0:0|0:0|0:0,0:0:0
120,168,52083,6,0,B|143:125|204:95|254:106,1,150
316,132,52588,1,2,0:0:0
316,132,52757,1,0,0:0:0
348,200,52925,2,0,B|308:216|272:192,2,75,0|0|2,0:0|0:0|0:0,0:0:0
308,56,53599,6,0,B|352:56|376:88,1,75
444,56,53936,2,0,B|466:94|450:130,1,75,2|0,0:0|0:0,0:0:0
488,196,54274,2,0,B|466:234|426:238,1,75
360,216,54611,1,2,0:0:0
292,244,54779,1,0,0:0:0
280,320,54948,6,0,B|436:320,1,150,2|0,0:0|0:0,0:0:0
208,192,55622,2,0,B|52:192,1,150,2|0,0:0|0:0,0:0:0
204,320,56296,5,4,0:0:0
288,192,56633,1,8,0:0:0
128,320,56970,2,0,B|48:320,2,75,2|0|8,0:0|0:0|0:0,0:0:0
164,256,57476,5,2,0:0:0
436,192,57813,2,0,B|356:192,1,75,0|8,0:0|0:0,0:0:0
236,104,58319,2,0,B|320:104,2,75,2|0|8,0:0|0:0|0:0,0:0:0
28,192,58993,2,0,B|116:192,2,75,0|0|8,0:0|0:0|0:0,0:0:0
204,192,59667,1,2,0:0:0
204,192,59835,1,0,0:0:0
204,192,60004,1,8,0:0:0
256,340,60341,6,0,B|328:316|404:340,1,150,2|8,0:0|0:0,0:0:0
480,128,61015,2,0,B|408:152|332:128,1,150,2|8,0:0|0:0,0:0:0
64,68,61689,6,0,B|140:68,2,75,4|0|8,0:0|0:0|0:0,0:0:0
228,116,62363,1,2,0:0:0
272,176,62532,1,0,0:0:0
260,252,62701,1,8,0:0:0
108,336,63038,6,0,B|76:300|76:268|84:224|120:204,1,150,4|8,0:0|0:0,0:0:0
192,196,63543,1,0,0:0:0
260,252,63712,2,0,B|272:296|252:328,2,75,2|0|8,0:0|0:0|0:0,0:0:0
316,80,64386,6,0,B|356:76|380:44,2,75,4|0|8,0:0|0:0|0:0,0:0:0
256,124,64892,1,0,0:0:0
196,80,65060,2,0,B|156:76|132:44,2,75,2|0|8,0:0|0:0|0:0,0:0:0
256,192,65734,12,4,67083,0:0:0
256,192,67167,12,4,68431,0:0:0
256,96,69105,6,0,B|316:88|368:128,1,112.5,2|0,0:0|0:0,0:0:0
392,148,69442,2,0,B|348:152|328:196,1,75,8|2,0:0|0:0,0:0:0
436,280,69779,2,0,B|432:236|388:216,1,75,0|0,0:0|0:0,0:0:0
304,328,70116,2,0,B|348:324|368:280,1,75,8|2,0:0|0:0,0:0:0
296,252,70453,6,0,B|244:284|188:252,1,112.5,0|0,0:0|0:0,0:0:0
160,232,70790,2,0,B|128:212|88:224,1,75,8|2,0:0|0:0,0:0:0
36,280,71128,1,2,0:0:0
164,360,71465,1,8,0:0:0
228,324,71633,1,2,0:0:0
236,248,71802,6,0,B|236:204|264:172|300:168,1,112.5,0|2,0:0|0:0,0:0:0
336,180,72139,1,8,0:0:0
412,188,72307,1,2,0:0:0
476,152,72476,2,0,B|504:124|504:80,2,75,0|0|8,0:0|0:0|0:0,0:0:0
276,128,73150,6,0,B|224:108|164:128,2,112.5,2|0|2,0:0|0:0|0:0,0:0:0
336,180,73824,1,2,0:0:0
252,328,74161,2,0,B|212:344|176:328,1,75,8|0,0:0|0:0,0:0:0
116,292,74498,6,0,B|84:264|80:220|96:184,1,112.5,2|0,0:0|0:0,0:0:0
120,164,74835,2,0,B|148:132|144:96,1,75,8|2,0:0|0:0,0:0:0
68,108,75172,1,0,0:0:0
172,232,75425,1,2,0:0:0
172,232,75510,2,0,B|208:248|248:224,1,75,8|2,0:0|0:0,0:0:0
304,180,75847,2,0,B|344:128|408:156,2,112.5,0|2|2,0:0|0:0|0:0,0:0:0
368,220,76521,2,0,B|373:193|377:157|353:121|301:101,1,150,2|8,0:0|0:0,0:0:0
84,168,77195,6,0,B|48:140|40:104|48:64,2,112.5,2|0|2,0:0|0:0|0:0,0:0:0
148,208,77869,1,2,0:0:0
236,136,78122,1,2,0:0:0
236,136,78206,2,0,B|276:120|312:128,1,75,8|2,0:0|0:0,0:0:0
364,180,78543,2,0,B|412:204|480:176,2,112.5,2|2|2,0:0|0:0|0:0,0:0:0
384,108,79217,1,4,0:0:0
476,256,79554,1,8,0:0:0
296,204,79892,6,0,B|232:207|211:272,1,112.5,2|2,0:0|0:0,0:0:0
208,308,80229,1,8,0:0:0
284,300,80397,1,2,0:0:0
328,360,80566,2,0,B|360:332|356:284,1,75
428,272,80903,2,0,B|412:232|366:219,1,75,8|2,0:0|0:0,0:0:0
204,176,81240,6,0,B|144:176|124:100,2,112.5,0|2|2,0:0|0:0|0:0,0:0:0
204,100,81914,2,0,B|240:84|284:104,1,75,2|0,0:0|0:0,0:0:0
408,160,82251,2,0,B|372:176|328:156,1,75,8|2,0:0|0:0,0:0:0
352,84,82588,6,0,B|388:40|452:44,2,112.5,2|2|2,0:0|0:0|0:0,0:0:0
404,136,83262,1,2,0:0:0
275,297,83599,2,0,B|314:301|344:272,1,75,8|2,0:0|0:0,0:0:0
288,224,83936,6,0,B|233:195|178:213,1,112.5
152,240,84274,2,0,B|120:260|80:252,1,75,8|2,0:0|0:0,0:0:0
100,180,84611,2,0,B|36:172|28:104,2,112.5,4|2|2,0:0|0:0|0:0,0:0:0
144,120,85285,6,0,B|188:76|252:96,1,112.5,2|0,0:0|0:0,0:0:0
280,116,85622,2,0,B|312:136|360:124,1,75,8|2,0:0|0:0,0:0:0
324,56,85959,2,0,B|368:44|408:64|419:94,2,112.5,4|2|2,0:0|0:0|0:0,0:0:0
232,180,86633,6,0,B|224:228|192:244|148:248,2,112.5,2|0|2,0:0|0:0|0:0,0:0:0
308,192,87307,2,0,B|345:222|343:258|324:298,2,112.5,4|2|2,0:0|0:0|0:0,0:0:0
348,128,87981,2,0,B|389:101|422:114|454:144,2,112.5,0|2|2,0:0|0:0|0:0,0:0:0
256,192,88656,12,4,90004,0:0:0
