osu file format v10

[General]
AudioFilename: Identic_Conflict.mp3
AudioLeadIn: 500
PreviewTime: 45151
Countdown: 0
SampleSet: Soft
StackLeniency: 0.7
Mode: 0
LetterboxInBreaks: 1

[Editor]
Bookmarks: 29992
DistanceSpacing: 0.9
BeatDivisor: 4
GridSize: 4

[Metadata]
Title:Identic Conflict
TitleUnicode:Identic Conflict
Artist:bbn
ArtistUnicode:bbn
Creator:Flower
Version:Another
Source:Oblivious Garden
Tags:corypheesoft Evening Primrose
BeatmapID:161159
BeatmapSetID:49188

[Difficulty]
HPDrainRate:7
CircleSize:5
OverallDifficulty:7
ApproachRate:8
SliderMultiplier:1.8
SliderTickRate:1

[Events]
//Background and Video events
Video,0,"Identic Conflict.flv"
0,0,"lin2.jpg"
//Break Periods
//Storyboard Layer 0 (Background)
//Storyboard Layer 1 (Fail)
//Storyboard Layer 2 (Pass)
//Storyboard Layer 3 (Foreground)
//Storyboard Sound Samples
//Background Colour Transformations
3,100,0,0,0

[TimingPoints]
2027,337.078651685393,4,2,1,10,1,0
12307,-133.333333333333,4,2,1,30,0,0
12813,-133.333333333333,4,2,1,30,0,0
18206,-133.333333333333,4,2,1,30,0,0
19555,-133.333333333333,4,2,1,25,0,0
20903,-133.333333333333,4,2,1,20,0,0
22251,-133.333333333333,4,2,1,15,0,0
23262,-133.333333333333,4,2,1,55,0,0
23600,-133.333333333333,4,2,1,35,0,0
23937,337.078651685393,4,2,1,60,1,0
28487,-100,4,2,1,40,0,0
28656,-100,4,2,1,60,0,0
29330,-100,4,2,1,50,0,0
29498,-100,4,2,1,60,0,0
29667,-100,4,2,1,35,0,0
29835,-100,4,2,1,50,0,0
30341,-100,4,2,1,30,0,0
30510,-100,4,2,1,60,0,0
45510,-100,4,2,1,30,0,0
46689,-100,4,2,1,40,0,0
46774,-100,4,2,1,30,0,0
56296,-100,4,2,1,50,0,0
68431,-100,4,2,1,60,0,1
76521,-100,4,2,1,50,0,1
76689,-100,4,2,1,60,0,1
90004,-100,4,2,1,60,0,0

[Colours]
Combo1 : 255,247,85
Combo2 : 250,250,250
Combo3 : 132,215,255
Combo4 : 255,2,2
Combo5 : 223,96,255
Combo6 : 7,51,199

[HitObjects]
256,60,2027,1,4,0:0:0
292,60,3375,1,0,0:0:0
328,60,4723,1,0,0:0:0
364,60,6071,1,0,0:0:0
364,324,6914,5,8,2:3:0
292,324,7251,1,8,2:3:0
256,324,7420,5,0,0:0:0
220,324,8768,1,0,0:0:0
184,324,10116,1,0,0:0:0
148,324,11465,1,0,0:0:0
256,104,12307,1,2,0:0:0
255,281,12644,1,2,0:0:0
380,284,12813,6,0,B|316:236|252:284,1,134.999995976687,6|0,0:0|0:0,0:0:0
132,100,13487,2,0,B|196:148|260:100,1,134.999995976687,2|2,0:0|0:0,0:0:0
164,316,14161,2,0,B|212:252|164:188,1,134.999995976687,2|0,0:0|0:0,0:0:0
348,68,14835,2,0,B|300:132|348:196,1,134.999995976687,2|2,0:0|0:0,0:0:0
256,292,15510,6,0,B|320:332|384:292,1,134.999995976687,2|0,0:0|0:0,0:0:0
256,92,16184,2,0,B|192:52|128:92,1,134.999995976687,2|2,0:0|0:0,0:0:0
356,192,16858,2,0,B|396:128|356:64,1,134.999995976687,2|0,0:0|0:0,0:0:0
84,192,17532,1,2,0:0:0
116,288,17701,1,2,0:0:0
288,289,18038,1,2,0:0:0
257,192,18206,5,4,0:0:0
256,224,19555,1,4,0:0:0
256,256,20903,1,4,0:0:0
256,192,22251,12,0,23600,0:0:0
312,44,23937,6,0,B|352:80|360:144,1,90,4|0,0:0|0:0,0:0:0
292,244,24274,2,0,B|252:208|244:144,1,90,2|0,0:0|0:0,0:0:0
244,140,24526,1,2,0:0:0
236,112,24611,1,2,0:0:0
216,92,24695,1,0,0:0:0
192,80,24779,1,2,0:0:0
116,160,24948,1,2,0:0:0
72,40,25116,1,0,0:0:0
32,216,25285,5,2,0:0:0
40,248,25369,1,0,0:0:0
60,272,25453,1,2,0:0:0
92,280,25538,1,2,0:0:0
124,280,25622,1,2,0:0:0
156,272,25706,1,0,0:0:0
188,272,25790,1,2,0:0:0
216,284,25875,1,0,0:0:0
248,312,25959,2,0,B|309:323,3,45,2|0|0|0,0:0|0:0|0:0|0:0,0:0:0
324,352,26296,2,0,B|384:320,3,45,2|0|0|0,0:0|0:0|0:0|0:0,0:0:0
380,288,26633,6,0,B|420:236,2,45,2|0|0,0:0|0:0|0:0,0:0:0
416,140,26970,2,0,B|388:84,2,45,2|0|0,0:0|0:0|0:0,0:0:0
254,60,27307,1,2,0:0:0
267,83,27392,1,0,0:0:0
279,106,27476,1,0,0:0:0
117,45,27644,1,2,0:0:0
130,68,27729,1,0,0:0:0
142,91,27813,1,2,0:0:0
116,192,27981,1,2,0:0:0
12,208,28150,2,0,B|19:295|89:317|148:300,1,180,0|2,0:0|0:0,0:0:0
304,360,28656,5,0,0:0:0
324,328,28740,1,0,0:0:0
356,308,28824,1,2,0:0:0
392,308,28908,1,0,0:0:0
428,300,28993,1,2,0:0:0
460,280,29077,1,0,0:0:0
488,256,29161,1,2,0:0:0
496,220,29245,1,2,0:0:0
496,184,29330,6,0,B|496:140|460:104,1,90,6|0,0:0|0:0,0:0:0
276,144,29667,2,0,B|276:188|312:224,1,90,2|0,0:0|0:0,0:0:0
416,212,30004,2,0,B|416:168|380:132,1,90,2|0,0:0|0:0,0:0:0
192,156,30341,2,0,B|192:200|228:236,1,90,2|0,0:0|0:0,0:0:0
356,312,30678,5,2,0:0:0
252,352,30847,2,0,B|208:372,2,45,0|0|2,0:0|0:0|0:0,0:0:0
96,296,31184,2,0,B|48:268,2,45,0|0|2,0:0|0:0|0:0,0:0:0
64,144,31521,1,0,0:0:0
168,52,31689,5,2,0:0:0
228,236,31858,1,2,0:0:0
200,236,31942,1,0,0:0:0
172,236,32027,1,2,0:0:0
280,128,32195,2,0,B|332:128,2,45,2|0|2,0:0|0:0|0:0,0:0:0
248,344,32532,1,2,0:0:0
276,344,32616,1,0,0:0:0
304,344,32701,1,2,0:0:0
412,236,32869,2,0,B|467:235,2,45,2|0|2,0:0|0:0|0:0,0:0:0
452,136,33206,1,0,0:0:0
348,44,33375,6,0,B|244:44,1,90,2|0,0:0|0:0,0:0:0
40,312,33712,2,0,B|144:312,1,90,2|0,0:0|0:0,0:0:0
52,72,34049,1,2,0:0:0
20,156,34217,1,0,0:0:0
88,216,34386,1,2,0:0:0
172,180,34554,1,0,0:0:0
204,180,34639,1,0,0:0:0
236,180,34723,1,4,0:0:0
432,128,35397,5,2,0:0:0
436,140,35481,1,0,0:0:0
440,152,35566,1,2,0:0:0
444,164,35650,1,2,0:0:0
448,176,35734,1,2,0:0:0
452,188,35819,1,0,0:0:0
456,200,35903,1,2,0:0:0
460,212,35987,1,0,0:0:0
464,224,36071,6,0,B|420:320,1,90,2|0,0:0|0:0,0:0:0
272,156,36408,2,0,B|316:60,1,90,2|0,0:0|0:0,0:0:0
344,216,36745,2,0,B|300:312,1,90,2|0,0:0|0:0,0:0:0
152,184,37083,2,0,B|196:88,1,90,2|0,0:0|0:0,0:0:0
164,64,37335,1,2,0:0:0
120,64,37420,6,0,B|52:80,3,45,2|0|2|0,0:0|0:0|0:0|0:0,0:0:0
64,160,37757,2,0,B|16:200,3,45,0|0|2|0,0:0|0:0|0:0|0:0,0:0:0
76,260,38094,2,0,B|60:324,3,45,0|2|2|0,0:0|0:0|0:0|0:0,0:0:0
144,320,38431,2,0,B|172:368,3,45,0|0|2|0,0:0|0:0|0:0|0:0,0:0:0
240,312,38768,5,2,0:0:0
272,296,38852,1,0,0:0:0
308,292,38936,1,2,0:0:0
340,304,39021,1,2,0:0:0
368,328,39105,1,0,0:0:0
404,332,39189,1,0,0:0:0
440,320,39274,1,2,0:0:0
460,288,39358,1,2,0:0:0
460,244,39442,2,0,B|416:192,3,45,2|0|0|2,0:0|0:0|0:0|0:0,0:0:0
396,240,39779,2,0,B|344:216,3,45,2|0|2|2,0:0|0:0|0:0|0:0,0:0:0
348,154,40116,6,0,B|324:34,1,90,4|0,0:0|0:0,0:0:0
148,192,40453,2,0,B|172:312,1,90,2|0,0:0|0:0,0:0:0
128,100,40790,2,0,B|112:28,2,45,0|0|2,0:0|0:0|0:0,0:0:0
366,244,41128,2,0,B|382:316,2,45,0|0|2,0:0|0:0|0:0,0:0:0
320,148,41465,6,0,B|416:72,1,90,4|0,0:0|0:0,0:0:0
148,192,41802,2,0,B|52:268,1,90,2|0,0:0|0:0,0:0:0
204,268,42139,1,0,0:0:0
184,284,42223,1,0,0:0:0
164,300,42307,1,2,0:0:0
244,84,42476,1,0,0:0:0
264,68,42560,1,0,0:0:0
284,52,42644,1,2,0:0:0
400,68,42813,6,0,B|448:64|488:120,1,90,4|0,0:0|0:0,0:0:0
392,168,43150,2,0,B|428:199|417:266,1,90,2|0,0:0|0:0,0:0:0
316,248,43487,2,0,B|320:296|264:336,1,90,4|0,0:0|0:0,0:0:0
208,248,43824,2,0,B|176:284|109:273,1,90,2|0,0:0|0:0,0:0:0
256,192,44161,12,2,45172,0:0:0
412,176,45510,6,0,B|445:141|499:134,1,90,4|0,0:0|0:0,0:0:0
364,256,45847,2,0,B|330:290|276:297,1,90,2|0,0:0|0:0,0:0:0
200,260,46184,1,0,0:0:0
272,204,46352,1,0,0:0:0
188,168,46521,1,2,0:0:0
36,200,46689,6,0,B|40:264|80:320|156:332,1,180
232,348,47195,2,0,B|276:356|319:331,1,90,2|0,0:0|0:0,0:0:0
384,272,47532,1,0,0:0:0
428,192,47701,1,0,0:0:0
428,104,47869,1,2,0:0:0
256,212,48206,6,0,B|232:252|178:246,1,90
120,120,48543,2,0,B|144:80|197:85,1,90,2|0,0:0|0:0,0:0:0
288,100,48880,1,0,0:0:0
356,160,49049,1,0,0:0:0
380,248,49217,1,2,0:0:0
348,332,49386,1,0,0:0:0
238,320,49554,6,0,B|210:348|150:344,1,90,2|0,0:0|0:0,0:0:0
11,278,49892,2,0,B|47:246|99:254,1,90,0|2,0:0|0:0,0:0:0
262,155,50229,2,0,B|234:183|174:179,1,90,2|0,0:0|0:0,0:0:0
29,89,50566,2,0,B|61:57|117:65,1,90,2|0,0:0|0:0,0:0:0
272,240,50903,6,0,B|312:264|360:248,1,90,4|0,0:0|0:0,0:0:0
440,284,51240,2,0,B|470:248|463:198,1,90,2|0,0:0|0:0,0:0:0
444,112,51577,1,2,0:0:0
380,48,51745,1,0,0:0:0
288,44,51914,1,2,0:0:0
216,100,52083,6,0,B|208:184|152:208|88:208,1,180
20,152,52588,2,0,B|52:115|120:118,1,90,2|0,0:0|0:0,0:0:0
192,288,52925,1,2,0:0:0
120,328,53094,1,0,0:0:0
40,320,53262,1,2,0:0:0
256,336,53599,6,0,B|296:353|344:340,1,90,4|0,0:0|0:0,0:0:0
391,137,53936,2,0,B|350:119|303:133,1,90,2|0,0:0|0:0,0:0:0
305,268,54274,2,0,B|347:258|379:220,1,90,0|2,0:0|0:0,0:0:0
302,52,54611,2,0,B|258:60|227:99,1,90,2|0,0:0|0:0,0:0:0
208,260,54948,5,2,0:0:0
192,280,55032,1,2,0:0:0
176,300,55116,1,0,0:0:0
76,256,55285,2,0,B|28:256,2,45,0|0|2,0:0|0:0|0:0,0:0:0
52,152,55622,1,2,0:0:0
36,132,55706,1,2,0:0:0
20,112,55790,1,0,0:0:0
108,52,55959,1,0,0:0:0
216,40,56128,1,2,0:0:0
352,176,56296,6,0,B|312:150|307:102,1,90,4|0,0:0|0:0,0:0:0
400,28,56633,2,0,B|440:54|445:103,1,90,8|0,0:0|0:0,0:0:0
288,216,56970,2,0,B|248:189|243:141,1,90,2|0,0:0|0:0,0:0:0
356,272,57307,1,10,0:0:0
437,238,57476,6,0,B|409:179|336:164|288:216,1,180,0|0,0:0|0:0,0:0:0
232,316,57981,2,0,B|212:360|160:364,1,90,8|0,0:0|0:0,0:0:0
48,280,58319,2,0,B|68:236|120:232,2,90,2|0|8,0:0|0:0|0:0,0:0:0
200,128,58993,6,0,B|172:80|200:36,1,90,2|0,0:0|0:0,0:0:0
288,112,59330,2,0,B|315:63|367:65,1,90,8|0,0:0|0:0,0:0:0
364,184,59667,2,0,B|419:183|443:230,1,90,2|2,0:0|0:0,0:0:0
332,268,60004,2,0,B|360:316|332:360,1,90,8|0,0:0|0:0,0:0:0
80,350,60341,6,0,B|64:302|88:262,1,90,2|0,0:0|0:0,0:0:0
256,196,60678,2,0,B|272:244|248:284,1,90,8|0,0:0|0:0,0:0:0
50,324,61015,2,0,B|34:276|58:236,1,90,2|0,0:0|0:0,0:0:0
225,164,61352,2,0,B|241:212|217:252,1,90,8|2,0:0|0:0,0:0:0
192,76,61689,5,4,0:0:0
192,76,61858,1,0,0:0:0
128,148,62026,1,8,0:0:0
128,148,62195,1,0,0:0:0
32,164,62363,2,0,B|36:212|83:235,2,90,2|0|8,0:0|0:0|0:0,0:0:0
64,72,62869,1,0,0:0:0
301,200,63038,6,0,B|252:204|224:164,1,90,4|0,0:0|0:0,0:0:0
304,31,63375,2,0,B|352:28|384:68,1,90,8|0,0:0|0:0,0:0:0
420,156,63712,1,2,0:0:0
412,244,63880,1,0,0:0:0
364,320,64049,1,8,0:0:0
96,296,64386,6,0,B|109:342|169:356,1,90,4|0,0:0|0:0,0:0:0
296,244,64723,2,0,B|282:197|222:183,1,90,8|0,0:0|0:0,0:0:0
144,256,65060,2,0,B|157:302|217:316,1,90,2|0,0:0|0:0,0:0:0
340,200,65397,2,0,B|326:153|266:139,1,90,8|0,0:0|0:0,0:0:0
131,31,65734,5,2,0:0:0
93,33,65819,1,0,0:0:0
60,48,65903,1,2,0:0:0
40,79,65987,1,0,0:0:0
35,115,66071,2,0,B|83:127|103:183,1,90,0|2,0:0|0:0,0:0:0
214,223,66408,5,2,0:0:0
245,243,66493,1,0,0:0:0
279,241,66577,1,2,0:0:0
312,226,66661,1,0,0:0:0
340,200,66745,2,0,B|369:159|348:104,1,90,0|2,0:0|0:0,0:0:0
263,27,67083,5,6,0:0:0
226,31,67167,1,0,0:0:0
200,57,67251,1,2,0:0:0
197,93,67335,1,0,0:0:0
206,126,67420,1,0,0:0:0
232,148,67504,1,0,0:0:0
268,156,67588,1,2,0:0:0
404,240,67757,1,2,0:0:0
412,280,67841,1,2,0:0:0
396,316,67925,1,2,0:0:0
360,332,68010,1,0,0:0:0
316,324,68094,1,0,0:0:0
272,324,68178,1,0,0:0:0
236,348,68262,1,2,0:0:0
108,248,68431,6,0,B|62:231|47:171|71:123,1,135,4|0,0:0|0:0,0:0:0
101,109,68768,1,8,0:0:0
316,240,68936,1,2,0:0:0
340,208,69021,1,0,0:0:0
360,172,69105,2,0,B|352:132|304:92|255:95,1,135,2|2,0:0|0:0,0:0:0
248,28,69442,2,0,B|191:44|188:104,1,90,8|0,0:0|0:0,0:0:0
144,176,69779,2,0,B|161:218|216:245,1,90,2|0,0:0|0:0,0:0:0
404,112,70116,2,0,B|386:69|331:42,1,90,8|0,0:0|0:0,0:0:0
496,236,70453,6,0,B|484:284|424:288,1,90,2|0,0:0|0:0,0:0:0
388,280,70706,1,0,0:0:0
352,300,70790,2,0,B|316:338|348:396,1,90,8|0,0:0|0:0,0:0:0
228,364,71128,2,0,B|206:282|122:293,1,135,2|2,0:0|0:0,0:0:0
76,340,71465,2,0,B|44:300|69:256,1,90,8|0,0:0|0:0,0:0:0
100,228,71717,1,0,0:0:0
136,212,71802,6,0,B|183:192|182:139,1,90,2|0,0:0|0:0,0:0:0
109,39,72139,1,8,0:0:0
80,68,72223,1,0,0:0:0
78,109,72307,1,2,0:0:0
224,232,72476,2,0,B|244:276|304:276,1,90
454,218,72813,2,0,B|434:174|374:174,1,90,8|0,0:0|0:0,0:0:0
224,232,73150,6,0,B|176:292|100:264,1,135,2|2,0:0|0:0,0:0:0
64,248,73487,1,8,0:0:0
40,216,73571,1,0,0:0:0
40,176,73656,1,2,0:0:0
276,120,73824,2,0,B|308:84|300:36,1,90,2|0,0:0|0:0,0:0:0
144,68,74161,2,0,B|112:104|120:152,1,90,8|0,0:0|0:0,0:0:0
292,240,74498,6,0,B|344:236|368:188,1,90,2|0,0:0|0:0,0:0:0
376,152,74751,1,2,0:0:0
360,108,74835,1,8,0:0:0
244,44,75004,1,0,0:0:0
264,152,75172,6,0,B|223:129|178:155,1,90,0|0,0:0|0:0,0:0:0
145,187,75425,1,2,0:0:0
139,232,75510,1,8,0:0:0
168,352,75678,1,2,0:0:0
44,156,75847,6,0,B|16:196|32:244,1,90,0|0,0:0|0:0,0:0:0
48,284,76099,1,2,0:0:0
84,312,76184,1,8,0:0:0
216,300,76352,1,2,0:0:0
368,192,76521,2,0,B|396:152|384:104,1,90,4|2,0:0|0:0,0:0:0
304,32,76858,2,0,B|276:72|288:120,1,90,8|0,0:0|0:0,0:0:0
456,304,77195,6,0,B|409:317|376:274,1,90,2|0,0:0|0:0,0:0:0
356,236,77448,1,2,0:0:0
368,192,77532,1,8,0:0:0
464,128,77701,1,2,0:0:0
124,268,77869,6,0,B|140:216|196:212,1,90,2|0,0:0|0:0,0:0:0
232,216,78122,1,2,0:0:0
268,244,78206,1,8,0:0:0
328,352,78375,1,2,0:0:0
164,44,78543,6,0,B|216:36|248:72,1,90,2|0,0:0|0:0,0:0:0
276,104,78796,1,2,0:0:0
280,148,78880,1,8,0:0:0
196,300,79049,1,2,0:0:0
52,160,79217,2,0,B|16:128|21:77,1,90,4|2,0:0|0:0,0:0:0
112,100,79554,2,0,B|148:132|142:182,1,90,8|0,0:0|0:0,0:0:0
272,300,79892,6,0,B|340:340|416:308,1,135,2|0,0:0|0:0,0:0:0
468,336,80229,2,0,B|480:288|440:252,1,90,8|2,0:0|0:0,0:0:0
408,232,80481,1,0,0:0:0
372,216,80566,2,0,B|334:182|346:134,1,90,2|0,0:0|0:0,0:0:0
464,84,80903,2,0,B|501:117|489:165,1,90,8|2,0:0|0:0,0:0:0
376,56,81240,6,0,B|308:16|244:64,1,135,0|0,0:0|0:0,0:0:0
224,92,81577,1,8,0:0:0
220,132,81661,1,0,0:0:0
240,168,81745,1,2,0:0:0
308,272,81914,2,0,B|347:308|329:357,1,90,2|0,0:0|0:0,0:0:0
160,296,82251,2,0,B|121:260|139:211,1,90,8|0,0:0|0:0,0:0:0
16,112,82588,6,0,B|43:69|88:63,1,90,2|0,0:0|0:0,0:0:0
129,72,82841,1,0,0:0:0
157,100,82925,1,8,0:0:0
208,240,83094,1,2,0:0:0
436,240,83262,2,0,B|416:192|452:156,1,90
304,72,83599,2,0,B|324:120|288:156,1,90,8|2,0:0|0:0,0:0:0
208,240,83936,6,0,B|188:312|248:364,1,135,0|0,0:0|0:0,0:0:0
288,316,84274,2,0,B|318:360|369:352,1,90,8|2,0:0|0:0,0:0:0
132,208,84611,2,0,B|76:197|46:230,1,90,4|0,0:0|0:0,0:0:0
280,244,84948,2,0,B|329:259|363:223,1,90,8|0,0:0|0:0,0:0:0
492,220,85285,6,0,B|413:194|409:108,1,135,2|0,0:0|0:0,0:0:0
376,68,85622,2,0,B|344:28|292:44,1,90,8|0,0:0|0:0,0:0:0
256,56,85875,1,2,0:0:0
236,92,85959,2,0,B|222:140|264:172,1,90,4|0,0:0|0:0,0:0:0
216,304,86296,2,0,B|248:344|299:328,1,90,8|0,0:0|0:0,0:0:0
184,40,86633,6,0,B|176:92|116:104,1,90,2|0,0:0|0:0,0:0:0
84,100,86886,1,2,0:0:0
44,112,86970,2,0,B|4:148|28:196,1,90,8|2,0:0|0:0,0:0:0
298,251,87307,6,0,B|301:197|250:180,1,90,4|2,0:0|0:0,0:0:0
94,228,87644,2,0,B|91:282|142:299,1,90,8|0,0:0|0:0,0:0:0
403,214,87981,2,0,B|405:160|354:143,1,90,2|2,0:0|0:0,0:0:0
173,206,88319,2,0,B|171:259|222:276,1,90,8|0,0:0|0:0,0:0:0
256,192,88656,12,4,90004,0:0:0
