osu file format v14

[General]
AudioFilename: movielrg (1)_Jfs59kYd.mp3
AudioLeadIn: 0
PreviewTime: 45511
Countdown: 0
SampleSet: Soft
StackLeniency: 0.7
Mode: 3
LetterboxInBreaks: 0
SpecialStyle: 0
WidescreenStoryboard: 0

[Editor]
Bookmarks: 30774,46785,61785
DistanceSpacing: 1
BeatDivisor: 4
GridSize: 8
TimelineZoom: 3.599998

[Metadata]
Title:Identic Conflict
TitleUnicode:Identic Conflict
Artist:bbn
ArtistUnicode:bbn
Creator:[ S a k u r a ]
Version:Easy
Source:Oblivious Garden ~Carmina Burana
Tags:Mashiro-Fang 遗忘花园 corypheesoft evening primrose
BeatmapID:559863
BeatmapSetID:241328

[Difficulty]
HPDrainRate:7
CircleSize:4
OverallDifficulty:6.5
ApproachRate:5
SliderMultiplier:1.4
SliderTickRate:1

[Events]
//Background and Video events
0,0,"Oblivious.Garden.full.648827.jpg",0,0
//Break Periods
//Storyboard Layer 0 (Background)
//Storyboard Layer 1 (Fail)
//Storyboard Layer 2 (Pass)
//Storyboard Layer 3 (Foreground)
//Storyboard Sound Samples

[TimingPoints]
2029,337.078651685393,4,2,1,35,1,0
22253,337.078651685393,5,2,1,35,1,0
23938,337.078651685393,4,2,1,35,1,0

[HitObjects]
448,192,2029,128,0,3377:0:0:0:30:bassdrum.wav
192,192,3377,128,0,4725:0:0:0:30:bassdrum.wav
320,192,4725,128,0,6073:0:0:0:30:bassdrum.wav
64,192,6073,128,0,7422:0:0:0:30:bassdrum.wav
448,192,7422,128,0,8770:0:0:0:30:bassdrum.wav
192,192,8770,128,0,10118:0:0:0:30:bassdrum.wav
320,192,10118,128,0,11467:0:0:0:30:bassdrum.wav
64,192,11467,128,0,12815:0:0:0:30:bassdrum.wav
448,192,12815,1,0,0:0:0:30:cymbol.wav
320,192,12815,1,0,0:0:0:0:
192,192,13152,1,0,0:0:0:0:
64,192,13489,1,0,0:0:0:30:bassdrum.wav
320,192,13826,1,0,0:0:0:30:bassdrum.wav
448,192,14163,1,0,0:0:0:30:bassdrum.wav
64,192,14500,1,0,0:0:0:30:bassdrum.wav
320,192,14837,1,0,0:0:0:30:bassdrum.wav
192,192,15175,1,0,0:0:0:30:bassdrum.wav
448,192,15512,1,0,0:0:0:30:bassdrum.wav
64,192,15849,1,0,0:0:0:30:bassdrum.wav
192,192,16186,1,0,0:0:0:30:bassdrum.wav
320,192,16523,1,0,0:0:0:30:bassdrum.wav
192,192,16860,1,0,0:0:0:0:
448,192,17197,1,0,0:0:0:0:
320,192,17534,1,0,0:0:0:30:bassdrum.wav
64,192,17703,1,0,0:0:0:30:bassdrum.wav
448,192,18040,1,0,0:0:0:30:bassdrum.wav
192,192,18208,1,0,0:0:0:30:cymbol.wav
64,192,18208,1,0,0:0:0:30:hihat.wav
320,192,18545,1,0,0:0:0:0:
192,192,18882,1,0,0:0:0:30:bassdrum.wav
64,192,19220,1,0,0:0:0:30:bassdrum.wav
320,192,19557,1,0,0:0:0:30:cymbol.wav
448,192,19557,1,0,0:0:0:0:
192,192,19894,1,0,0:0:0:30:bassdrum.wav
320,192,20231,1,0,0:0:0:30:bassdrum.wav
448,192,20568,1,0,0:0:0:0:
64,192,20905,1,0,0:0:0:30:cymbol.wav
192,192,20905,1,0,0:0:0:0:
320,192,21242,1,0,0:0:0:30:bassdrum.wav
448,192,21579,1,0,0:0:0:30:bassdrum.wav
64,192,21916,1,0,0:0:0:30:bassdrum.wav
192,192,22253,128,0,23601:0:0:0:0:
448,192,23938,1,0,0:0:0:30:hihat.wav
64,192,23938,1,0,0:0:0:0:
320,192,24275,1,0,0:0:0:30:bassdrum.wav
192,192,24612,1,0,0:0:0:30:bassdrum.wav
448,192,24949,1,0,0:0:0:30:hihat.wav
64,192,25286,1,0,0:0:0:30:bassdrum.wav
320,192,25623,1,0,0:0:0:30:hihat.wav
448,192,25960,1,0,0:0:0:30:bassdrum.wav
192,192,26297,1,0,0:0:0:30:hihat.wav
448,192,26634,1,0,0:0:0:30:bassdrum.wav
64,192,26971,1,0,0:0:0:30:hihat.wav
320,192,27308,1,0,0:0:0:30:bassdrum.wav
448,192,27645,1,0,0:0:0:30:hihat.wav
64,192,27982,1,0,0:0:0:30:bassdrum.wav
192,192,28320,1,0,0:0:0:30:hihat.wav
320,192,28657,1,0,0:0:0:0:
448,192,28825,1,0,0:0:0:0:
192,192,29162,1,0,0:0:0:0:
64,192,29331,1,0,0:0:0:0:
320,192,29668,1,0,0:0:0:30:hihat.wav
192,192,30005,1,0,0:0:0:30:bassdrum.wav
448,192,30342,1,0,0:0:0:30:hihat.wav
320,192,30679,1,0,0:0:0:30:bassdrum.wav
64,192,31016,1,0,0:0:0:30:hihat.wav
192,192,31353,1,0,0:0:0:0:
320,192,31690,1,0,0:0:0:0:
448,192,32027,1,0,0:0:0:30:bassdrum.wav
64,192,32364,1,0,0:0:0:0:
320,192,32702,1,0,0:0:0:0:
448,192,33039,1,0,0:0:0:30:hihat.wav
192,192,33376,128,0,34724:0:0:0:0:
448,192,34724,1,0,0:0:0:30:cymbol.wav
320,192,34724,1,0,0:0:0:30:hihat.wav
64,192,35061,1,0,0:0:0:0:
320,192,35398,1,0,0:0:0:30:bassdrum.wav
448,192,35735,1,0,0:0:0:0:
192,192,36072,128,0,36746:0:0:0:0:
64,192,36746,128,0,37421:0:0:0:0:
320,192,37421,1,0,0:0:0:0:
448,192,37758,1,0,0:0:0:30:hihat.wav
192,192,38095,1,0,0:0:0:30:bassdrum.wav
320,192,38432,1,0,0:0:0:30:hihat.wav
448,192,38769,1,0,0:0:0:30:bassdrum.wav
320,192,39106,1,0,0:0:0:30:hihat.wav
192,192,39443,1,0,0:0:0:30:bassdrum.wav
320,192,39612,1,0,0:0:0:30:bassdrum.wav
448,192,39949,1,0,0:0:0:30:bassdrum.wav
192,192,40117,1,0,0:0:0:30:hihat.wav
64,192,40454,1,0,0:0:0:30:bassdrum.wav
192,192,40791,1,0,0:0:0:30:bassdrum.wav
320,192,41129,1,0,0:0:0:30:bassdrum.wav
448,192,41466,1,0,0:0:0:30:hihat.wav
64,192,41466,1,0,0:0:0:30:cymbol.wav
320,192,41803,1,0,0:0:0:30:bassdrum.wav
192,192,42140,1,0,0:0:0:30:bassdrum.wav
64,192,42477,1,0,0:0:0:30:bassdrum.wav
192,192,42814,1,0,0:0:0:30:cymbol.wav
320,192,42814,1,0,0:0:0:30:hihat.wav
448,192,43151,1,0,0:0:0:30:bassdrum.wav
64,192,43488,1,0,0:0:0:30:bassdrum.wav
320,192,43825,1,0,0:0:0:30:bassdrum.wav
192,192,44162,128,0,45511:0:0:0:0:
448,192,45511,1,0,0:0:0:30:bassdrum.wav
64,192,45679,1,0,0:0:0:0:
320,192,45848,1,0,0:0:0:0:
192,192,46016,1,0,0:0:0:0:
64,192,46185,1,0,0:0:0:0:
320,192,46353,1,0,0:0:0:0:
448,192,46522,1,0,0:0:0:0:
192,192,46690,1,0,0:0:0:0:
64,192,47027,1,0,0:0:0:0:
320,192,47196,1,0,0:0:0:0:
192,192,47364,1,0,0:0:0:0:
448,192,47533,1,0,0:0:0:0:
320,192,47702,1,0,0:0:0:0:
64,192,47870,1,0,0:0:0:0:
320,192,48207,1,0,0:0:0:0:
192,192,48376,1,0,0:0:0:0:
448,192,48544,1,0,0:0:0:0:
64,192,48713,1,0,0:0:0:0:
192,192,48881,1,0,0:0:0:0:
320,192,49050,1,0,0:0:0:0:
448,192,49218,1,0,0:0:0:0:
64,192,49387,1,0,0:0:0:0:
448,192,49555,1,0,0:0:0:0:
320,192,49724,1,0,0:0:0:0:
192,192,49893,1,0,0:0:0:0:
320,192,50061,1,0,0:0:0:0:
448,192,50230,1,0,0:0:0:0:
320,192,50398,1,0,0:0:0:20:bassdrum.wav
192,192,50567,1,0,0:0:0:0:
64,192,50735,1,0,0:0:0:20:bassdrum.wav
448,192,50904,1,0,0:0:0:20:bassdrum.wav
192,192,51072,1,0,0:0:0:0:
320,192,51241,1,0,0:0:0:0:
64,192,51409,1,0,0:0:0:0:
192,192,51578,1,0,0:0:0:0:
320,192,51746,1,0,0:0:0:0:
448,192,51915,1,0,0:0:0:0:
192,192,52084,1,0,0:0:0:0:
64,192,52421,1,0,0:0:0:0:
320,192,52589,1,0,0:0:0:0:
192,192,52758,1,0,0:0:0:0:
64,192,52926,1,0,0:0:0:0:
192,192,53095,1,0,0:0:0:0:
320,192,53263,1,0,0:0:0:0:
448,192,53600,1,0,0:0:0:0:
64,192,53769,1,0,0:0:0:0:
320,192,53937,1,0,0:0:0:0:
192,192,54106,1,0,0:0:0:0:
448,192,54275,1,0,0:0:0:0:
320,192,54443,1,0,0:0:0:0:
192,192,54612,1,0,0:0:0:0:
448,192,54780,1,0,0:0:0:0:
64,192,54949,1,0,0:0:0:20:bassdrum.wav
320,192,55117,1,0,0:0:0:20:bassdrum.wav
192,192,55286,1,0,0:0:0:20:bassdrum.wav
448,192,55454,1,0,0:0:0:20:bassdrum.wav
64,192,55623,1,0,0:0:0:20:bassdrum.wav
192,192,55791,1,0,0:0:0:20:bassdrum.wav
320,192,55960,1,0,0:0:0:20:bassdrum.wav
448,192,56129,1,0,0:0:0:20:bassdrum.wav
64,192,56297,1,0,0:0:0:20:cymbol.wav
192,192,56297,1,0,0:0:0:20:hihat.wav
320,192,56634,1,0,0:0:0:20:bassdrum.wav
192,192,56971,1,0,0:0:0:20:bassdrum.wav
448,192,57308,1,0,0:0:0:20:bassdrum.wav
64,192,57645,1,0,0:0:0:20:bassdrum.wav
192,192,57982,1,0,0:0:0:20:bassdrum.wav
320,192,58320,1,0,0:0:0:20:bassdrum.wav
448,192,58657,1,0,0:0:0:20:bassdrum.wav
320,192,58994,1,0,0:0:0:20:bassdrum.wav
64,192,59331,1,0,0:0:0:20:bassdrum.wav
448,192,59668,1,0,0:0:0:20:bassdrum.wav
192,192,60005,1,0,0:0:0:20:bassdrum.wav
320,192,60342,1,0,0:0:0:20:bassdrum.wav
448,192,60679,1,0,0:0:0:20:bassdrum.wav
64,192,61016,1,0,0:0:0:20:bassdrum.wav
320,192,61185,1,0,0:0:0:20:bassdrum.wav
320,192,61522,1,0,0:0:0:20:bassdrum.wav
192,192,61690,1,0,0:0:0:20:cymbol.wav
64,192,61690,1,0,0:0:0:20:hihat.wav
448,192,62027,1,0,0:0:0:20:bassdrum.wav
320,192,62364,1,0,0:0:0:20:bassdrum.wav
64,192,62702,1,0,0:0:0:20:bassdrum.wav
192,192,63039,1,0,0:0:0:20:cymbol.wav
448,192,63039,1,0,0:0:0:20:hihat.wav
320,192,63376,1,0,0:0:0:20:bassdrum.wav
64,192,63713,1,0,0:0:0:20:bassdrum.wav
448,192,64050,1,0,0:0:0:20:bassdrum.wav
192,192,64387,1,0,0:0:0:20:cymbol.wav
320,192,64387,1,0,0:0:0:20:hihat.wav
64,192,64724,1,0,0:0:0:20:bassdrum.wav
320,192,65061,1,0,0:0:0:20:bassdrum.wav
448,192,65398,1,0,0:0:0:20:bassdrum.wav
192,192,65735,128,0,67084:0:0:0:0:
448,192,67084,128,0,67758:0:0:0:0:
64,192,67758,128,0,68432:0:0:0:0:
448,192,68432,128,0,69106:0:0:0:0:
320,192,69106,128,0,69359:0:0:0:20:bassdrum.wav
192,192,69359,128,0,69612:0:0:0:0:
64,192,69612,1,0,0:0:0:0:
320,192,69780,128,0,70454:0:0:0:0:
192,192,70454,128,0,70707:0:0:0:20:hihat.wav
320,192,70707,128,0,70960:0:0:0:0:
448,192,70960,1,0,0:0:0:0:
64,192,71129,128,0,71803:0:0:0:0:
448,192,71803,128,0,72055:0:0:0:20:bassdrum.wav
320,192,72055,128,0,72308:0:0:0:0:
192,192,72308,1,0,0:0:0:0:
64,192,72477,128,0,73151:0:0:0:0:
320,192,73151,128,0,73404:0:0:0:20:bassdrum.wav
192,192,73404,128,0,73657:0:0:0:0:
320,192,73657,1,0,0:0:0:0:
448,192,73825,128,0,74499:0:0:0:0:
320,192,74499,128,0,74752:0:0:0:20:bassdrum.wav
192,192,74752,128,0,75005:0:0:0:20:bassdrum.wav
64,192,75005,1,0,0:0:0:0:
448,192,75173,128,0,75426:0:0:0:20:bassdrum.wav
320,192,75426,128,0,75679:0:0:0:20:bassdrum.wav
192,192,75679,1,0,0:0:0:0:
448,192,75848,128,0,76100:0:0:0:20:bassdrum.wav
320,192,76100,128,0,76353:0:0:0:0:
192,192,76353,1,0,0:0:0:0:
64,192,76522,128,0,77196:0:0:0:0:
448,192,77196,128,0,77449:0:0:0:20:bassdrum.wav
192,192,77449,128,0,77702:0:0:0:20:hihat.wav
320,192,77702,1,0,0:0:0:0:
64,192,77870,128,0,78123:0:0:0:20:hihat.wav
448,192,78123,128,0,78376:0:0:0:0:
192,192,78376,1,0,0:0:0:0:
320,192,78544,128,0,78797:0:0:0:20:hihat.wav
192,192,78797,128,0,79050:0:0:0:20:hihat.wav
448,192,79050,1,0,0:0:0:0:
64,192,79218,128,0,79893:0:0:0:0:
320,192,79893,128,0,80145:0:0:0:20:bassdrum.wav
192,192,80145,128,0,80398:0:0:0:20:bassdrum.wav
64,192,80398,1,0,0:0:0:0:
320,192,80567,128,0,81241:0:0:0:0:
192,192,81241,128,0,81494:0:0:0:20:bassdrum.wav
320,192,81494,128,0,81746:0:0:0:20:bassdrum.wav
448,192,81746,1,0,0:0:0:0:
64,192,81915,128,0,82589:0:0:0:0:
192,192,82589,128,0,82842:0:0:0:20:bassdrum.wav
64,192,82842,128,0,83095:0:0:0:0:
448,192,83095,1,0,0:0:0:0:
320,192,83263,128,0,83937:0:0:0:0:
192,192,83937,128,0,84190:0:0:0:20:bassdrum.wav
320,192,84190,128,0,84443:0:0:0:0:
448,192,84443,1,0,0:0:0:0:
64,192,84612,128,0,85286:0:0:0:0:
192,192,85286,128,0,85539:0:0:0:20:bassdrum.wav
448,192,85539,128,0,85791:0:0:0:20:bassdrum.wav
64,192,85791,1,0,0:0:0:0:
320,192,85960,128,0,86634:0:0:0:0:
192,192,86634,128,0,86887:0:0:0:20:bassdrum.wav
320,192,86887,128,0,87140:0:0:0:0:
64,192,87140,1,0,0:0:0:0:
448,192,87308,128,0,88657:0:0:0:20:bassdrum.wav
320,192,88657,128,0,89331:0:0:0:0:
192,192,89331,128,0,90005:0:0:0:0:
64,192,90005,1,0,0:0:0:20:hihat.wav
448,192,90005,128,0,93039:0:0:0:0:
