osu file format v14

[General]
AudioFilename: banbanshi - New step.mp3
AudioLeadIn: 0
PreviewTime: 92192
Countdown: 0
SampleSet: Soft
StackLeniency: 0.7
Mode: 3
LetterboxInBreaks: 0
SpecialStyle: 0
WidescreenStoryboard: 0

[Editor]
DistanceSpacing: 0.8
BeatDivisor: 4
GridSize: 8
TimelineZoom: 2.4

[Metadata]
Title:New step
TitleUnicode:New step
Artist:banbanshi
ArtistUnicode:ばんし
Creator:[ A v a l o n ]
Version:Insane
Source:
Tags:M3-39 Snowmelt Album banshi ginkiha DnB Drum and Bass
BeatmapID:1363018
BeatmapSetID:642945

[Difficulty]
HPDrainRate:8
CircleSize:4
OverallDifficulty:8
ApproachRate:5
SliderMultiplier:1.4
SliderTickRate:1

[Events]
//Background and Video events
0,0,"Land Shine.jpg",0,0
//Break Periods
//Storyboard Layer 0 (Background)
//Storyboard Layer 1 (Fail)
//Storyboard Layer 2 (Pass)
//Storyboard Layer 3 (Foreground)
//Storyboard Sound Samples

[TimingPoints]
216,359.281437125748,4,2,0,10,1,0
92192,-100,4,2,0,10,0,1
115186,-100,4,2,0,10,0,0
161892,-100,4,2,0,10,0,1
184886,-100,4,2,0,10,0,0

[HitObjects]
320,192,216,5,0,0:0:0:0:
448,192,395,1,0,0:0:0:0:
320,192,575,1,0,0:0:0:0:
192,192,754,1,0,0:0:0:0:
64,192,934,1,0,0:0:0:0:
448,192,934,1,0,0:0:0:0:
192,192,1114,1,0,0:0:0:0:
320,192,1293,1,0,0:0:0:0:
448,192,1293,1,0,0:0:0:0:
192,192,1473,1,0,0:0:0:0:
64,192,1473,1,0,0:0:0:0:
320,192,1653,1,0,0:0:0:0:
64,192,1832,1,0,0:0:0:0:
448,192,1832,1,0,0:0:0:0:
192,192,2012,1,0,0:0:0:0:
320,192,2192,1,0,0:0:0:0:
448,192,2192,1,0,0:0:0:0:
192,192,2371,1,0,0:0:0:0:
448,192,2551,1,0,0:0:0:0:
64,192,2551,1,0,0:0:0:0:
320,192,2730,1,0,0:0:0:0:
192,192,2910,1,0,0:0:0:0:
320,192,3090,1,0,0:0:0:0:
448,192,3090,1,0,0:0:0:0:
64,192,3090,1,0,0:0:0:0:
192,192,3269,1,0,0:0:0:0:
320,192,3449,1,0,0:0:0:0:
448,192,3629,1,0,0:0:0:0:
64,192,3808,1,0,0:0:0:0:
320,192,3808,1,0,0:0:0:0:
192,192,3988,1,0,0:0:0:0:
448,192,4168,1,0,0:0:0:0:
320,192,4168,1,0,0:0:0:0:
64,192,4347,1,0,0:0:0:0:
192,192,4347,1,0,0:0:0:0:
320,192,4527,1,0,0:0:0:0:
64,192,4707,1,0,0:0:0:0:
448,192,4707,1,0,0:0:0:0:
192,192,4886,1,0,0:0:0:0:
320,192,5066,1,0,0:0:0:0:
448,192,5066,1,0,0:0:0:0:
192,192,5245,1,0,0:0:0:0:
320,192,5425,1,0,0:0:0:0:
448,192,5605,1,0,0:0:0:0:
64,192,5605,1,0,0:0:0:0:
192,192,5784,1,0,0:0:0:0:
320,192,5964,1,0,0:0:0:0:
448,192,5964,1,0,0:0:0:0:
64,192,5964,1,0,0:0:0:0:
192,192,6144,1,0,0:0:0:0:
320,192,6323,1,0,0:0:0:0:
192,192,6503,1,0,0:0:0:0:
64,192,6683,1,0,0:0:0:0:
448,192,6683,1,0,0:0:0:0:
320,192,6862,1,0,0:0:0:0:
64,192,7042,1,0,0:0:0:0:
192,192,7042,1,0,0:0:0:0:
320,192,7221,1,0,0:0:0:0:
448,192,7221,1,0,0:0:0:0:
192,192,7401,1,0,0:0:0:0:
64,192,7581,1,0,0:0:0:0:
448,192,7581,1,0,0:0:0:0:
192,192,7760,1,0,0:0:0:0:
320,192,7940,1,0,0:0:0:0:
64,192,7940,1,0,0:0:0:0:
448,192,8120,1,0,0:0:0:0:
320,192,8299,1,0,0:0:0:0:
192,192,8299,1,0,0:0:0:0:
64,192,8479,1,0,0:0:0:0:
192,192,8659,1,0,0:0:0:0:
448,192,8659,1,0,0:0:0:0:
320,192,8838,1,0,0:0:0:0:
64,192,8838,1,0,0:0:0:0:
448,192,9018,1,0,0:0:0:0:
192,192,9198,1,0,0:0:0:0:
64,192,9198,1,0,0:0:0:0:
320,192,9377,1,0,0:0:0:0:
192,192,9557,1,0,0:0:0:0:
448,192,9557,1,0,0:0:0:0:
64,192,9736,1,0,0:0:0:0:
320,192,9916,1,0,0:0:0:0:
448,192,9916,1,0,0:0:0:0:
192,192,10096,1,0,0:0:0:0:
64,192,10096,1,0,0:0:0:0:
320,192,10275,1,0,0:0:0:0:
448,192,10455,1,0,0:0:0:0:
64,192,10455,1,0,0:0:0:0:
320,192,10635,1,0,0:0:0:0:
192,192,10814,1,0,0:0:0:0:
448,192,10814,1,0,0:0:0:0:
320,192,10994,1,0,0:0:0:0:
64,192,10994,1,0,0:0:0:0:
64,192,11353,1,0,0:0:0:0:
192,192,11353,1,0,0:0:0:0:
448,192,11353,1,0,0:0:0:0:
320,192,11713,1,0,0:0:0:0:
448,192,11713,1,0,0:0:0:0:
192,192,11892,1,0,0:0:0:0:
448,192,11892,1,0,0:0:0:0:
64,192,12072,1,0,0:0:0:0:
320,192,12072,1,0,0:0:0:0:
192,192,12251,1,0,0:0:0:0:
448,192,12251,1,0,0:0:0:0:
320,192,12431,1,0,0:0:0:0:
64,192,12431,1,0,0:0:0:0:
192,192,12611,1,0,0:0:0:0:
320,192,12790,1,0,0:0:0:0:
448,192,12790,1,0,0:0:0:0:
192,192,12970,1,0,0:0:0:0:
64,192,12970,1,0,0:0:0:0:
448,192,13060,1,0,0:0:0:0:
320,192,13150,1,0,0:0:0:0:
64,192,13329,1,0,0:0:0:0:
192,192,13509,1,0,0:0:0:0:
320,192,13509,1,0,0:0:0:0:
448,192,13689,1,0,0:0:0:0:
64,192,13689,1,0,0:0:0:0:
192,192,13778,1,0,0:0:0:0:
320,192,13868,1,0,0:0:0:0:
448,192,13958,1,0,0:0:0:0:
64,192,14048,1,0,0:0:0:0:
192,192,14048,1,0,0:0:0:0:
320,192,14227,1,0,0:0:0:0:
448,192,14407,1,0,0:0:0:0:
192,192,14407,1,0,0:0:0:0:
320,192,14587,1,0,0:0:0:0:
448,192,14587,1,0,0:0:0:0:
64,192,14587,1,0,0:0:0:0:
192,192,14766,1,0,0:0:0:0:
64,192,14766,1,0,0:0:0:0:
320,192,14946,1,0,0:0:0:0:
448,192,14946,1,0,0:0:0:0:
192,192,15126,1,0,0:0:0:0:
448,192,15126,1,0,0:0:0:0:
64,192,15305,1,0,0:0:0:0:
320,192,15305,1,0,0:0:0:0:
192,192,15485,1,0,0:0:0:0:
320,192,15665,1,0,0:0:0:0:
448,192,15665,1,0,0:0:0:0:
64,192,15844,1,0,0:0:0:0:
192,192,15844,1,0,0:0:0:0:
448,192,15934,1,0,0:0:0:0:
320,192,16024,1,0,0:0:0:0:
64,192,16204,1,0,0:0:0:0:
448,192,16204,1,0,0:0:0:0:
320,192,16293,1,0,0:0:0:0:
192,192,16383,1,0,0:0:0:0:
448,192,16563,1,0,0:0:0:0:
320,192,16563,1,0,0:0:0:0:
64,192,16653,1,0,0:0:0:0:
192,192,16742,1,0,0:0:0:0:
320,192,16832,1,0,0:0:0:0:
64,192,16922,1,0,0:0:0:0:
448,192,16922,1,0,0:0:0:0:
320,192,17102,1,0,0:0:0:0:
448,192,17102,1,0,0:0:0:0:
64,192,17281,1,0,0:0:0:0:
192,192,17461,1,0,0:0:0:0:
320,192,17461,1,0,0:0:0:0:
448,192,17641,1,0,0:0:0:0:
320,192,17820,1,0,0:0:0:0:
448,192,17820,1,0,0:0:0:0:
64,192,17820,1,0,0:0:0:0:
192,192,18000,1,0,0:0:0:0:
320,192,18090,1,0,0:0:0:0:
448,192,18180,1,0,0:0:0:0:
64,192,18180,1,0,0:0:0:0:
192,192,18269,1,0,0:0:0:0:
320,192,18359,1,0,0:0:0:0:
448,192,18359,1,0,0:0:0:0:
320,192,18539,1,0,0:0:0:0:
192,192,18539,1,0,0:0:0:0:
64,192,18539,1,0,0:0:0:0:
64,192,18718,1,0,0:0:0:0:
192,192,18808,1,0,0:0:0:0:
320,192,18898,1,0,0:0:0:0:
448,192,18898,1,0,0:0:0:0:
192,192,19078,1,0,0:0:0:0:
64,192,19257,1,0,0:0:0:0:
320,192,19257,1,0,0:0:0:0:
448,192,19257,1,0,0:0:0:0:
192,192,19437,1,0,0:0:0:0:
64,192,19527,1,0,0:0:0:0:
320,192,19617,1,0,0:0:0:0:
448,192,19707,1,0,0:0:0:0:
192,192,19796,1,0,0:0:0:0:
64,192,19796,1,0,0:0:0:0:
320,192,19976,1,0,0:0:0:0:
448,192,19976,1,0,0:0:0:0:
192,192,19976,1,0,0:0:0:0:
64,192,20156,1,0,0:0:0:0:
64,192,20335,1,0,0:0:0:0:
192,192,20335,1,0,0:0:0:0:
448,192,20335,1,0,0:0:0:0:
320,192,20515,1,0,0:0:0:0:
192,192,20605,1,0,0:0:0:0:
64,192,20695,1,0,0:0:0:0:
448,192,20695,1,0,0:0:0:0:
320,192,20695,1,0,0:0:0:0:
192,192,20874,1,0,0:0:0:0:
320,192,20964,1,0,0:0:0:0:
448,192,21054,1,0,0:0:0:0:
192,192,21144,1,0,0:0:0:0:
320,192,21233,1,0,0:0:0:0:
448,192,21233,1,0,0:0:0:0:
320,192,21413,1,0,0:0:0:0:
192,192,21413,1,0,0:0:0:0:
64,192,21413,1,0,0:0:0:0:
64,192,21593,1,0,0:0:0:0:
448,192,21593,1,0,0:0:0:0:
192,192,21772,1,0,0:0:0:0:
320,192,21772,1,0,0:0:0:0:
448,192,21772,1,0,0:0:0:0:
64,192,21952,128,0,22132:0:0:0:0:
192,192,22132,1,0,0:0:0:0:
448,192,22311,128,0,22491:0:0:0:0:
320,192,22491,1,0,0:0:0:0:
448,192,22671,1,0,0:0:0:0:
64,192,22671,128,0,22850:0:0:0:0:
320,192,22850,1,0,0:0:0:0:
448,192,22850,1,0,0:0:0:0:
192,192,22850,128,0,23210:0:0:0:0:
448,192,23210,1,0,0:0:0:0:
320,192,23210,128,0,23569:0:0:0:0:
64,192,23210,1,0,0:0:0:0:
64,192,23569,1,0,0:0:0:0:
192,192,23569,1,0,0:0:0:0:
448,192,23569,1,0,0:0:0:0:
192,192,23748,128,0,23928:0:0:0:0:
320,192,23748,1,0,0:0:0:0:
448,192,23928,1,0,0:0:0:0:
320,192,24108,1,0,0:0:0:0:
64,192,24108,1,0,0:0:0:0:
192,192,24287,1,0,0:0:0:0:
448,192,24287,1,0,0:0:0:0:
64,192,24287,128,0,24647:0:0:0:0:
448,192,24467,1,0,0:0:0:0:
320,192,24647,1,0,0:0:0:0:
192,192,24647,1,0,0:0:0:0:
448,192,24826,128,0,25186:0:0:0:0:
64,192,24826,1,0,0:0:0:0:
64,192,25006,1,0,0:0:0:0:
192,192,25006,1,0,0:0:0:0:
320,192,25006,1,0,0:0:0:0:
64,192,25186,1,0,0:0:0:0:
192,192,25186,128,0,25365:0:0:0:0:
448,192,25365,1,0,0:0:0:0:
320,192,25365,128,0,25545:0:0:0:0:
64,192,25545,128,0,25724:0:0:0:0:
192,192,25545,1,0,0:0:0:0:
320,192,25724,1,0,0:0:0:0:
448,192,25724,128,0,25904:0:0:0:0:
64,192,25904,1,0,0:0:0:0:
192,192,25904,128,0,26084:0:0:0:0:
448,192,26084,1,0,0:0:0:0:
320,192,26084,128,0,26443:0:0:0:0:
64,192,26443,1,0,0:0:0:0:
192,192,26443,1,0,0:0:0:0:
448,192,26443,1,0,0:0:0:0:
320,192,26623,1,0,0:0:0:0:
192,192,26623,128,0,26802:0:0:0:0:
448,192,26802,1,0,0:0:0:0:
320,192,26982,1,0,0:0:0:0:
64,192,26982,1,0,0:0:0:0:
192,192,27162,1,0,0:0:0:0:
64,192,27162,128,0,27521:0:0:0:0:
448,192,27162,1,0,0:0:0:0:
448,192,27341,1,0,0:0:0:0:
192,192,27521,1,0,0:0:0:0:
320,192,27521,1,0,0:0:0:0:
448,192,27701,128,0,28060:0:0:0:0:
64,192,27701,1,0,0:0:0:0:
320,192,27880,1,0,0:0:0:0:
192,192,27880,1,0,0:0:0:0:
64,192,27880,1,0,0:0:0:0:
64,192,28060,128,0,28239:0:0:0:0:
192,192,28060,1,0,0:0:0:0:
320,192,28239,1,0,0:0:0:0:
448,192,28239,128,0,28419:0:0:0:0:
64,192,28419,1,0,0:0:0:0:
192,192,28419,128,0,28599:0:0:0:0:
448,192,28599,1,0,0:0:0:0:
320,192,28599,128,0,28778:0:0:0:0:
192,192,28778,1,0,0:0:0:0:
64,192,28778,128,0,28958:0:0:0:0:
320,192,28958,1,0,0:0:0:0:
448,192,28958,128,0,29317:0:0:0:0:
64,192,29317,1,0,0:0:0:0:
192,192,29317,1,0,0:0:0:0:
320,192,29317,1,0,0:0:0:0:
64,192,29497,128,0,29677:0:0:0:0:
448,192,29497,1,0,0:0:0:0:
320,192,29677,1,0,0:0:0:0:
192,192,29856,1,0,0:0:0:0:
448,192,29856,1,0,0:0:0:0:
64,192,30036,1,0,0:0:0:0:
320,192,30036,1,0,0:0:0:0:
448,192,30036,128,0,30395:0:0:0:0:
192,192,30215,1,0,0:0:0:0:
320,192,30395,1,0,0:0:0:0:
64,192,30395,1,0,0:0:0:0:
192,192,30575,1,0,0:0:0:0:
448,192,30754,1,0,0:0:0:0:
64,192,30754,128,0,31114:0:0:0:0:
320,192,30754,1,0,0:0:0:0:
448,192,30934,1,0,0:0:0:0:
320,192,31114,128,0,31473:0:0:0:0:
192,192,31114,1,0,0:0:0:0:
64,192,31293,1,0,0:0:0:0:
448,192,31293,1,0,0:0:0:0:
448,192,31473,128,0,31832:0:0:0:0:
192,192,31473,1,0,0:0:0:0:
64,192,31473,1,0,0:0:0:0:
320,192,31653,1,0,0:0:0:0:
64,192,31832,1,0,0:0:0:0:
192,192,31832,128,0,32012:0:0:0:0:
64,192,32012,128,0,32192:0:0:0:0:
448,192,32012,1,0,0:0:0:0:
448,192,32192,1,0,0:0:0:0:
320,192,32192,1,0,0:0:0:0:
192,192,32192,128,0,32371:0:0:0:0:
320,192,32371,128,0,32551:0:0:0:0:
64,192,32371,1,0,0:0:0:0:
192,192,32551,1,0,0:0:0:0:
448,192,32551,128,0,32730:0:0:0:0:
320,192,32730,128,0,32910:0:0:0:0:
64,192,32730,1,0,0:0:0:0:
64,192,32910,1,0,0:0:0:0:
448,192,32910,1,0,0:0:0:0:
192,192,32910,128,0,33090:0:0:0:0:
320,192,33090,128,0,33269:0:0:0:0:
448,192,33090,1,0,0:0:0:0:
192,192,33269,1,0,0:0:0:0:
64,192,33269,1,0,0:0:0:0:
64,192,33449,128,0,33629:0:0:0:0:
448,192,33449,1,0,0:0:0:0:
192,192,33629,128,0,33808:0:0:0:0:
320,192,33629,1,0,0:0:0:0:
448,192,33629,1,0,0:0:0:0:
320,192,33808,128,0,33988:0:0:0:0:
64,192,33808,1,0,0:0:0:0:
192,192,33988,128,0,34168:0:0:0:0:
448,192,33988,1,0,0:0:0:0:
320,192,34168,128,0,34347:0:0:0:0:
64,192,34168,1,0,0:0:0:0:
192,192,34347,1,0,0:0:0:0:
64,192,34347,1,0,0:0:0:0:
448,192,34347,128,0,34527:0:0:0:0:
320,192,34527,1,0,0:0:0:0:
192,192,34617,1,0,0:0:0:0:
320,192,34707,1,0,0:0:0:0:
448,192,34707,1,0,0:0:0:0:
64,192,34707,128,0,36862:0:0:0:0:
192,192,35066,1,0,0:0:0:0:
320,192,35066,1,0,0:0:0:0:
448,192,35066,1,0,0:0:0:0:
448,192,35245,1,0,0:0:0:0:
320,192,35425,1,0,0:0:0:0:
192,192,35605,1,0,0:0:0:0:
448,192,35605,1,0,0:0:0:0:
320,192,35784,1,0,0:0:0:0:
448,192,35784,1,0,0:0:0:0:
192,192,35784,1,0,0:0:0:0:
448,192,36144,1,0,0:0:0:0:
320,192,36144,1,0,0:0:0:0:
192,192,36323,1,0,0:0:0:0:
192,192,36503,1,0,0:0:0:0:
448,192,36503,1,0,0:0:0:0:
320,192,36503,1,0,0:0:0:0:
448,192,36683,1,0,0:0:0:0:
320,192,36862,128,0,37581:0:0:0:0:
192,192,36862,1,0,0:0:0:0:
64,192,37042,1,0,0:0:0:0:
448,192,37042,1,0,0:0:0:0:
64,192,37221,1,0,0:0:0:0:
192,192,37221,1,0,0:0:0:0:
448,192,37221,1,0,0:0:0:0:
192,192,37401,1,0,0:0:0:0:
448,192,37581,128,0,39736:0:0:0:0:
64,192,37581,1,0,0:0:0:0:
64,192,37940,1,0,0:0:0:0:
192,192,37940,1,0,0:0:0:0:
320,192,37940,1,0,0:0:0:0:
320,192,38120,1,0,0:0:0:0:
64,192,38299,1,0,0:0:0:0:
192,192,38479,1,0,0:0:0:0:
320,192,38479,1,0,0:0:0:0:
320,192,38659,1,0,0:0:0:0:
192,192,38659,1,0,0:0:0:0:
64,192,38659,1,0,0:0:0:0:
320,192,39018,1,0,0:0:0:0:
192,192,39018,1,0,0:0:0:0:
64,192,39198,1,0,0:0:0:0:
64,192,39377,1,0,0:0:0:0:
192,192,39377,1,0,0:0:0:0:
320,192,39377,1,0,0:0:0:0:
320,192,39557,1,0,0:0:0:0:
192,192,39736,128,0,40455:0:0:0:0:
64,192,39736,1,0,0:0:0:0:
320,192,39916,1,0,0:0:0:0:
448,192,39916,1,0,0:0:0:0:
448,192,40096,1,0,0:0:0:0:
320,192,40096,1,0,0:0:0:0:
64,192,40096,1,0,0:0:0:0:
320,192,40275,1,0,0:0:0:0:
64,192,40455,128,0,42251:0:0:0:0:
448,192,40455,1,0,0:0:0:0:
192,192,40814,1,0,0:0:0:0:
320,192,40814,1,0,0:0:0:0:
448,192,40814,1,0,0:0:0:0:
448,192,40994,1,0,0:0:0:0:
192,192,41174,1,0,0:0:0:0:
320,192,41353,1,0,0:0:0:0:
448,192,41353,1,0,0:0:0:0:
192,192,41533,1,0,0:0:0:0:
320,192,41533,1,0,0:0:0:0:
448,192,41533,1,0,0:0:0:0:
192,192,41892,1,0,0:0:0:0:
320,192,41892,1,0,0:0:0:0:
192,192,42251,1,0,0:0:0:0:
320,192,42251,1,0,0:0:0:0:
448,192,42251,128,0,42611:0:0:0:0:
64,192,42431,1,0,0:0:0:0:
64,192,42611,128,0,42970:0:0:0:0:
192,192,42611,1,0,0:0:0:0:
448,192,42790,1,0,0:0:0:0:
320,192,42790,1,0,0:0:0:0:
320,192,42970,128,0,43329:0:0:0:0:
448,192,42970,1,0,0:0:0:0:
192,192,42970,1,0,0:0:0:0:
64,192,43150,1,0,0:0:0:0:
192,192,43329,128,0,43868:0:0:0:0:
448,192,43329,1,0,0:0:0:0:
64,192,43689,1,0,0:0:0:0:
320,192,43689,1,0,0:0:0:0:
448,192,43689,1,0,0:0:0:0:
448,192,43868,128,0,44407:0:0:0:0:
320,192,43868,1,0,0:0:0:0:
64,192,44048,1,0,0:0:0:0:
192,192,44227,1,0,0:0:0:0:
320,192,44227,1,0,0:0:0:0:
320,192,44407,128,0,44946:0:0:0:0:
192,192,44407,1,0,0:0:0:0:
64,192,44407,1,0,0:0:0:0:
64,192,44766,1,0,0:0:0:0:
192,192,44766,1,0,0:0:0:0:
64,192,44946,128,0,45485:0:0:0:0:
448,192,44946,1,0,0:0:0:0:
192,192,45126,1,0,0:0:0:0:
320,192,45126,1,0,0:0:0:0:
448,192,45126,1,0,0:0:0:0:
320,192,45305,1,0,0:0:0:0:
448,192,45485,128,0,45844:0:0:0:0:
192,192,45485,1,0,0:0:0:0:
320,192,45665,1,0,0:0:0:0:
64,192,45665,1,0,0:0:0:0:
192,192,45844,128,0,46204:0:0:0:0:
64,192,45844,1,0,0:0:0:0:
320,192,45844,1,0,0:0:0:0:
64,192,46204,1,0,0:0:0:0:
448,192,46204,1,0,0:0:0:0:
320,192,46204,128,0,46563:0:0:0:0:
64,192,46563,1,0,0:0:0:0:
192,192,46563,1,0,0:0:0:0:
448,192,46563,1,0,0:0:0:0:
192,192,46742,128,0,46922:0:0:0:0:
320,192,46742,1,0,0:0:0:0:
448,192,46922,1,0,0:0:0:0:
64,192,47102,1,0,0:0:0:0:
320,192,47102,128,0,47281:0:0:0:0:
192,192,47281,1,0,0:0:0:0:
64,192,47281,1,0,0:0:0:0:
448,192,47281,128,0,47641:0:0:0:0:
320,192,47641,1,0,0:0:0:0:
192,192,47641,1,0,0:0:0:0:
64,192,47820,1,0,0:0:0:0:
192,192,48000,1,0,0:0:0:0:
320,192,48000,1,0,0:0:0:0:
448,192,48000,1,0,0:0:0:0:
448,192,48180,1,0,0:0:0:0:
64,192,48180,128,0,48359:0:0:0:0:
448,192,48359,1,0,0:0:0:0:
192,192,48359,128,0,48539:0:0:0:0:
320,192,48539,128,0,48718:0:0:0:0:
64,192,48539,1,0,0:0:0:0:
64,192,48718,1,0,0:0:0:0:
192,192,48718,128,0,48898:0:0:0:0:
448,192,48718,1,0,0:0:0:0:
320,192,48898,128,0,49078:0:0:0:0:
64,192,49078,1,0,0:0:0:0:
448,192,49078,128,0,49437:0:0:0:0:
192,192,49437,1,0,0:0:0:0:
320,192,49437,1,0,0:0:0:0:
64,192,49437,1,0,0:0:0:0:
320,192,49617,128,0,49796:0:0:0:0:
192,192,49617,1,0,0:0:0:0:
448,192,49796,1,0,0:0:0:0:
320,192,49976,1,0,0:0:0:0:
64,192,49976,1,0,0:0:0:0:
192,192,50156,1,0,0:0:0:0:
64,192,50156,1,0,0:0:0:0:
448,192,50156,1,0,0:0:0:0:
192,192,50335,1,0,0:0:0:0:
320,192,50515,1,0,0:0:0:0:
448,192,50515,1,0,0:0:0:0:
64,192,50695,1,0,0:0:0:0:
192,192,50874,1,0,0:0:0:0:
320,192,50874,1,0,0:0:0:0:
448,192,50874,1,0,0:0:0:0:
448,192,51054,1,0,0:0:0:0:
320,192,51054,128,0,51233:0:0:0:0:
192,192,51233,128,0,51593:0:0:0:0:
64,192,51233,1,0,0:0:0:0:
320,192,51413,1,0,0:0:0:0:
448,192,51413,1,0,0:0:0:0:
64,192,51593,1,0,0:0:0:0:
448,192,51593,1,0,0:0:0:0:
320,192,51593,128,0,51952:0:0:0:0:
448,192,51952,128,0,52311:0:0:0:0:
64,192,51952,1,0,0:0:0:0:
320,192,52311,1,0,0:0:0:0:
64,192,52311,128,0,52401:0:0:0:0:
192,192,52311,128,0,52401:0:0:0:0:
64,192,52491,128,0,52671:0:0:0:0:
192,192,52491,128,0,52671:0:0:0:0:
320,192,52671,1,0,0:0:0:0:
448,192,52850,128,0,53210:0:0:0:0:
192,192,52850,1,0,0:0:0:0:
64,192,53030,1,0,0:0:0:0:
192,192,53030,1,0,0:0:0:0:
320,192,53030,1,0,0:0:0:0:
64,192,53210,128,0,53569:0:0:0:0:
320,192,53210,1,0,0:0:0:0:
448,192,53389,1,0,0:0:0:0:
192,192,53389,1,0,0:0:0:0:
320,192,53569,1,0,0:0:0:0:
192,192,53569,1,0,0:0:0:0:
64,192,53748,1,0,0:0:0:0:
320,192,53748,128,0,54108:0:0:0:0:
448,192,53748,1,0,0:0:0:0:
192,192,53928,1,0,0:0:0:0:
448,192,54108,1,0,0:0:0:0:
64,192,54108,128,0,54467:0:0:0:0:
320,192,54287,1,0,0:0:0:0:
192,192,54287,1,0,0:0:0:0:
192,192,54467,1,0,0:0:0:0:
320,192,54467,1,0,0:0:0:0:
448,192,54467,128,0,54647:0:0:0:0:
64,192,54647,1,0,0:0:0:0:
192,192,54826,1,0,0:0:0:0:
320,192,54826,128,0,55365:0:0:0:0:
64,192,55186,1,0,0:0:0:0:
192,192,55186,1,0,0:0:0:0:
448,192,55186,1,0,0:0:0:0:
64,192,55365,128,0,55904:0:0:0:0:
192,192,55365,1,0,0:0:0:0:
448,192,55545,1,0,0:0:0:0:
192,192,55724,1,0,0:0:0:0:
320,192,55724,1,0,0:0:0:0:
192,192,55904,1,0,0:0:0:0:
320,192,55904,1,0,0:0:0:0:
448,192,55904,128,0,56443:0:0:0:0:
64,192,56084,1,0,0:0:0:0:
192,192,56263,1,0,0:0:0:0:
320,192,56263,1,0,0:0:0:0:
192,192,56443,128,0,56982:0:0:0:0:
64,192,56443,1,0,0:0:0:0:
320,192,56623,1,0,0:0:0:0:
448,192,56623,1,0,0:0:0:0:
448,192,56802,128,0,56982:0:0:0:0:
320,192,56802,128,0,56982:0:0:0:0:
64,192,56982,1,0,0:0:0:0:
448,192,57162,128,0,57341:0:0:0:0:
64,192,57162,128,0,57341:0:0:0:0:
320,192,57341,128,0,57521:0:0:0:0:
192,192,57341,1,0,0:0:0:0:
192,192,57521,128,0,57701:0:0:0:0:
448,192,57521,1,0,0:0:0:0:
448,192,57701,1,0,0:0:0:0:
64,192,57701,128,0,59856:0:0:0:0:
320,192,57701,1,0,0:0:0:0:
192,192,58060,1,0,0:0:0:0:
320,192,58060,1,0,0:0:0:0:
448,192,58060,1,0,0:0:0:0:
192,192,58239,1,0,0:0:0:0:
448,192,58329,1,0,0:0:0:0:
320,192,58419,1,0,0:0:0:0:
192,192,58509,1,0,0:0:0:0:
320,192,58599,1,0,0:0:0:0:
448,192,58599,1,0,0:0:0:0:
192,192,58778,1,0,0:0:0:0:
320,192,58778,1,0,0:0:0:0:
448,192,58778,1,0,0:0:0:0:
448,192,59138,1,0,0:0:0:0:
320,192,59138,1,0,0:0:0:0:
192,192,59317,1,0,0:0:0:0:
192,192,59497,1,0,0:0:0:0:
320,192,59497,1,0,0:0:0:0:
448,192,59497,1,0,0:0:0:0:
448,192,59677,1,0,0:0:0:0:
320,192,59766,1,0,0:0:0:0:
448,192,59856,128,0,60575:0:0:0:0:
192,192,59856,1,0,0:0:0:0:
320,192,59946,1,0,0:0:0:0:
192,192,60036,1,0,0:0:0:0:
64,192,60036,1,0,0:0:0:0:
192,192,60215,1,0,0:0:0:0:
320,192,60215,1,0,0:0:0:0:
64,192,60215,1,0,0:0:0:0:
320,192,60395,1,0,0:0:0:0:
320,192,60575,128,0,62730:0:0:0:0:
64,192,60575,1,0,0:0:0:0:
64,192,60934,1,0,0:0:0:0:
192,192,60934,1,0,0:0:0:0:
448,192,60934,1,0,0:0:0:0:
192,192,61114,1,0,0:0:0:0:
448,192,61204,1,0,0:0:0:0:
64,192,61293,1,0,0:0:0:0:
192,192,61383,1,0,0:0:0:0:
448,192,61473,1,0,0:0:0:0:
64,192,61473,1,0,0:0:0:0:
448,192,61653,1,0,0:0:0:0:
192,192,61653,1,0,0:0:0:0:
64,192,61653,1,0,0:0:0:0:
448,192,62012,1,0,0:0:0:0:
64,192,62012,1,0,0:0:0:0:
192,192,62192,1,0,0:0:0:0:
64,192,62371,1,0,0:0:0:0:
192,192,62371,1,0,0:0:0:0:
448,192,62371,1,0,0:0:0:0:
448,192,62551,1,0,0:0:0:0:
64,192,62641,1,0,0:0:0:0:
192,192,62730,128,0,63449:0:0:0:0:
448,192,62730,1,0,0:0:0:0:
320,192,62820,1,0,0:0:0:0:
64,192,62910,1,0,0:0:0:0:
448,192,62910,1,0,0:0:0:0:
320,192,63090,1,0,0:0:0:0:
448,192,63090,1,0,0:0:0:0:
64,192,63090,1,0,0:0:0:0:
320,192,63269,1,0,0:0:0:0:
64,192,63449,128,0,65245:0:0:0:0:
448,192,63449,1,0,0:0:0:0:
192,192,63808,1,0,0:0:0:0:
320,192,63808,1,0,0:0:0:0:
448,192,63808,1,0,0:0:0:0:
320,192,63988,1,0,0:0:0:0:
192,192,64078,1,0,0:0:0:0:
448,192,64168,1,0,0:0:0:0:
320,192,64257,1,0,0:0:0:0:
448,192,64347,1,0,0:0:0:0:
192,192,64347,1,0,0:0:0:0:
448,192,64527,1,0,0:0:0:0:
320,192,64527,1,0,0:0:0:0:
192,192,64527,1,0,0:0:0:0:
448,192,64886,1,0,0:0:0:0:
320,192,64886,1,0,0:0:0:0:
192,192,65066,1,0,0:0:0:0:
320,192,65156,1,0,0:0:0:0:
192,192,65245,1,0,0:0:0:0:
448,192,65245,128,0,65605:0:0:0:0:
64,192,65425,1,0,0:0:0:0:
192,192,65515,1,0,0:0:0:0:
320,192,65605,128,0,65964:0:0:0:0:
64,192,65605,1,0,0:0:0:0:
192,192,65695,1,0,0:0:0:0:
64,192,65784,1,0,0:0:0:0:
448,192,65784,1,0,0:0:0:0:
192,192,65964,128,0,66323:0:0:0:0:
64,192,65964,1,0,0:0:0:0:
448,192,65964,1,0,0:0:0:0:
320,192,66144,1,0,0:0:0:0:
320,192,66323,1,0,0:0:0:0:
448,192,66323,1,0,0:0:0:0:
64,192,66323,128,0,66862:0:0:0:0:
192,192,66683,1,0,0:0:0:0:
320,192,66683,1,0,0:0:0:0:
448,192,66683,1,0,0:0:0:0:
448,192,66862,128,0,67401:0:0:0:0:
192,192,66862,1,0,0:0:0:0:
320,192,66952,1,0,0:0:0:0:
64,192,67042,1,0,0:0:0:0:
192,192,67132,1,0,0:0:0:0:
320,192,67221,1,0,0:0:0:0:
64,192,67221,1,0,0:0:0:0:
320,192,67401,1,0,0:0:0:0:
192,192,67401,1,0,0:0:0:0:
64,192,67401,128,0,67940:0:0:0:0:
192,192,67760,1,0,0:0:0:0:
320,192,67760,1,0,0:0:0:0:
448,192,67760,1,0,0:0:0:0:
192,192,67940,1,0,0:0:0:0:
448,192,67940,128,0,68299:0:0:0:0:
320,192,68120,1,0,0:0:0:0:
192,192,68120,1,0,0:0:0:0:
64,192,68120,1,0,0:0:0:0:
64,192,68299,1,0,0:0:0:0:
320,192,68299,1,0,0:0:0:0:
192,192,68389,1,0,0:0:0:0:
320,192,68479,1,0,0:0:0:0:
448,192,68479,1,0,0:0:0:0:
64,192,68479,1,0,0:0:0:0:
192,192,68659,1,0,0:0:0:0:
448,192,68659,1,0,0:0:0:0:
320,192,68748,1,0,0:0:0:0:
448,192,68838,1,0,0:0:0:0:
192,192,68838,1,0,0:0:0:0:
64,192,68838,1,0,0:0:0:0:
320,192,69018,1,0,0:0:0:0:
64,192,69018,1,0,0:0:0:0:
192,192,69108,1,0,0:0:0:0:
64,192,69198,1,0,0:0:0:0:
448,192,69198,1,0,0:0:0:0:
320,192,69198,128,0,69557:0:0:0:0:
64,192,69557,1,0,0:0:0:0:
192,192,69557,1,0,0:0:0:0:
448,192,69557,1,0,0:0:0:0:
320,192,69736,1,0,0:0:0:0:
64,192,69736,128,0,70096:0:0:0:0:
192,192,69826,1,0,0:0:0:0:
448,192,69916,1,0,0:0:0:0:
320,192,70006,1,0,0:0:0:0:
192,192,70096,1,0,0:0:0:0:
448,192,70096,1,0,0:0:0:0:
64,192,70275,1,0,0:0:0:0:
320,192,70275,1,0,0:0:0:0:
448,192,70275,128,0,70635:0:0:0:0:
64,192,70455,1,0,0:0:0:0:
192,192,70635,1,0,0:0:0:0:
320,192,70635,1,0,0:0:0:0:
448,192,70814,1,0,0:0:0:0:
64,192,70814,128,0,71174:0:0:0:0:
192,192,70994,1,0,0:0:0:0:
320,192,70994,1,0,0:0:0:0:
448,192,70994,1,0,0:0:0:0:
192,192,71174,1,0,0:0:0:0:
320,192,71263,1,0,0:0:0:0:
64,192,71353,1,0,0:0:0:0:
448,192,71353,128,0,71533:0:0:0:0:
192,192,71443,1,0,0:0:0:0:
320,192,71533,128,0,71713:0:0:0:0:
64,192,71533,1,0,0:0:0:0:
192,192,71713,128,0,71892:0:0:0:0:
448,192,71713,1,0,0:0:0:0:
320,192,71892,128,0,72072:0:0:0:0:
64,192,71892,1,0,0:0:0:0:
192,192,72072,1,0,0:0:0:0:
448,192,72072,128,0,72431:0:0:0:0:
320,192,72251,1,0,0:0:0:0:
320,192,72431,1,0,0:0:0:0:
192,192,72431,1,0,0:0:0:0:
64,192,72431,1,0,0:0:0:0:
64,192,72611,128,0,72970:0:0:0:0:
448,192,72611,1,0,0:0:0:0:
320,192,72701,1,0,0:0:0:0:
192,192,72790,1,0,0:0:0:0:
448,192,72880,1,0,0:0:0:0:
320,192,72970,1,0,0:0:0:0:
192,192,72970,1,0,0:0:0:0:
64,192,73150,1,0,0:0:0:0:
448,192,73150,1,0,0:0:0:0:
320,192,73150,128,0,73509:0:0:0:0:
192,192,73329,1,0,0:0:0:0:
64,192,73509,1,0,0:0:0:0:
448,192,73509,1,0,0:0:0:0:
192,192,73689,128,0,74048:0:0:0:0:
320,192,73689,1,0,0:0:0:0:
320,192,73868,1,0,0:0:0:0:
448,192,73868,1,0,0:0:0:0:
64,192,73868,1,0,0:0:0:0:
448,192,74048,1,0,0:0:0:0:
64,192,74138,1,0,0:0:0:0:
320,192,74227,128,0,74407:0:0:0:0:
192,192,74227,1,0,0:0:0:0:
448,192,74407,128,0,74587:0:0:0:0:
64,192,74407,1,0,0:0:0:0:
64,192,74587,1,0,0:0:0:0:
192,192,74587,1,0,0:0:0:0:
320,192,74587,128,0,74766:0:0:0:0:
192,192,74766,128,0,74946:0:0:0:0:
448,192,74766,1,0,0:0:0:0:
320,192,74946,1,0,0:0:0:0:
448,192,74946,1,0,0:0:0:0:
64,192,74946,128,0,75305:0:0:0:0:
192,192,75305,1,0,0:0:0:0:
320,192,75305,1,0,0:0:0:0:
448,192,75305,1,0,0:0:0:0:
64,192,75485,1,0,0:0:0:0:
448,192,75485,128,0,75844:0:0:0:0:
192,192,75575,1,0,0:0:0:0:
320,192,75665,1,0,0:0:0:0:
64,192,75754,1,0,0:0:0:0:
192,192,75844,1,0,0:0:0:0:
320,192,75844,1,0,0:0:0:0:
192,192,76024,1,0,0:0:0:0:
448,192,76024,1,0,0:0:0:0:
64,192,76024,128,0,76383:0:0:0:0:
320,192,76204,1,0,0:0:0:0:
192,192,76383,1,0,0:0:0:0:
448,192,76383,1,0,0:0:0:0:
320,192,76563,128,0,76922:0:0:0:0:
64,192,76563,1,0,0:0:0:0:
64,192,76742,1,0,0:0:0:0:
192,192,76742,1,0,0:0:0:0:
448,192,76742,1,0,0:0:0:0:
192,192,76922,1,0,0:0:0:0:
64,192,77012,1,0,0:0:0:0:
320,192,77102,1,0,0:0:0:0:
448,192,77102,128,0,77281:0:0:0:0:
64,192,77192,1,0,0:0:0:0:
192,192,77281,1,0,0:0:0:0:
320,192,77281,128,0,77461:0:0:0:0:
448,192,77461,1,0,0:0:0:0:
64,192,77461,1,0,0:0:0:0:
192,192,77461,128,0,77641:0:0:0:0:
320,192,77641,128,0,77820:0:0:0:0:
448,192,77641,1,0,0:0:0:0:
192,192,77820,1,0,0:0:0:0:
64,192,77820,128,0,78180:0:0:0:0:
192,192,78180,1,0,0:0:0:0:
320,192,78180,1,0,0:0:0:0:
448,192,78180,1,0,0:0:0:0:
320,192,78359,1,0,0:0:0:0:
448,192,78359,128,0,78718:0:0:0:0:
64,192,78449,1,0,0:0:0:0:
192,192,78539,1,0,0:0:0:0:
320,192,78629,1,0,0:0:0:0:
192,192,78718,1,0,0:0:0:0:
64,192,78718,1,0,0:0:0:0:
448,192,78898,1,0,0:0:0:0:
64,192,78898,1,0,0:0:0:0:
320,192,78898,128,0,79257:0:0:0:0:
192,192,79078,1,0,0:0:0:0:
64,192,79257,1,0,0:0:0:0:
448,192,79257,1,0,0:0:0:0:
320,192,79437,1,0,0:0:0:0:
192,192,79437,128,0,79796:0:0:0:0:
64,192,79617,1,0,0:0:0:0:
320,192,79617,1,0,0:0:0:0:
448,192,79617,1,0,0:0:0:0:
448,192,79796,1,0,0:0:0:0:
320,192,79886,1,0,0:0:0:0:
192,192,79976,1,0,0:0:0:0:
64,192,79976,128,0,80156:0:0:0:0:
448,192,80156,1,0,0:0:0:0:
320,192,80156,1,0,0:0:0:0:
192,192,80245,1,0,0:0:0:0:
64,192,80335,5,0,0:0:0:0:
448,192,80335,1,0,0:0:0:0:
320,192,80335,1,0,0:0:0:0:
192,192,80515,1,0,0:0:0:0:
320,192,80515,1,0,0:0:0:0:
448,192,80695,1,0,0:0:0:0:
64,192,80695,1,0,0:0:0:0:
192,192,80695,1,0,0:0:0:0:
320,192,80874,1,0,0:0:0:0:
448,192,81054,1,0,0:0:0:0:
64,192,81054,1,0,0:0:0:0:
192,192,81054,1,0,0:0:0:0:
320,192,81233,1,0,0:0:0:0:
192,192,81233,1,0,0:0:0:0:
448,192,81323,1,0,0:0:0:0:
320,192,81413,1,0,0:0:0:0:
64,192,81413,1,0,0:0:0:0:
192,192,81503,1,0,0:0:0:0:
448,192,81593,1,0,0:0:0:0:
320,192,81683,1,0,0:0:0:0:
448,192,81772,1,0,0:0:0:0:
192,192,81772,1,0,0:0:0:0:
64,192,81772,1,0,0:0:0:0:
64,192,81952,1,0,0:0:0:0:
192,192,82042,1,0,0:0:0:0:
320,192,82132,1,0,0:0:0:0:
448,192,82132,1,0,0:0:0:0:
64,192,82311,1,0,0:0:0:0:
448,192,82311,1,0,0:0:0:0:
192,192,82491,1,0,0:0:0:0:
320,192,82491,1,0,0:0:0:0:
64,192,82491,1,0,0:0:0:0:
448,192,82671,1,0,0:0:0:0:
320,192,82760,1,0,0:0:0:0:
64,192,82850,1,0,0:0:0:0:
192,192,82850,1,0,0:0:0:0:
320,192,82940,1,0,0:0:0:0:
448,192,83030,1,0,0:0:0:0:
64,192,83030,1,0,0:0:0:0:
192,192,83120,1,0,0:0:0:0:
448,192,83210,1,0,0:0:0:0:
320,192,83210,1,0,0:0:0:0:
192,192,83299,1,0,0:0:0:0:
448,192,83389,1,0,0:0:0:0:
64,192,83389,1,0,0:0:0:0:
320,192,83479,1,0,0:0:0:0:
64,192,83569,1,0,0:0:0:0:
192,192,83569,1,0,0:0:0:0:
320,192,83748,1,0,0:0:0:0:
192,192,83928,1,0,0:0:0:0:
64,192,83928,1,0,0:0:0:0:
448,192,83928,1,0,0:0:0:0:
320,192,84108,1,0,0:0:0:0:
192,192,84108,1,0,0:0:0:0:
448,192,84198,1,0,0:0:0:0:
64,192,84287,1,0,0:0:0:0:
320,192,84287,1,0,0:0:0:0:
192,192,84377,1,0,0:0:0:0:
448,192,84467,1,0,0:0:0:0:
320,192,84557,1,0,0:0:0:0:
448,192,84647,1,0,0:0:0:0:
192,192,84647,1,0,0:0:0:0:
64,192,84647,1,0,0:0:0:0:
64,192,84826,1,0,0:0:0:0:
192,192,84916,1,0,0:0:0:0:
448,192,85006,1,0,0:0:0:0:
320,192,85006,1,0,0:0:0:0:
320,192,85186,1,0,0:0:0:0:
192,192,85186,1,0,0:0:0:0:
448,192,85365,1,0,0:0:0:0:
64,192,85365,1,0,0:0:0:0:
192,192,85365,1,0,0:0:0:0:
320,192,85545,1,0,0:0:0:0:
192,192,85635,1,0,0:0:0:0:
320,192,85724,1,0,0:0:0:0:
448,192,85724,1,0,0:0:0:0:
64,192,85814,1,0,0:0:0:0:
448,192,85904,1,0,0:0:0:0:
192,192,85904,1,0,0:0:0:0:
320,192,85994,1,0,0:0:0:0:
64,192,86084,1,0,0:0:0:0:
192,192,86084,1,0,0:0:0:0:
448,192,86084,1,0,0:0:0:0:
320,192,86263,1,0,0:0:0:0:
192,192,86263,1,0,0:0:0:0:
320,192,86443,5,0,0:0:0:0:
448,192,86443,1,0,0:0:0:0:
64,192,86443,1,0,0:0:0:0:
192,192,86623,1,0,0:0:0:0:
320,192,86713,1,0,0:0:0:0:
192,192,86802,1,0,0:0:0:0:
64,192,86802,1,0,0:0:0:0:
448,192,86802,1,0,0:0:0:0:
320,192,86982,1,0,0:0:0:0:
192,192,87072,1,0,0:0:0:0:
320,192,87162,1,0,0:0:0:0:
64,192,87162,1,0,0:0:0:0:
448,192,87162,1,0,0:0:0:0:
192,192,87251,1,0,0:0:0:0:
64,192,87341,1,0,0:0:0:0:
448,192,87341,1,0,0:0:0:0:
320,192,87431,1,0,0:0:0:0:
448,192,87521,1,0,0:0:0:0:
64,192,87521,1,0,0:0:0:0:
192,192,87521,1,0,0:0:0:0:
192,192,87701,1,0,0:0:0:0:
320,192,87701,1,0,0:0:0:0:
64,192,87880,1,0,0:0:0:0:
448,192,87880,1,0,0:0:0:0:
320,192,87880,1,0,0:0:0:0:
192,192,88060,1,0,0:0:0:0:
320,192,88150,1,0,0:0:0:0:
448,192,88239,1,0,0:0:0:0:
64,192,88239,1,0,0:0:0:0:
192,192,88239,1,0,0:0:0:0:
320,192,88419,1,0,0:0:0:0:
448,192,88509,1,0,0:0:0:0:
192,192,88509,1,0,0:0:0:0:
64,192,88599,1,0,0:0:0:0:
320,192,88599,1,0,0:0:0:0:
192,192,88689,1,0,0:0:0:0:
320,192,88778,1,0,0:0:0:0:
448,192,88778,1,0,0:0:0:0:
192,192,88958,1,0,0:0:0:0:
64,192,88958,1,0,0:0:0:0:
448,192,88958,1,0,0:0:0:0:
320,192,89138,1,0,0:0:0:0:
192,192,89138,1,0,0:0:0:0:
320,192,89317,1,0,0:0:0:0:
448,192,89317,1,0,0:0:0:0:
64,192,89317,1,0,0:0:0:0:
192,192,89497,1,0,0:0:0:0:
448,192,89497,1,0,0:0:0:0:
64,192,89677,1,0,0:0:0:0:
320,192,89677,1,0,0:0:0:0:
448,192,89856,1,0,0:0:0:0:
64,192,89856,1,0,0:0:0:0:
192,192,89856,1,0,0:0:0:0:
320,192,90036,1,0,0:0:0:0:
448,192,90036,1,0,0:0:0:0:
320,192,90126,1,0,0:0:0:0:
448,192,90126,1,0,0:0:0:0:
64,192,90215,1,0,0:0:0:0:
192,192,90215,1,0,0:0:0:0:
448,192,90260,1,0,0:0:0:0:
320,192,90260,1,0,0:0:0:0:
192,192,90305,1,0,0:0:0:0:
64,192,90305,1,0,0:0:0:0:
320,192,90350,1,0,0:0:0:0:
448,192,90350,1,0,0:0:0:0:
64,192,90395,128,0,91114:0:0:0:0:
192,192,90395,1,0,0:0:0:0:
320,192,91114,1,0,0:0:0:0:
448,192,91114,1,0,0:0:0:0:
192,192,91293,1,0,0:0:0:0:
64,192,91383,1,0,0:0:0:0:
448,192,91473,1,0,0:0:0:0:
320,192,91473,1,0,0:0:0:0:
320,192,91563,1,0,0:0:0:0:
448,192,91563,1,0,0:0:0:0:
64,192,91653,1,0,0:0:0:0:
192,192,91653,1,0,0:0:0:0:
192,192,91742,1,0,0:0:0:0:
64,192,91742,1,0,0:0:0:0:
320,192,91832,1,0,0:0:0:0:
448,192,91832,128,0,92192:0:0:0:0:
320,192,92192,1,0,0:0:0:0:
192,192,92192,1,0,0:0:0:0:
64,192,92192,1,0,0:0:0:0:
448,192,92371,1,0,0:0:0:0:
192,192,92461,1,0,0:0:0:0:
320,192,92551,1,0,0:0:0:0:
64,192,92551,1,0,0:0:0:0:
448,192,92551,1,0,0:0:0:0:
192,192,92730,1,0,0:0:0:0:
320,192,92730,1,0,0:0:0:0:
448,192,92820,1,0,0:0:0:0:
64,192,92910,1,0,0:0:0:0:
192,192,93000,1,0,0:0:0:0:
448,192,93090,1,0,0:0:0:0:
320,192,93090,1,0,0:0:0:0:
192,192,93269,1,0,0:0:0:0:
64,192,93269,1,0,0:0:0:0:
320,192,93269,1,0,0:0:0:0:
192,192,93449,1,0,0:0:0:0:
448,192,93449,1,0,0:0:0:0:
64,192,93629,1,0,0:0:0:0:
320,192,93629,1,0,0:0:0:0:
448,192,93808,1,0,0:0:0:0:
192,192,93898,1,0,0:0:0:0:
320,192,93988,1,0,0:0:0:0:
448,192,93988,1,0,0:0:0:0:
64,192,93988,1,0,0:0:0:0:
192,192,94168,1,0,0:0:0:0:
320,192,94257,1,0,0:0:0:0:
64,192,94347,1,0,0:0:0:0:
448,192,94347,1,0,0:0:0:0:
192,192,94437,1,0,0:0:0:0:
320,192,94527,1,0,0:0:0:0:
448,192,94527,1,0,0:0:0:0:
192,192,94707,1,0,0:0:0:0:
64,192,94707,1,0,0:0:0:0:
320,192,94707,1,0,0:0:0:0:
448,192,94886,1,0,0:0:0:0:
192,192,94886,1,0,0:0:0:0:
320,192,95066,1,0,0:0:0:0:
64,192,95066,1,0,0:0:0:0:
448,192,95245,1,0,0:0:0:0:
192,192,95335,1,0,0:0:0:0:
448,192,95425,1,0,0:0:0:0:
320,192,95425,1,0,0:0:0:0:
64,192,95425,1,0,0:0:0:0:
192,192,95605,1,0,0:0:0:0:
320,192,95605,1,0,0:0:0:0:
448,192,95695,1,0,0:0:0:0:
64,192,95784,1,0,0:0:0:0:
192,192,95874,1,0,0:0:0:0:
448,192,95964,1,0,0:0:0:0:
320,192,95964,1,0,0:0:0:0:
192,192,96144,1,0,0:0:0:0:
64,192,96144,1,0,0:0:0:0:
448,192,96144,1,0,0:0:0:0:
320,192,96323,1,0,0:0:0:0:
192,192,96323,1,0,0:0:0:0:
448,192,96503,1,0,0:0:0:0:
64,192,96503,128,0,96683:0:0:0:0:
320,192,96683,128,0,96862:0:0:0:0:
64,192,96862,1,0,0:0:0:0:
448,192,96862,1,0,0:0:0:0:
192,192,96862,128,0,97042:0:0:0:0:
320,192,97042,128,0,97221:0:0:0:0:
64,192,97221,1,0,0:0:0:0:
448,192,97221,128,0,97581:0:0:0:0:
192,192,97401,1,0,0:0:0:0:
320,192,97401,1,0,0:0:0:0:
320,192,97581,1,0,0:0:0:0:
64,192,97581,128,0,97940:0:0:0:0:
192,192,97581,128,0,97940:0:0:0:0:
320,192,97940,1,0,0:0:0:0:
448,192,97940,1,0,0:0:0:0:
64,192,98120,1,0,0:0:0:0:
192,192,98210,1,0,0:0:0:0:
448,192,98210,1,0,0:0:0:0:
64,192,98299,1,0,0:0:0:0:
320,192,98299,1,0,0:0:0:0:
448,192,98479,128,0,98838:0:0:0:0:
192,192,98479,1,0,0:0:0:0:
320,192,98569,1,0,0:0:0:0:
64,192,98659,1,0,0:0:0:0:
192,192,98748,1,0,0:0:0:0:
64,192,98838,1,0,0:0:0:0:
320,192,98838,128,0,99018:0:0:0:0:
64,192,99018,1,0,0:0:0:0:
448,192,99018,1,0,0:0:0:0:
192,192,99018,128,0,99198:0:0:0:0:
320,192,99198,128,0,99377:0:0:0:0:
448,192,99198,1,0,0:0:0:0:
64,192,99377,128,0,99557:0:0:0:0:
192,192,99377,1,0,0:0:0:0:
448,192,99557,1,0,0:0:0:0:
320,192,99647,1,0,0:0:0:0:
448,192,99736,1,0,0:0:0:0:
192,192,99736,1,0,0:0:0:0:
64,192,99736,1,0,0:0:0:0:
320,192,99826,1,0,0:0:0:0:
448,192,99916,128,0,100275:0:0:0:0:
192,192,99916,1,0,0:0:0:0:
64,192,100006,1,0,0:0:0:0:
192,192,100096,1,0,0:0:0:0:
64,192,100275,1,0,0:0:0:0:
320,192,100275,1,0,0:0:0:0:
192,192,100455,1,0,0:0:0:0:
448,192,100455,1,0,0:0:0:0:
64,192,100455,1,0,0:0:0:0:
192,192,100635,1,0,0:0:0:0:
320,192,100635,1,0,0:0:0:0:
448,192,100814,1,0,0:0:0:0:
64,192,100814,128,0,101174:0:0:0:0:
320,192,100994,1,0,0:0:0:0:
448,192,101174,1,0,0:0:0:0:
192,192,101174,1,0,0:0:0:0:
320,192,101174,1,0,0:0:0:0:
448,192,101353,128,0,101713:0:0:0:0:
64,192,101353,1,0,0:0:0:0:
192,192,101533,1,0,0:0:0:0:
320,192,101713,1,0,0:0:0:0:
64,192,101713,1,0,0:0:0:0:
448,192,101892,1,0,0:0:0:0:
192,192,101892,1,0,0:0:0:0:
64,192,101892,128,0,102251:0:0:0:0:
448,192,102251,1,0,0:0:0:0:
320,192,102251,1,0,0:0:0:0:
192,192,102431,1,0,0:0:0:0:
64,192,102431,1,0,0:0:0:0:
320,192,102611,1,0,0:0:0:0:
64,192,102611,1,0,0:0:0:0:
448,192,102611,1,0,0:0:0:0:
192,192,102790,1,0,0:0:0:0:
64,192,102880,1,0,0:0:0:0:
320,192,102970,1,0,0:0:0:0:
448,192,102970,1,0,0:0:0:0:
448,192,103150,1,0,0:0:0:0:
64,192,103150,1,0,0:0:0:0:
320,192,103239,1,0,0:0:0:0:
192,192,103239,1,0,0:0:0:0:
64,192,103329,1,0,0:0:0:0:
448,192,103329,1,0,0:0:0:0:
192,192,103509,1,0,0:0:0:0:
320,192,103509,1,0,0:0:0:0:
192,192,103689,1,0,0:0:0:0:
448,192,103689,1,0,0:0:0:0:
64,192,103689,128,0,105844:0:0:0:0:
320,192,103958,1,0,0:0:0:0:
448,192,103958,1,0,0:0:0:0:
448,192,104048,1,0,0:0:0:0:
192,192,104048,1,0,0:0:0:0:
320,192,104048,1,0,0:0:0:0:
192,192,104227,1,0,0:0:0:0:
320,192,104317,1,0,0:0:0:0:
448,192,104407,1,0,0:0:0:0:
192,192,104497,1,0,0:0:0:0:
448,192,104587,1,0,0:0:0:0:
320,192,104587,1,0,0:0:0:0:
192,192,104766,1,0,0:0:0:0:
320,192,104766,1,0,0:0:0:0:
448,192,104766,1,0,0:0:0:0:
320,192,104946,1,0,0:0:0:0:
448,192,105126,1,0,0:0:0:0:
192,192,105126,1,0,0:0:0:0:
320,192,105305,1,0,0:0:0:0:
192,192,105395,1,0,0:0:0:0:
448,192,105485,1,0,0:0:0:0:
320,192,105485,1,0,0:0:0:0:
192,192,105665,1,0,0:0:0:0:
320,192,105754,1,0,0:0:0:0:
192,192,105844,128,0,106563:0:0:0:0:
448,192,105844,1,0,0:0:0:0:
320,192,105934,1,0,0:0:0:0:
448,192,106024,1,0,0:0:0:0:
320,192,106204,1,0,0:0:0:0:
448,192,106204,1,0,0:0:0:0:
64,192,106204,1,0,0:0:0:0:
320,192,106383,1,0,0:0:0:0:
448,192,106563,128,0,108718:0:0:0:0:
64,192,106563,1,0,0:0:0:0:
320,192,106742,1,0,0:0:0:0:
192,192,106832,1,0,0:0:0:0:
320,192,106922,1,0,0:0:0:0:
64,192,106922,1,0,0:0:0:0:
192,192,107102,1,0,0:0:0:0:
320,192,107192,1,0,0:0:0:0:
64,192,107281,1,0,0:0:0:0:
192,192,107371,1,0,0:0:0:0:
64,192,107461,1,0,0:0:0:0:
320,192,107461,1,0,0:0:0:0:
320,192,107641,1,0,0:0:0:0:
192,192,107641,1,0,0:0:0:0:
64,192,107641,1,0,0:0:0:0:
192,192,107820,1,0,0:0:0:0:
320,192,108000,1,0,0:0:0:0:
64,192,108000,128,0,108180:0:0:0:0:
192,192,108180,128,0,108359:0:0:0:0:
64,192,108359,1,0,0:0:0:0:
320,192,108359,128,0,108539:0:0:0:0:
192,192,108539,128,0,108718:0:0:0:0:
320,192,108718,1,0,0:0:0:0:
64,192,108718,128,0,109078:0:0:0:0:
448,192,108898,1,0,0:0:0:0:
192,192,108898,1,0,0:0:0:0:
192,192,109078,1,0,0:0:0:0:
448,192,109078,128,0,109437:0:0:0:0:
320,192,109078,128,0,109437:0:0:0:0:
64,192,109437,128,0,111593:0:0:0:0:
192,192,109437,1,0,0:0:0:0:
320,192,109617,1,0,0:0:0:0:
192,192,109707,1,0,0:0:0:0:
320,192,109796,1,0,0:0:0:0:
448,192,109796,1,0,0:0:0:0:
192,192,109976,1,0,0:0:0:0:
320,192,110066,1,0,0:0:0:0:
448,192,110156,1,0,0:0:0:0:
192,192,110245,1,0,0:0:0:0:
320,192,110335,1,0,0:0:0:0:
448,192,110335,1,0,0:0:0:0:
192,192,110515,1,0,0:0:0:0:
320,192,110515,1,0,0:0:0:0:
448,192,110515,1,0,0:0:0:0:
192,192,110695,1,0,0:0:0:0:
320,192,110874,1,0,0:0:0:0:
448,192,110874,1,0,0:0:0:0:
192,192,111054,1,0,0:0:0:0:
320,192,111144,1,0,0:0:0:0:
192,192,111233,1,0,0:0:0:0:
448,192,111233,1,0,0:0:0:0:
320,192,111323,1,0,0:0:0:0:
192,192,111413,1,0,0:0:0:0:
448,192,111593,128,0,112311:0:0:0:0:
320,192,111593,1,0,0:0:0:0:
64,192,111772,1,0,0:0:0:0:
192,192,111772,1,0,0:0:0:0:
64,192,111952,1,0,0:0:0:0:
192,192,111952,1,0,0:0:0:0:
320,192,111952,1,0,0:0:0:0:
320,192,112132,1,0,0:0:0:0:
192,192,112311,1,0,0:0:0:0:
320,192,112311,1,0,0:0:0:0:
64,192,112311,128,0,112671:0:0:0:0:
192,192,112671,1,0,0:0:0:0:
448,192,112671,1,0,0:0:0:0:
64,192,112850,1,0,0:0:0:0:
320,192,112850,1,0,0:0:0:0:
448,192,112850,128,0,113210:0:0:0:0:
64,192,113210,1,0,0:0:0:0:
192,192,113210,1,0,0:0:0:0:
320,192,113299,1,0,0:0:0:0:
192,192,113389,1,0,0:0:0:0:
64,192,113389,128,0,113748:0:0:0:0:
448,192,113389,1,0,0:0:0:0:
320,192,113569,1,0,0:0:0:0:
448,192,113569,1,0,0:0:0:0:
192,192,113748,1,0,0:0:0:0:
320,192,113928,1,0,0:0:0:0:
448,192,113928,1,0,0:0:0:0:
320,192,114018,1,0,0:0:0:0:
448,192,114018,1,0,0:0:0:0:
64,192,114108,1,0,0:0:0:0:
192,192,114108,1,0,0:0:0:0:
448,192,114287,1,0,0:0:0:0:
64,192,114287,1,0,0:0:0:0:
192,192,114467,1,0,0:0:0:0:
320,192,114467,1,0,0:0:0:0:
448,192,114647,1,0,0:0:0:0:
64,192,114647,1,0,0:0:0:0:
320,192,114692,1,0,0:0:0:0:
192,192,114736,1,0,0:0:0:0:
64,192,114781,1,0,0:0:0:0:
320,192,114826,1,0,0:0:0:0:
448,192,114826,1,0,0:0:0:0:
192,192,115006,1,0,0:0:0:0:
320,192,115006,1,0,0:0:0:0:
448,192,115186,1,0,0:0:0:0:
192,192,115186,1,0,0:0:0:0:
64,192,115186,128,0,117341:0:0:0:0:
320,192,115724,1,0,0:0:0:0:
448,192,116084,1,0,0:0:0:0:
192,192,116263,1,0,0:0:0:0:
320,192,116802,1,0,0:0:0:0:
192,192,117162,1,0,0:0:0:0:
448,192,117341,1,0,0:0:0:0:
320,192,117521,1,0,0:0:0:0:
192,192,117701,1,0,0:0:0:0:
320,192,117880,1,0,0:0:0:0:
64,192,118060,1,0,0:0:0:0:
448,192,118060,1,0,0:0:0:0:
192,192,118419,1,0,0:0:0:0:
320,192,118599,1,0,0:0:0:0:
448,192,118599,1,0,0:0:0:0:
64,192,118958,1,0,0:0:0:0:
448,192,118958,1,0,0:0:0:0:
448,192,119138,1,0,0:0:0:0:
192,192,119138,1,0,0:0:0:0:
320,192,119677,1,0,0:0:0:0:
64,192,119677,1,0,0:0:0:0:
192,192,119856,1,0,0:0:0:0:
448,192,120036,1,0,0:0:0:0:
320,192,120215,1,0,0:0:0:0:
64,192,120215,1,0,0:0:0:0:
192,192,120395,1,0,0:0:0:0:
320,192,120575,1,0,0:0:0:0:
448,192,120575,1,0,0:0:0:0:
192,192,120754,1,0,0:0:0:0:
64,192,120934,1,0,0:0:0:0:
320,192,120934,1,0,0:0:0:0:
448,192,120934,1,0,0:0:0:0:
192,192,121114,1,0,0:0:0:0:
320,192,121204,1,0,0:0:0:0:
448,192,121293,1,0,0:0:0:0:
192,192,121293,1,0,0:0:0:0:
64,192,121293,1,0,0:0:0:0:
320,192,121473,1,0,0:0:0:0:
64,192,121473,1,0,0:0:0:0:
448,192,121653,1,0,0:0:0:0:
192,192,121832,1,0,0:0:0:0:
320,192,121832,1,0,0:0:0:0:
192,192,122012,1,0,0:0:0:0:
64,192,122012,1,0,0:0:0:0:
448,192,122012,1,0,0:0:0:0:
320,192,122371,1,0,0:0:0:0:
64,192,122371,1,0,0:0:0:0:
448,192,122551,1,0,0:0:0:0:
320,192,122641,1,0,0:0:0:0:
64,192,122730,1,0,0:0:0:0:
192,192,122730,1,0,0:0:0:0:
448,192,122730,1,0,0:0:0:0:
320,192,122910,1,0,0:0:0:0:
192,192,123000,1,0,0:0:0:0:
64,192,123090,1,0,0:0:0:0:
320,192,123090,1,0,0:0:0:0:
192,192,123269,1,0,0:0:0:0:
448,192,123269,1,0,0:0:0:0:
320,192,123449,1,0,0:0:0:0:
448,192,123449,1,0,0:0:0:0:
64,192,123449,1,0,0:0:0:0:
192,192,123629,1,0,0:0:0:0:
320,192,123718,1,0,0:0:0:0:
64,192,123808,1,0,0:0:0:0:
448,192,123808,128,0,124347:0:0:0:0:
320,192,124168,1,0,0:0:0:0:
192,192,124168,1,0,0:0:0:0:
64,192,124168,1,0,0:0:0:0:
320,192,124347,128,0,124886:0:0:0:0:
64,192,124347,1,0,0:0:0:0:
192,192,124437,1,0,0:0:0:0:
448,192,124527,1,0,0:0:0:0:
64,192,124617,1,0,0:0:0:0:
192,192,124707,1,0,0:0:0:0:
448,192,124707,1,0,0:0:0:0:
192,192,124886,128,0,125425:0:0:0:0:
64,192,124886,1,0,0:0:0:0:
448,192,124886,1,0,0:0:0:0:
320,192,125066,1,0,0:0:0:0:
64,192,125156,1,0,0:0:0:0:
320,192,125245,1,0,0:0:0:0:
448,192,125245,1,0,0:0:0:0:
64,192,125425,128,0,125964:0:0:0:0:
448,192,125425,1,0,0:0:0:0:
448,192,125605,1,0,0:0:0:0:
320,192,125605,1,0,0:0:0:0:
192,192,125605,1,0,0:0:0:0:
320,192,125784,1,0,0:0:0:0:
192,192,125874,1,0,0:0:0:0:
448,192,125964,128,0,126323:0:0:0:0:
320,192,125964,1,0,0:0:0:0:
64,192,126144,1,0,0:0:0:0:
192,192,126144,1,0,0:0:0:0:
320,192,126323,128,0,126683:0:0:0:0:
64,192,126323,1,0,0:0:0:0:
192,192,126323,1,0,0:0:0:0:
192,192,126683,1,0,0:0:0:0:
448,192,126683,1,0,0:0:0:0:
64,192,126683,128,0,128838:0:0:0:0:
320,192,126862,1,0,0:0:0:0:
192,192,126952,1,0,0:0:0:0:
320,192,127042,1,0,0:0:0:0:
448,192,127042,1,0,0:0:0:0:
192,192,127221,1,0,0:0:0:0:
448,192,127311,1,0,0:0:0:0:
320,192,127401,1,0,0:0:0:0:
192,192,127491,1,0,0:0:0:0:
320,192,127581,1,0,0:0:0:0:
448,192,127581,1,0,0:0:0:0:
192,192,127760,1,0,0:0:0:0:
320,192,127760,1,0,0:0:0:0:
448,192,127760,1,0,0:0:0:0:
192,192,127940,1,0,0:0:0:0:
320,192,128120,1,0,0:0:0:0:
448,192,128120,1,0,0:0:0:0:
192,192,128299,1,0,0:0:0:0:
192,192,128479,1,0,0:0:0:0:
320,192,128479,1,0,0:0:0:0:
448,192,128479,1,0,0:0:0:0:
448,192,128659,1,0,0:0:0:0:
320,192,128748,1,0,0:0:0:0:
448,192,128838,128,0,129557:0:0:0:0:
192,192,128838,1,0,0:0:0:0:
320,192,128928,1,0,0:0:0:0:
192,192,129018,1,0,0:0:0:0:
64,192,129018,1,0,0:0:0:0:
320,192,129198,1,0,0:0:0:0:
192,192,129198,1,0,0:0:0:0:
64,192,129198,1,0,0:0:0:0:
64,192,129377,1,0,0:0:0:0:
320,192,129557,128,0,131713:0:0:0:0:
192,192,129557,1,0,0:0:0:0:
64,192,129736,1,0,0:0:0:0:
192,192,129826,1,0,0:0:0:0:
64,192,129916,1,0,0:0:0:0:
448,192,129916,1,0,0:0:0:0:
192,192,130096,1,0,0:0:0:0:
448,192,130186,1,0,0:0:0:0:
64,192,130275,1,0,0:0:0:0:
192,192,130365,1,0,0:0:0:0:
448,192,130455,1,0,0:0:0:0:
64,192,130455,1,0,0:0:0:0:
64,192,130635,1,0,0:0:0:0:
192,192,130635,1,0,0:0:0:0:
448,192,130635,1,0,0:0:0:0:
192,192,130814,1,0,0:0:0:0:
64,192,130994,1,0,0:0:0:0:
448,192,130994,1,0,0:0:0:0:
192,192,131174,1,0,0:0:0:0:
64,192,131353,1,0,0:0:0:0:
192,192,131353,1,0,0:0:0:0:
448,192,131353,1,0,0:0:0:0:
448,192,131533,1,0,0:0:0:0:
64,192,131623,1,0,0:0:0:0:
192,192,131713,128,0,132431:0:0:0:0:
448,192,131713,1,0,0:0:0:0:
320,192,131802,1,0,0:0:0:0:
64,192,131892,1,0,0:0:0:0:
448,192,131892,1,0,0:0:0:0:
320,192,132072,1,0,0:0:0:0:
448,192,132072,1,0,0:0:0:0:
64,192,132072,1,0,0:0:0:0:
320,192,132251,1,0,0:0:0:0:
64,192,132431,128,0,134227:0:0:0:0:
448,192,132431,1,0,0:0:0:0:
320,192,132611,1,0,0:0:0:0:
192,192,132701,1,0,0:0:0:0:
320,192,132790,1,0,0:0:0:0:
448,192,132790,1,0,0:0:0:0:
192,192,132970,1,0,0:0:0:0:
320,192,133060,1,0,0:0:0:0:
448,192,133150,1,0,0:0:0:0:
192,192,133239,1,0,0:0:0:0:
320,192,133329,1,0,0:0:0:0:
448,192,133329,1,0,0:0:0:0:
448,192,133509,1,0,0:0:0:0:
320,192,133509,1,0,0:0:0:0:
192,192,133509,1,0,0:0:0:0:
192,192,133689,1,0,0:0:0:0:
320,192,133868,1,0,0:0:0:0:
448,192,133868,1,0,0:0:0:0:
192,192,134048,1,0,0:0:0:0:
192,192,134227,1,0,0:0:0:0:
320,192,134227,1,0,0:0:0:0:
448,192,134227,128,0,134587:0:0:0:0:
64,192,134407,1,0,0:0:0:0:
192,192,134497,1,0,0:0:0:0:
320,192,134587,128,0,134946:0:0:0:0:
64,192,134587,1,0,0:0:0:0:
192,192,134677,1,0,0:0:0:0:
448,192,134766,1,0,0:0:0:0:
64,192,134766,1,0,0:0:0:0:
192,192,134946,128,0,135305:0:0:0:0:
64,192,134946,1,0,0:0:0:0:
448,192,134946,1,0,0:0:0:0:
320,192,135126,1,0,0:0:0:0:
64,192,135305,128,0,135844:0:0:0:0:
320,192,135305,1,0,0:0:0:0:
448,192,135305,1,0,0:0:0:0:
448,192,135485,1,0,0:0:0:0:
192,192,135665,1,0,0:0:0:0:
320,192,135665,1,0,0:0:0:0:
448,192,135665,1,0,0:0:0:0:
192,192,135844,128,0,136383:0:0:0:0:
320,192,135844,1,0,0:0:0:0:
64,192,136024,1,0,0:0:0:0:
320,192,136204,1,0,0:0:0:0:
448,192,136204,1,0,0:0:0:0:
320,192,136383,128,0,136922:0:0:0:0:
448,192,136383,1,0,0:0:0:0:
64,192,136383,1,0,0:0:0:0:
192,192,136563,1,0,0:0:0:0:
64,192,136742,1,0,0:0:0:0:
192,192,136742,1,0,0:0:0:0:
448,192,136742,1,0,0:0:0:0:
448,192,136922,128,0,137461:0:0:0:0:
64,192,136922,1,0,0:0:0:0:
192,192,137102,1,0,0:0:0:0:
320,192,137102,1,0,0:0:0:0:
64,192,137281,1,0,0:0:0:0:
320,192,137281,1,0,0:0:0:0:
192,192,137371,1,0,0:0:0:0:
64,192,137461,128,0,137820:0:0:0:0:
320,192,137461,1,0,0:0:0:0:
192,192,137641,1,0,0:0:0:0:
448,192,137641,1,0,0:0:0:0:
320,192,137730,1,0,0:0:0:0:
192,192,137820,1,0,0:0:0:0:
448,192,137820,128,0,138180:0:0:0:0:
320,192,138000,1,0,0:0:0:0:
64,192,138000,1,0,0:0:0:0:
64,192,138180,5,0,0:0:0:0:
192,192,138180,1,0,0:0:0:0:
320,192,138180,128,0,138539:0:0:0:0:
64,192,138539,1,0,0:0:0:0:
192,192,138539,1,0,0:0:0:0:
320,192,138718,1,0,0:0:0:0:
448,192,138718,1,0,0:0:0:0:
192,192,138808,1,0,0:0:0:0:
320,192,138898,1,0,0:0:0:0:
448,192,138898,1,0,0:0:0:0:
64,192,138898,1,0,0:0:0:0:
192,192,138988,1,0,0:0:0:0:
320,192,139078,1,0,0:0:0:0:
448,192,139257,1,0,0:0:0:0:
64,192,139257,1,0,0:0:0:0:
192,192,139437,1,0,0:0:0:0:
320,192,139527,1,0,0:0:0:0:
448,192,139527,1,0,0:0:0:0:
64,192,139617,1,0,0:0:0:0:
192,192,139617,1,0,0:0:0:0:
320,192,139796,1,0,0:0:0:0:
64,192,139886,1,0,0:0:0:0:
448,192,139886,1,0,0:0:0:0:
192,192,139976,1,0,0:0:0:0:
320,192,140156,1,0,0:0:0:0:
448,192,140156,1,0,0:0:0:0:
192,192,140245,1,0,0:0:0:0:
64,192,140335,1,0,0:0:0:0:
320,192,140335,1,0,0:0:0:0:
448,192,140335,1,0,0:0:0:0:
192,192,140425,1,0,0:0:0:0:
64,192,140515,1,0,0:0:0:0:
320,192,140515,128,0,140695:0:0:0:0:
192,192,140695,1,0,0:0:0:0:
448,192,140695,1,0,0:0:0:0:
64,192,140874,1,0,0:0:0:0:
320,192,140874,1,0,0:0:0:0:
192,192,140964,1,0,0:0:0:0:
448,192,140964,128,0,141054:0:0:0:0:
320,192,141054,1,0,0:0:0:0:
64,192,141054,1,0,0:0:0:0:
192,192,141233,1,0,0:0:0:0:
64,192,141413,1,0,0:0:0:0:
448,192,141413,1,0,0:0:0:0:
320,192,141593,1,0,0:0:0:0:
448,192,141593,1,0,0:0:0:0:
192,192,141683,1,0,0:0:0:0:
64,192,141772,1,0,0:0:0:0:
320,192,141772,1,0,0:0:0:0:
448,192,141772,1,0,0:0:0:0:
192,192,141862,1,0,0:0:0:0:
320,192,141952,1,0,0:0:0:0:
64,192,142132,1,0,0:0:0:0:
448,192,142132,1,0,0:0:0:0:
192,192,142311,128,0,142401:0:0:0:0:
448,192,142401,1,0,0:0:0:0:
320,192,142401,128,0,142491:0:0:0:0:
192,192,142491,1,0,0:0:0:0:
64,192,142491,1,0,0:0:0:0:
448,192,142671,128,0,142760:0:0:0:0:
192,192,142760,1,0,0:0:0:0:
64,192,142760,128,0,142850:0:0:0:0:
320,192,142850,1,0,0:0:0:0:
64,192,143030,1,0,0:0:0:0:
448,192,143030,1,0,0:0:0:0:
192,192,143120,128,0,143210:0:0:0:0:
64,192,143210,1,0,0:0:0:0:
320,192,143210,1,0,0:0:0:0:
448,192,143210,1,0,0:0:0:0:
192,192,143299,1,0,0:0:0:0:
64,192,143389,1,0,0:0:0:0:
448,192,143389,1,0,0:0:0:0:
320,192,143479,1,0,0:0:0:0:
192,192,143569,1,0,0:0:0:0:
448,192,143569,1,0,0:0:0:0:
64,192,143569,1,0,0:0:0:0:
192,192,143748,1,0,0:0:0:0:
320,192,143748,128,0,143838:0:0:0:0:
448,192,143838,1,0,0:0:0:0:
64,192,143838,1,0,0:0:0:0:
320,192,143928,1,0,0:0:0:0:
192,192,143928,1,0,0:0:0:0:
448,192,144108,1,0,0:0:0:0:
64,192,144287,1,0,0:0:0:0:
192,192,144287,1,0,0:0:0:0:
320,192,144467,1,0,0:0:0:0:
448,192,144467,1,0,0:0:0:0:
192,192,144557,1,0,0:0:0:0:
320,192,144647,1,0,0:0:0:0:
448,192,144647,1,0,0:0:0:0:
64,192,144647,1,0,0:0:0:0:
192,192,144736,1,0,0:0:0:0:
320,192,144826,1,0,0:0:0:0:
64,192,145006,1,0,0:0:0:0:
192,192,145006,1,0,0:0:0:0:
448,192,145186,1,0,0:0:0:0:
320,192,145275,1,0,0:0:0:0:
192,192,145275,1,0,0:0:0:0:
64,192,145365,1,0,0:0:0:0:
448,192,145365,1,0,0:0:0:0:
64,192,145545,1,0,0:0:0:0:
320,192,145635,1,0,0:0:0:0:
448,192,145635,1,0,0:0:0:0:
192,192,145724,1,0,0:0:0:0:
448,192,145904,1,0,0:0:0:0:
64,192,145904,1,0,0:0:0:0:
320,192,145994,1,0,0:0:0:0:
192,192,146084,1,0,0:0:0:0:
64,192,146084,1,0,0:0:0:0:
448,192,146084,1,0,0:0:0:0:
320,192,146174,1,0,0:0:0:0:
448,192,146263,1,0,0:0:0:0:
192,192,146263,128,0,146353:0:0:0:0:
64,192,146353,128,0,146443:0:0:0:0:
320,192,146443,1,0,0:0:0:0:
448,192,146443,1,0,0:0:0:0:
192,192,146443,1,0,0:0:0:0:
64,192,146623,1,0,0:0:0:0:
320,192,146623,128,0,146713:0:0:0:0:
192,192,146713,1,0,0:0:0:0:
448,192,146713,128,0,146802:0:0:0:0:
320,192,146802,1,0,0:0:0:0:
64,192,146802,1,0,0:0:0:0:
192,192,146982,1,0,0:0:0:0:
320,192,147162,1,0,0:0:0:0:
448,192,147162,1,0,0:0:0:0:
64,192,147341,1,0,0:0:0:0:
448,192,147341,1,0,0:0:0:0:
192,192,147431,1,0,0:0:0:0:
320,192,147521,1,0,0:0:0:0:
448,192,147521,1,0,0:0:0:0:
64,192,147521,1,0,0:0:0:0:
192,192,147611,1,0,0:0:0:0:
320,192,147701,1,0,0:0:0:0:
64,192,147880,1,0,0:0:0:0:
192,192,147880,1,0,0:0:0:0:
448,192,148060,128,0,148150:0:0:0:0:
320,192,148150,1,0,0:0:0:0:
192,192,148150,128,0,148239:0:0:0:0:
448,192,148239,1,0,0:0:0:0:
64,192,148239,1,0,0:0:0:0:
320,192,148419,128,0,148509:0:0:0:0:
192,192,148509,1,0,0:0:0:0:
64,192,148509,128,0,148599:0:0:0:0:
448,192,148599,1,0,0:0:0:0:
320,192,148778,1,0,0:0:0:0:
64,192,148778,1,0,0:0:0:0:
192,192,148868,1,0,0:0:0:0:
64,192,148958,1,0,0:0:0:0:
320,192,148958,1,0,0:0:0:0:
448,192,148958,1,0,0:0:0:0:
192,192,149138,1,0,0:0:0:0:
320,192,149138,1,0,0:0:0:0:
448,192,149317,1,0,0:0:0:0:
64,192,149317,1,0,0:0:0:0:
192,192,149317,1,0,0:0:0:0:
320,192,149437,1,0,0:0:0:0:
64,192,149437,1,0,0:0:0:0:
192,192,149557,1,0,0:0:0:0:
448,192,149557,1,0,0:0:0:0:
64,192,149677,1,0,0:0:0:0:
448,192,149677,1,0,0:0:0:0:
320,192,149677,1,0,0:0:0:0:
192,192,149856,1,0,0:0:0:0:
64,192,150036,1,0,0:0:0:0:
320,192,150036,1,0,0:0:0:0:
448,192,150036,1,0,0:0:0:0:
192,192,150215,1,0,0:0:0:0:
64,192,150215,1,0,0:0:0:0:
320,192,150305,1,0,0:0:0:0:
448,192,150395,1,0,0:0:0:0:
64,192,150395,1,0,0:0:0:0:
192,192,150485,1,0,0:0:0:0:
320,192,150575,1,0,0:0:0:0:
64,192,150754,1,0,0:0:0:0:
192,192,150754,1,0,0:0:0:0:
448,192,150754,1,0,0:0:0:0:
320,192,150934,1,0,0:0:0:0:
448,192,151114,1,0,0:0:0:0:
64,192,151114,1,0,0:0:0:0:
192,192,151293,1,0,0:0:0:0:
320,192,151293,1,0,0:0:0:0:
320,192,151473,1,0,0:0:0:0:
448,192,151473,1,0,0:0:0:0:
64,192,151473,1,0,0:0:0:0:
192,192,151653,1,0,0:0:0:0:
320,192,151742,1,0,0:0:0:0:
448,192,151832,1,0,0:0:0:0:
64,192,151832,1,0,0:0:0:0:
192,192,151922,1,0,0:0:0:0:
320,192,152012,1,0,0:0:0:0:
448,192,152012,1,0,0:0:0:0:
192,192,152192,1,0,0:0:0:0:
64,192,152192,1,0,0:0:0:0:
448,192,152192,1,0,0:0:0:0:
320,192,152371,1,0,0:0:0:0:
192,192,152371,1,0,0:0:0:0:
448,192,152551,1,0,0:0:0:0:
64,192,152551,1,0,0:0:0:0:
320,192,152730,1,0,0:0:0:0:
192,192,152910,1,0,0:0:0:0:
64,192,152910,1,0,0:0:0:0:
448,192,152910,1,0,0:0:0:0:
320,192,153090,1,0,0:0:0:0:
448,192,153090,1,0,0:0:0:0:
192,192,153180,1,0,0:0:0:0:
64,192,153269,1,0,0:0:0:0:
320,192,153269,1,0,0:0:0:0:
448,192,153359,1,0,0:0:0:0:
320,192,153449,1,0,0:0:0:0:
192,192,153629,5,0,0:0:0:0:
64,192,153629,1,0,0:0:0:0:
448,192,153629,1,0,0:0:0:0:
320,192,153808,1,0,0:0:0:0:
64,192,153988,1,0,0:0:0:0:
448,192,153988,1,0,0:0:0:0:
192,192,154168,1,0,0:0:0:0:
64,192,154347,1,0,0:0:0:0:
320,192,154347,1,0,0:0:0:0:
448,192,154347,1,0,0:0:0:0:
192,192,154527,1,0,0:0:0:0:
320,192,154617,1,0,0:0:0:0:
448,192,154707,5,0,0:0:0:0:
64,192,154707,1,0,0:0:0:0:
192,192,154796,1,0,0:0:0:0:
320,192,154886,1,0,0:0:0:0:
448,192,154886,1,0,0:0:0:0:
192,192,155066,1,0,0:0:0:0:
64,192,155066,1,0,0:0:0:0:
448,192,155066,1,0,0:0:0:0:
320,192,155245,1,0,0:0:0:0:
192,192,155245,1,0,0:0:0:0:
64,192,155425,1,0,0:0:0:0:
448,192,155425,1,0,0:0:0:0:
320,192,155425,1,0,0:0:0:0:
192,192,155605,1,0,0:0:0:0:
320,192,155695,1,0,0:0:0:0:
448,192,155784,1,0,0:0:0:0:
192,192,155784,1,0,0:0:0:0:
64,192,155784,1,0,0:0:0:0:
320,192,155964,1,0,0:0:0:0:
192,192,156054,1,0,0:0:0:0:
64,192,156144,1,0,0:0:0:0:
320,192,156144,1,0,0:0:0:0:
448,192,156144,1,0,0:0:0:0:
192,192,156233,1,0,0:0:0:0:
448,192,156323,1,0,0:0:0:0:
64,192,156323,1,0,0:0:0:0:
320,192,156413,1,0,0:0:0:0:
192,192,156503,1,0,0:0:0:0:
448,192,156503,1,0,0:0:0:0:
64,192,156503,1,0,0:0:0:0:
320,192,156593,1,0,0:0:0:0:
192,192,156683,1,0,0:0:0:0:
448,192,156683,1,0,0:0:0:0:
64,192,156772,1,0,0:0:0:0:
320,192,156862,1,0,0:0:0:0:
448,192,156862,1,0,0:0:0:0:
64,192,157042,1,0,0:0:0:0:
192,192,157132,1,0,0:0:0:0:
448,192,157221,1,0,0:0:0:0:
64,192,157221,1,0,0:0:0:0:
320,192,157221,1,0,0:0:0:0:
192,192,157401,1,0,0:0:0:0:
320,192,157491,1,0,0:0:0:0:
448,192,157491,1,0,0:0:0:0:
448,192,157581,1,0,0:0:0:0:
64,192,157581,1,0,0:0:0:0:
192,192,157581,1,0,0:0:0:0:
320,192,157671,1,0,0:0:0:0:
448,192,157760,1,0,0:0:0:0:
64,192,157760,1,0,0:0:0:0:
192,192,157850,1,0,0:0:0:0:
320,192,157940,1,0,0:0:0:0:
448,192,157940,1,0,0:0:0:0:
64,192,157940,1,0,0:0:0:0:
192,192,158030,1,0,0:0:0:0:
320,192,158120,1,0,0:0:0:0:
64,192,158120,1,0,0:0:0:0:
448,192,158210,1,0,0:0:0:0:
320,192,158299,1,0,0:0:0:0:
192,192,158299,1,0,0:0:0:0:
64,192,158299,1,0,0:0:0:0:
192,192,158479,1,0,0:0:0:0:
448,192,158479,1,0,0:0:0:0:
320,192,158659,1,0,0:0:0:0:
64,192,158659,1,0,0:0:0:0:
64,192,158838,1,0,0:0:0:0:
192,192,158838,1,0,0:0:0:0:
448,192,158838,1,0,0:0:0:0:
320,192,159018,1,0,0:0:0:0:
448,192,159018,1,0,0:0:0:0:
320,192,159108,1,0,0:0:0:0:
448,192,159108,1,0,0:0:0:0:
64,192,159198,1,0,0:0:0:0:
192,192,159198,1,0,0:0:0:0:
448,192,159242,1,0,0:0:0:0:
320,192,159242,1,0,0:0:0:0:
192,192,159287,1,0,0:0:0:0:
64,192,159287,1,0,0:0:0:0:
320,192,159332,1,0,0:0:0:0:
448,192,159332,1,0,0:0:0:0:
64,192,159377,128,0,160096:0:0:0:0:
192,192,159377,1,0,0:0:0:0:
448,192,160096,1,0,0:0:0:0:
320,192,160096,1,0,0:0:0:0:
192,192,160275,1,0,0:0:0:0:
64,192,160365,1,0,0:0:0:0:
320,192,160455,1,0,0:0:0:0:
448,192,160455,1,0,0:0:0:0:
64,192,160545,1,0,0:0:0:0:
192,192,160545,1,0,0:0:0:0:
320,192,160635,1,0,0:0:0:0:
448,192,160635,1,0,0:0:0:0:
192,192,160680,1,0,0:0:0:0:
64,192,160680,1,0,0:0:0:0:
320,192,160724,1,0,0:0:0:0:
448,192,160724,1,0,0:0:0:0:
64,192,160814,1,0,0:0:0:0:
192,192,160814,1,0,0:0:0:0:
448,192,160814,1,0,0:0:0:0:
448,192,161174,1,0,0:0:0:0:
320,192,161218,1,0,0:0:0:0:
64,192,161263,1,0,0:0:0:0:
192,192,161308,1,0,0:0:0:0:
448,192,161353,1,0,0:0:0:0:
320,192,161398,1,0,0:0:0:0:
64,192,161443,1,0,0:0:0:0:
192,192,161488,1,0,0:0:0:0:
448,192,161533,1,0,0:0:0:0:
320,192,161578,1,0,0:0:0:0:
192,192,161623,1,0,0:0:0:0:
64,192,161668,1,0,0:0:0:0:
448,192,161713,1,0,0:0:0:0:
320,192,161757,1,0,0:0:0:0:
192,192,161802,1,0,0:0:0:0:
64,192,161847,1,0,0:0:0:0:
320,192,161892,5,0,0:0:0:0:
448,192,161892,1,0,0:0:0:0:
192,192,162072,1,0,0:0:0:0:
320,192,162162,1,0,0:0:0:0:
448,192,162162,1,0,0:0:0:0:
64,192,162251,1,0,0:0:0:0:
448,192,162251,1,0,0:0:0:0:
192,192,162251,1,0,0:0:0:0:
320,192,162431,1,0,0:0:0:0:
64,192,162431,1,0,0:0:0:0:
448,192,162521,1,0,0:0:0:0:
320,192,162611,1,0,0:0:0:0:
192,192,162701,1,0,0:0:0:0:
64,192,162701,1,0,0:0:0:0:
320,192,162790,1,0,0:0:0:0:
448,192,162790,1,0,0:0:0:0:
64,192,162970,1,0,0:0:0:0:
448,192,162970,1,0,0:0:0:0:
192,192,162970,1,0,0:0:0:0:
320,192,163150,1,0,0:0:0:0:
64,192,163150,1,0,0:0:0:0:
448,192,163329,1,0,0:0:0:0:
192,192,163329,1,0,0:0:0:0:
64,192,163509,1,0,0:0:0:0:
320,192,163599,1,0,0:0:0:0:
448,192,163599,1,0,0:0:0:0:
64,192,163689,1,0,0:0:0:0:
192,192,163689,1,0,0:0:0:0:
448,192,163689,1,0,0:0:0:0:
192,192,163868,1,0,0:0:0:0:
320,192,163868,1,0,0:0:0:0:
448,192,163958,1,0,0:0:0:0:
320,192,164048,1,0,0:0:0:0:
192,192,164138,1,0,0:0:0:0:
64,192,164138,1,0,0:0:0:0:
320,192,164227,1,0,0:0:0:0:
448,192,164227,1,0,0:0:0:0:
64,192,164407,1,0,0:0:0:0:
192,192,164407,1,0,0:0:0:0:
448,192,164407,1,0,0:0:0:0:
192,192,164587,1,0,0:0:0:0:
320,192,164587,1,0,0:0:0:0:
64,192,164766,1,0,0:0:0:0:
448,192,164766,1,0,0:0:0:0:
192,192,164946,1,0,0:0:0:0:
320,192,165036,1,0,0:0:0:0:
448,192,165036,1,0,0:0:0:0:
64,192,165126,1,0,0:0:0:0:
192,192,165126,1,0,0:0:0:0:
448,192,165126,1,0,0:0:0:0:
64,192,165305,1,0,0:0:0:0:
320,192,165305,1,0,0:0:0:0:
448,192,165395,1,0,0:0:0:0:
192,192,165485,1,0,0:0:0:0:
320,192,165575,1,0,0:0:0:0:
448,192,165575,1,0,0:0:0:0:
64,192,165665,1,0,0:0:0:0:
192,192,165665,1,0,0:0:0:0:
64,192,165844,1,0,0:0:0:0:
448,192,165844,1,0,0:0:0:0:
320,192,165844,1,0,0:0:0:0:
320,192,166024,1,0,0:0:0:0:
192,192,166024,1,0,0:0:0:0:
448,192,166204,1,0,0:0:0:0:
64,192,166204,128,0,166383:0:0:0:0:
192,192,166204,1,0,0:0:0:0:
320,192,166383,128,0,166563:0:0:0:0:
192,192,166563,128,0,166742:0:0:0:0:
64,192,166563,1,0,0:0:0:0:
448,192,166563,1,0,0:0:0:0:
320,192,166742,128,0,166922:0:0:0:0:
64,192,166922,1,0,0:0:0:0:
448,192,166922,128,0,167281:0:0:0:0:
192,192,167102,1,0,0:0:0:0:
320,192,167102,1,0,0:0:0:0:
64,192,167281,128,0,167641:0:0:0:0:
320,192,167281,1,0,0:0:0:0:
192,192,167281,128,0,167641:0:0:0:0:
448,192,167461,1,0,0:0:0:0:
448,192,167641,1,0,0:0:0:0:
320,192,167641,1,0,0:0:0:0:
64,192,167820,1,0,0:0:0:0:
320,192,167910,1,0,0:0:0:0:
448,192,167910,1,0,0:0:0:0:
64,192,168000,1,0,0:0:0:0:
192,192,168000,1,0,0:0:0:0:
320,192,168000,1,0,0:0:0:0:
448,192,168180,128,0,168539:0:0:0:0:
192,192,168180,1,0,0:0:0:0:
320,192,168269,1,0,0:0:0:0:
64,192,168359,1,0,0:0:0:0:
192,192,168449,1,0,0:0:0:0:
320,192,168539,128,0,168718:0:0:0:0:
64,192,168539,1,0,0:0:0:0:
192,192,168718,128,0,168898:0:0:0:0:
448,192,168718,1,0,0:0:0:0:
64,192,168718,1,0,0:0:0:0:
448,192,168898,1,0,0:0:0:0:
320,192,168898,128,0,169078:0:0:0:0:
192,192,169078,1,0,0:0:0:0:
64,192,169078,128,0,169257:0:0:0:0:
448,192,169257,1,0,0:0:0:0:
320,192,169347,1,0,0:0:0:0:
192,192,169347,1,0,0:0:0:0:
64,192,169437,1,0,0:0:0:0:
448,192,169437,1,0,0:0:0:0:
320,192,169527,1,0,0:0:0:0:
192,192,169527,1,0,0:0:0:0:
448,192,169617,128,0,169976:0:0:0:0:
64,192,169617,1,0,0:0:0:0:
192,192,169707,1,0,0:0:0:0:
320,192,169796,1,0,0:0:0:0:
64,192,169976,1,0,0:0:0:0:
192,192,169976,1,0,0:0:0:0:
64,192,170156,1,0,0:0:0:0:
448,192,170156,1,0,0:0:0:0:
320,192,170156,1,0,0:0:0:0:
192,192,170335,1,0,0:0:0:0:
320,192,170335,1,0,0:0:0:0:
64,192,170515,128,0,170874:0:0:0:0:
448,192,170515,1,0,0:0:0:0:
320,192,170695,1,0,0:0:0:0:
320,192,170874,1,0,0:0:0:0:
448,192,170874,1,0,0:0:0:0:
192,192,170874,1,0,0:0:0:0:
448,192,171054,128,0,171413:0:0:0:0:
64,192,171054,1,0,0:0:0:0:
320,192,171144,1,0,0:0:0:0:
192,192,171233,1,0,0:0:0:0:
320,192,171413,1,0,0:0:0:0:
64,192,171413,1,0,0:0:0:0:
192,192,171503,1,0,0:0:0:0:
448,192,171593,1,0,0:0:0:0:
64,192,171593,128,0,171952:0:0:0:0:
320,192,171593,1,0,0:0:0:0:
192,192,171772,1,0,0:0:0:0:
320,192,171952,1,0,0:0:0:0:
448,192,171952,1,0,0:0:0:0:
64,192,172132,1,0,0:0:0:0:
192,192,172132,1,0,0:0:0:0:
448,192,172311,1,0,0:0:0:0:
320,192,172311,1,0,0:0:0:0:
64,192,172311,1,0,0:0:0:0:
192,192,172491,1,0,0:0:0:0:
320,192,172581,1,0,0:0:0:0:
448,192,172671,1,0,0:0:0:0:
64,192,172671,1,0,0:0:0:0:
64,192,172850,1,0,0:0:0:0:
192,192,172850,1,0,0:0:0:0:
320,192,172940,1,0,0:0:0:0:
64,192,173030,1,0,0:0:0:0:
192,192,173030,1,0,0:0:0:0:
448,192,173030,1,0,0:0:0:0:
192,192,173210,1,0,0:0:0:0:
320,192,173210,1,0,0:0:0:0:
320,192,173389,1,0,0:0:0:0:
448,192,173389,1,0,0:0:0:0:
64,192,173389,1,0,0:0:0:0:
192,192,173569,1,0,0:0:0:0:
320,192,173659,1,0,0:0:0:0:
448,192,173659,1,0,0:0:0:0:
192,192,173748,1,0,0:0:0:0:
64,192,173748,1,0,0:0:0:0:
448,192,173748,1,0,0:0:0:0:
320,192,173748,1,0,0:0:0:0:
64,192,173928,1,0,0:0:0:0:
448,192,173928,1,0,0:0:0:0:
320,192,174018,1,0,0:0:0:0:
192,192,174108,1,0,0:0:0:0:
320,192,174198,1,0,0:0:0:0:
448,192,174198,1,0,0:0:0:0:
64,192,174287,1,0,0:0:0:0:
192,192,174287,1,0,0:0:0:0:
64,192,174467,1,0,0:0:0:0:
448,192,174467,1,0,0:0:0:0:
320,192,174467,1,0,0:0:0:0:
192,192,174647,1,0,0:0:0:0:
448,192,174647,1,0,0:0:0:0:
64,192,174826,1,0,0:0:0:0:
320,192,174826,1,0,0:0:0:0:
192,192,175006,1,0,0:0:0:0:
320,192,175096,1,0,0:0:0:0:
448,192,175096,1,0,0:0:0:0:
192,192,175186,1,0,0:0:0:0:
64,192,175186,1,0,0:0:0:0:
448,192,175186,1,0,0:0:0:0:
320,192,175365,1,0,0:0:0:0:
64,192,175365,1,0,0:0:0:0:
448,192,175455,1,0,0:0:0:0:
320,192,175545,1,0,0:0:0:0:
64,192,175635,1,0,0:0:0:0:
192,192,175635,1,0,0:0:0:0:
320,192,175724,1,0,0:0:0:0:
448,192,175724,1,0,0:0:0:0:
448,192,175904,1,0,0:0:0:0:
64,192,175904,1,0,0:0:0:0:
192,192,175904,1,0,0:0:0:0:
320,192,176084,1,0,0:0:0:0:
192,192,176084,1,0,0:0:0:0:
64,192,176263,1,0,0:0:0:0:
448,192,176263,1,0,0:0:0:0:
192,192,176443,1,0,0:0:0:0:
320,192,176533,1,0,0:0:0:0:
448,192,176533,1,0,0:0:0:0:
192,192,176623,1,0,0:0:0:0:
64,192,176623,1,0,0:0:0:0:
448,192,176623,1,0,0:0:0:0:
320,192,176802,1,0,0:0:0:0:
64,192,176802,1,0,0:0:0:0:
448,192,176892,1,0,0:0:0:0:
192,192,176982,1,0,0:0:0:0:
320,192,177072,1,0,0:0:0:0:
448,192,177072,1,0,0:0:0:0:
192,192,177162,1,0,0:0:0:0:
64,192,177162,1,0,0:0:0:0:
320,192,177341,1,0,0:0:0:0:
448,192,177341,1,0,0:0:0:0:
64,192,177341,1,0,0:0:0:0:
448,192,177521,1,0,0:0:0:0:
192,192,177521,1,0,0:0:0:0:
320,192,177701,128,0,177880:0:0:0:0:
64,192,177701,1,0,0:0:0:0:
192,192,177880,128,0,178060:0:0:0:0:
448,192,177880,1,0,0:0:0:0:
64,192,178060,1,0,0:0:0:0:
320,192,178060,1,0,0:0:0:0:
448,192,178060,128,0,178239:0:0:0:0:
192,192,178239,1,0,0:0:0:0:
64,192,178239,128,0,178419:0:0:0:0:
320,192,178419,128,0,178599:0:0:0:0:
448,192,178419,1,0,0:0:0:0:
192,192,178599,1,0,0:0:0:0:
64,192,178599,1,0,0:0:0:0:
64,192,178778,1,0,0:0:0:0:
448,192,178778,1,0,0:0:0:0:
320,192,178823,1,0,0:0:0:0:
192,192,178868,1,0,0:0:0:0:
64,192,178913,1,0,0:0:0:0:
448,192,178958,1,0,0:0:0:0:
320,192,179003,1,0,0:0:0:0:
192,192,179048,1,0,0:0:0:0:
64,192,179093,1,0,0:0:0:0:
320,192,179138,1,0,0:0:0:0:
448,192,179138,1,0,0:0:0:0:
192,192,179317,1,0,0:0:0:0:
320,192,179407,1,0,0:0:0:0:
448,192,179407,1,0,0:0:0:0:
192,192,179497,1,0,0:0:0:0:
64,192,179497,1,0,0:0:0:0:
320,192,179497,1,0,0:0:0:0:
64,192,179677,1,0,0:0:0:0:
448,192,179677,1,0,0:0:0:0:
192,192,179766,1,0,0:0:0:0:
320,192,179856,1,0,0:0:0:0:
192,192,179946,1,0,0:0:0:0:
64,192,180036,1,0,0:0:0:0:
448,192,180036,1,0,0:0:0:0:
320,192,180126,1,0,0:0:0:0:
192,192,180215,1,0,0:0:0:0:
64,192,180215,1,0,0:0:0:0:
448,192,180215,1,0,0:0:0:0:
192,192,180395,1,0,0:0:0:0:
320,192,180395,1,0,0:0:0:0:
448,192,180575,1,0,0:0:0:0:
64,192,180575,1,0,0:0:0:0:
192,192,180754,1,0,0:0:0:0:
320,192,180844,1,0,0:0:0:0:
448,192,180844,1,0,0:0:0:0:
448,192,180934,1,0,0:0:0:0:
64,192,180934,1,0,0:0:0:0:
192,192,180934,1,0,0:0:0:0:
320,192,181024,1,0,0:0:0:0:
448,192,181114,1,0,0:0:0:0:
64,192,181114,1,0,0:0:0:0:
192,192,181204,1,0,0:0:0:0:
320,192,181293,1,0,0:0:0:0:
64,192,181473,1,0,0:0:0:0:
448,192,181473,1,0,0:0:0:0:
192,192,181563,1,0,0:0:0:0:
320,192,181653,1,0,0:0:0:0:
448,192,181653,1,0,0:0:0:0:
64,192,181653,1,0,0:0:0:0:
192,192,181832,1,0,0:0:0:0:
320,192,181832,1,0,0:0:0:0:
192,192,182012,1,0,0:0:0:0:
64,192,182012,1,0,0:0:0:0:
448,192,182012,128,0,182371:0:0:0:0:
320,192,182192,1,0,0:0:0:0:
64,192,182371,1,0,0:0:0:0:
192,192,182371,1,0,0:0:0:0:
448,192,182551,1,0,0:0:0:0:
320,192,182551,1,0,0:0:0:0:
64,192,182551,128,0,182910:0:0:0:0:
192,192,182730,1,0,0:0:0:0:
448,192,182910,1,0,0:0:0:0:
320,192,182910,1,0,0:0:0:0:
192,192,183000,1,0,0:0:0:0:
64,192,183090,1,0,0:0:0:0:
320,192,183090,1,0,0:0:0:0:
448,192,183090,128,0,183449:0:0:0:0:
192,192,183269,1,0,0:0:0:0:
64,192,183269,1,0,0:0:0:0:
320,192,183449,1,0,0:0:0:0:
448,192,183629,1,0,0:0:0:0:
64,192,183629,1,0,0:0:0:0:
192,192,183718,1,0,0:0:0:0:
448,192,183808,1,0,0:0:0:0:
64,192,183808,1,0,0:0:0:0:
320,192,183808,1,0,0:0:0:0:
192,192,183988,1,0,0:0:0:0:
320,192,183988,1,0,0:0:0:0:
448,192,184168,1,0,0:0:0:0:
64,192,184168,1,0,0:0:0:0:
448,192,184347,1,0,0:0:0:0:
320,192,184347,1,0,0:0:0:0:
64,192,184392,1,0,0:0:0:0:
192,192,184437,1,0,0:0:0:0:
320,192,184482,1,0,0:0:0:0:
448,192,184527,1,0,0:0:0:0:
64,192,184527,1,0,0:0:0:0:
192,192,184527,1,0,0:0:0:0:
192,192,184707,1,0,0:0:0:0:
320,192,184707,1,0,0:0:0:0:
64,192,184886,1,0,0:0:0:0:
448,192,184886,1,0,0:0:0:0:
320,192,184886,1,0,0:0:0:0:
