osu file format v12

[General]
AudioFilename: SweetBrownie.mp3
AudioLeadIn: 1974
PreviewTime: 61773
Countdown: 0
SampleSet: Soft
StackLeniency: 0.7
Mode: 0
LetterboxInBreaks: 1
WidescreenStoryboard: 0

[Editor]
Bookmarks: 23215
DistanceSpacing: 1
BeatDivisor: 4
GridSize: 4

[Metadata]
Title:Sweet Brownie (Promotion Mix)
TitleUnicode:Sweet Brownie (Promotion Mix)
Artist:banami
ArtistUnicode:banami
Creator:yf_bmp
Version:Normal
Source:Miracle Planet
Tags:MAX banami SID-Sound Touch mix2 Trance Electro
BeatmapID:303116
BeatmapSetID:117678

[Difficulty]
HPDrainRate:4
CircleSize:4
OverallDifficulty:4
ApproachRate:5
SliderMultiplier:1.3
SliderTickRate:2

[Events]
//Background and Video events
0,0,"BG.jpg",0,0
//Break Periods
2,16891,23187
//Storyboard Layer 0 (Background)
//Storyboard Layer 1 (Fail)
//Storyboard Layer 2 (Pass)
//Storyboard Layer 3 (Foreground)
//Storyboard Sound Samples
//Background Colour Transformations
3,100,0,0,0

[TimingPoints]
12,468.75,4,2,1,70,1,0
3293,-100,4,2,1,55,0,0
7277,-100,4,2,1,70,0,0
9387,-100,4,2,1,85,0,1
15715,-100,4,1,0,50,0,0
24387,-100,4,2,1,70,0,0
29777,-100,4,2,1,40,0,0
31887,-100,4,2,1,60,0,0
46887,-100,4,2,1,70,0,0
53566,-100,4,2,3,70,0,0
53801,-100,4,2,1,70,0,0
61887,-100,4,2,1,85,0,1
63879,-100,4,2,3,85,0,1
64113,-100,4,2,2,85,0,1
64347,-100,4,2,1,85,0,1
67629,-100,4,2,3,85,0,1
67863,-100,4,2,2,85,0,1
68097,-100,4,2,1,85,0,1
69504,-100,4,2,3,85,0,1
69738,-100,4,2,1,85,0,1
71379,-100,4,2,3,85,0,1
71613,-100,4,2,2,85,0,1
71847,-100,4,2,1,85,0,1
75012,-100,4,2,1,85,0,0
75363,-100,4,2,2,65,0,0
75597,-100,4,2,1,85,0,0
76887,-100,4,2,1,90,0,1
77004,-100,4,2,3,90,0,1
77238,-100,4,2,1,90,0,1
78879,-100,4,2,3,90,0,1
79113,-100,4,2,2,90,0,1
79347,-100,4,2,1,90,0,1
82629,-100,4,2,3,90,0,1
82863,-100,4,2,2,90,0,1
83097,-100,4,2,1,90,0,1
84504,-100,4,2,3,90,0,1
84738,-100,4,2,1,90,0,1
86379,-100,4,2,3,90,0,1
86613,-100,4,2,1,90,0,1
90715,-100,4,2,1,50,0,0

[Colours]
Combo1 : 17,255,23
Combo2 : 253,239,62
Combo3 : 78,90,245
Combo4 : 255,40,46

[HitObjects]
256,192,480,12,4,1887,0:0:0:0:
317,206,2590,2,0,P|313:159|335:116,2,97.5,2|0|2,0:0|0:0|0:0,0:0:0:0:
396,176,3527,1,0,0:0:0:0:
388,260,3762,6,0,P|392:312|424:344,2,97.5,2|2|2,0:0|0:0|0:0,0:0:0:0:
236,184,4933,2,0,L|236:120,2,65,0|2|0,0:0|0:0|0:0,0:0:0:0:
176,248,5637,6,0,L|176:320,2,65,2|0|0,0:0|0:0|0:0,0:0:0:0:
64,120,6574,2,0,P|56:68|80:24,2,97.5,2|2|2,0:0|0:0|0:0,0:0:0:0:
64,204,7512,6,0,P|56:256|80:300,2,97.5,2|0|2,0:0|0:0|0:0,0:0:0:0:
188,92,8683,2,0,P|215:76|248:75,2,65
240,160,9387,6,0,P|296:188|368:180,1,130,4|8,3:2|3:2,0:0:0:0:
436,144,10090,2,0,P|464:200|456:272,1,130,2|2,0:0|0:0,0:0:0:0:
420,340,10793,1,8,0:0:0:0:
292,308,11262,6,0,P|256:256|260:188,1,130,0|8,3:0|3:2,0:0:0:0:
296,116,11965,2,0,P|276:48|224:40,1,130,2|2,0:0|0:0,0:0:0:0:
144,68,12668,1,8,0:0:0:0:
256,192,13137,12,0,15715,0:0:0:0:
52,88,24387,5,4,0:3:0:0:
56,220,24855,2,0,P|72:248|104:264,1,65,0|2,1:0|0:0,0:0:0:0:
184,256,25324,2,0,P|248:228|304:244,1,130,0|0,0:0|1:0,0:0:0:0:
376,292,26027,2,0,P|388:264|388:228,1,65,2|0,0:0|0:0,0:0:0:0:
476,132,26730,6,0,P|472:96|452:72,1,65,0|2,1:0|0:0,0:0:0:0:
376,36,27199,2,0,P|316:28|252:56,1,130,4|0,0:3|1:0,0:0:0:0:
180,100,27902,6,0,P|148:108|116:104,1,65,2|0,0:0|0:0,0:0:0:0:
24,196,28605,2,0,P|10:224|7:256,1,65,0|0,1:0|0:0,0:0:0:0:
36,336,29074,2,0,P|96:344|152:304,1,130,4|0,0:3|1:0,0:0:0:0:
180,224,29777,6,0,B|160:180|188:136|188:136|191:98,1,130,2|2,0:0|0:0,0:0:0:0:
256,44,30480,1,0,0:0:0:0:
320,98,30715,2,0,B|324:136|324:136|352:180|332:224,1,130,2|2,0:0|0:0,0:0:0:0:
92,80,32121,6,0,P|72:100|60:136,2,65,0|2|0,0:0|0:2|0:0,0:0:0:0:
172,228,33058,2,0,P|160:260|164:296,2,65,0|2|0,0:0|0:0|0:0,0:0:0:0:
340,228,33996,6,0,P|352:260|348:296,2,65,0|2|0,0:0|0:0|0:0,0:0:0:0:
420,80,34933,2,0,P|440:100|452:136,2,65,0|2|0,0:0|0:0|0:0,0:0:0:0:
340,228,35871,6,0,B|352:208|344:184|356:164,2,65,0|2|0,0:0|0:0|0:0,0:0:0:0:
172,228,36808,2,0,B|160:208|168:184|156:164,2,65,0|2|0,0:0|0:0|0:0,0:0:0:0:
256,96,37746,6,0,B|252:72|260:56|256:32,2,65,0|2|0,0:0|0:0|0:0,0:0:0:0:
308,160,38449,2,0,P|308:196|296:224,1,65,2|0,0:0|0:0,0:0:0:0:
214,222,38918,2,0,P|202:191|203:159,1,65,2|2,0:0|0:0,0:0:0:0:
88,232,39621,6,0,P|52:224|28:204,2,65,0|2|0,0:0|0:0|0:0,0:0:0:0:
172,84,40558,2,0,P|196:108|208:144,2,65,0|2|0,0:0|0:0|0:0,0:0:0:0:
340,84,41496,6,0,P|316:108|304:144,2,65,0|2|0,0:0|0:0|0:0,0:0:0:0:
424,232,42433,2,0,P|460:224|484:204,2,65,0|2|0,0:0|0:0|0:0,0:0:0:0:
348,268,43137,6,0,P|256:296|164:268,1,195,2|2,0:0|0:0,0:0:0:0:
256,124,44308,2,0,L|256:56,2,65,0|2|0,0:0|0:0|0:0,0:0:0:0:
180,160,45012,6,0,L|180:28,2,130,0|2|0,0:0|0:0|0:0,0:0:0:0:
240,276,46418,1,8,1:2:0:0:
292,156,46887,5,4,0:0:0:0:
388,68,47355,1,0,1:0:0:0:
412,200,47824,2,0,P|400:236|380:256,1,65,0|2,0:0|0:0,0:0:0:0:
304,288,48293,2,0,P|240:296|180:272,1,130,0|0,1:0|0:0,0:0:0:0:
104,240,48996,6,0,P|68:240|36:256,2,65,2|0|2,0:0|1:0|0:0,0:0:0:0:
256,164,49933,2,0,L|256:96,2,65,2|0|0,0:0|1:0|0:0,0:0:0:0:
408,240,50871,6,0,P|444:240|476:256,2,65,2|0|2,0:0|1:0|0:0,0:0:0:0:
324,244,51574,2,0,P|328:212|344:184,1,65,0|2,0:0|0:0,0:0:0:0:
396,120,52043,2,0,B|372:100|340:100|340:100|332:64|300:44,1,130,0|0,1:0|0:0,0:0:0:0:
216,40,52746,6,0,P|192:40|168:28,2,32.5,2|0|0,0:0|0:0|1:0,0:0:0:0:
252,164,53449,2,0,B|204:144|176:208|128:188,1,130,0|0,0:0|1:0,0:0:0:0:
92,24,54387,5,2,0:0:0:0:
256,92,54855,1,2,1:2:0:0:
420,24,55324,5,2,0:0:0:0:
340,172,55793,1,2,1:2:0:0:
172,172,56262,5,2,0:0:0:0:
256,324,56730,1,2,1:2:0:0:
340,172,57199,6,0,B|316:144|316:144|352:108|336:52,1,130,2|2,0:0|1:2,0:0:0:0:
256,84,57902,1,0,0:0:0:0:
174,61,58137,6,0,B|160:112|196:148|196:148|148:212|180:308|268:332|376:276|340:172,1,455,2|0,0:0|0:0,0:0:0:0:
262,204,60012,1,2,0:0:0:0:
416,324,60715,2,0,B|360:332|360:332|308:376|212:376|160:332|160:332|104:324,1,325,2|4,0:0|0:0,0:0:0:0:
84,160,62355,6,0,P|68:132|64:96,1,65,0|2,1:0|0:0,0:0:0:0:
120,36,62824,2,0,P|152:36|185:50,1,65,0|2,0:0|0:0,0:0:0:0:
208,128,63293,2,0,P|191:155|162:177,1,65,0|0,1:0|0:0,0:0:0:0:
108,240,63762,6,0,P|48:236|8:196,2,97.5,0|0|2,0:0|0:0|0:0,0:0:0:0:
228,292,64933,2,0,P|257:303|280:327,1,65,2|0,0:0|1:0,0:0:0:0:
236,204,65637,6,0,P|224:176|224:136,2,65,0|2|0,0:0|0:0|1:0,0:0:0:0:
308,156,66340,2,0,P|307:123|319:93,2,65,2|0|2,0:0|0:0|0:0,0:0:0:0:
388,135,67043,1,0,1:0:0:0:
508,188,67512,6,0,P|492:236|500:284,2,97.5,0|0|2,0:0|0:0|0:0,0:0:0:0:
448,128,68449,2,0,P|460:96|456:64,2,65,0|2|0,0:0|0:0|1:0,0:0:0:0:
344,208,69387,6,0,L|200:240,1,130,0|0,0:0|1:0,0:0:0:0:
208,152,70090,2,0,P|148:164|84:140,1,130,2|2,0:0|0:0,0:0:0:0:
32,204,70793,2,0,P|16:232|12:272,1,65,0|0,1:0|0:0,0:0:0:0:
96,260,71262,6,0,P|140:284|188:284,2,97.5,0|0|2,0:0|0:0|0:0,0:0:0:0:
44,100,72433,2,0,P|41:67|26:39,2,65,2|0|0,0:0|1:0|0:0,0:0:0:0:
208,144,73371,6,0,P|240:141|268:126,1,65,2|0,0:0|1:0,0:0:0:0:
216,60,73840,2,0,P|296:44|344:88,1,130,2|2,0:0|0:0,0:0:0:0:
388,132,74543,1,0,1:0:0:0:
468,280,75012,6,0,P|448:328|452:376,2,97.5,0|0|4,0:0|0:0|0:3,0:0:0:0:
340,168,76183,2,0,P|300:160|268:168,2,65,0|0|0,1:0|1:0|1:0,1:0:0:0:
304,244,76887,6,0,P|232:236|196:184,1,130,4|0,0:0|1:0,0:0:0:0:
208,108,77590,2,0,B|164:104|136:132|136:132|100:96,1,130,2|2,0:0|0:0,0:0:0:0:
44,32,78293,1,0,1:0:0:0:
80,196,78762,6,0,P|88:248|72:288,2,97.5,0|0|2,0:0|0:0|0:0,0:0:0:0:
220,104,79933,2,0,P|204:76|168:52,1,65,0|0,0:0|1:0,0:0:0:0:
256,208,80637,6,0,P|280:228|324:232,2,65,0|2|0,0:0|0:0|1:0,0:0:0:0:
320,148,81340,2,0,P|348:152|388:136,2,65,2|0|2,0:0|0:0|0:0,0:0:0:0:
340,64,82043,1,0,1:0:0:0:
172,36,82512,6,0,P|125:25|79:40,2,97.5,0|0|2,0:0|0:0|0:0,0:0:0:0:
192,120,83449,2,0,P|156:120|124:108,2,65,0|2|2,0:0|0:0|1:2,0:0:0:0:
320,232,84387,6,0,P|228:264|192:260,1,130,0|0,0:0|1:0,0:0:0:0:
116,236,85090,2,0,P|124:304|180:344,1,130,2|2,0:0|0:0,0:0:0:0:
252,348,85793,1,0,1:0:0:0:
420,340,86262,6,0,B|440:312|448:272|424:236|424:236|440:224,1,130,0|0,0:0|1:0,0:0:0:0:
492,160,86965,2,0,P|436:140|372:172,1,130,2|2,0:0|0:0,0:0:0:0:
320,232,87668,2,0,P|332:264|360:288,2,65,0|0|2,1:0|0:0|3:2,0:0:0:0:
256,192,88371,12,2,90715,1:2:0:0:
