osu file format v12

[General]
AudioFilename: SweetBrownie.mp3
AudioLeadIn: 1974
PreviewTime: 61773
Countdown: 0
SampleSet: Soft
StackLeniency: 0.3
Mode: 0
LetterboxInBreaks: 1
WidescreenStoryboard: 1

[Editor]
DistanceSpacing: 1.4
BeatDivisor: 4
GridSize: 4

[Metadata]
Title:Sweet Brownie (Promotion Mix)
TitleUnicode:Sweet Brownie (Promotion Mix)
Artist:banami
ArtistUnicode:banami
Creator:yf_bmp
Version:Hard
Source:Miracle Planet
Tags:MAX banami SID-Sound Touch mix2 Trance Electro
BeatmapID:303115
BeatmapSetID:117678

[Difficulty]
HPDrainRate:5
CircleSize:4
OverallDifficulty:6
ApproachRate:7
SliderMultiplier:1.8
SliderTickRate:2

[Events]
//Background and Video events
0,0,"BG.jpg",0,0
//Break Periods
//Storyboard Layer 0 (Background)
//Storyboard Layer 1 (Fail)
//Storyboard Layer 2 (Pass)
//Storyboard Layer 3 (Foreground)
//Storyboard Sound Samples
//Background Colour Transformations
3,100,0,0,0

[TimingPoints]
12,468.75,4,2,1,20,1,0
1887,-100,4,2,1,70,0,0
3293,-100,4,2,1,55,0,0
7277,-100,4,2,1,70,0,0
9387,-100,4,2,1,80,0,1
15012,-100,4,2,1,50,0,1
15715,-100,4,2,1,50,0,0
15949,-100,4,2,1,30,0,0
16183,-100,4,2,1,40,0,0
16418,-100,4,2,1,50,0,0
16887,-100,4,2,1,70,0,0
24387,-100,4,2,1,70,0,0
29777,-100,4,2,1,40,0,0
31887,-100,4,2,1,60,0,0
46887,-100,4,2,1,70,0,0
54855,-117.647058823529,4,2,1,70,0,0
55324,-142.857142857143,4,2,1,70,0,0
56730,-117.647058823529,4,2,1,70,0,0
57199,-100,4,2,1,70,0,0
61887,-100,4,2,1,80,0,1
75012,-100,4,2,1,80,0,0
75480,-100,4,2,2,80,0,0
75597,-100,4,2,1,80,0,0
76887,-100,4,2,1,80,0,1
90715,-90.9090909090909,4,2,1,50,0,0

[Colours]
Combo1 : 17,255,23
Combo2 : 253,239,62
Combo3 : 78,90,245
Combo4 : 255,40,46

[HitObjects]
256,192,480,12,4,1887,0:0:0:0:
256,276,2355,5,0,0:0:0:0:
336,320,2590,2,0,P|400:325|452:276,2,135,2|2|2,0:0|0:0|0:0,0:0:0:0:
256,276,3527,1,0,0:0:0:0:
176,320,3762,6,0,P|112:325|60:276,1,135,2|2,0:0|0:0,0:0:0:0:
52,252,4230,2,0,P|48:212|80:172,1,90,0|2,0:0|0:0,0:0:0:0:
76,173,4933,1,0,0:0:0:0:
140,112,5168,1,0,0:0:0:0:
52,88,5402,1,0,0:0:0:0:
168,200,5637,6,0,L|260:192,1,90,2|0,0:0|0:0,0:0:0:0:
372,268,6105,1,2,0:0:0:0:
372,268,6222,2,0,L|282:275,1,90,0|0,0:0|0:0,0:0:0:0:
256,256,6574,2,0,P|219:201|233:136,2,135,2|2|2,0:0|0:0|0:0,0:0:0:0:
308,184,7512,6,0,P|320:112|284:64,1,135,2|2,0:0|0:0,0:0:0:0:
256,48,7980,2,0,P|212:60|172:40,1,90,0|2,0:0|0:0,0:0:0:0:
173,41,8683,1,0,0:0:0:0:
120,116,8918,1,0,0:0:0:0:
128,204,9152,1,0,0:0:0:0:
180,276,9387,6,0,P|200:316|192:368,2,90,4|0|8,0:0|0:0|0:0,0:0:0:0:
128,204,10090,2,0,P|208:228|272:168,1,180,2|2,0:0|0:0,0:0:0:0:
284,76,10793,1,8,0:0:0:0:
200,112,11027,1,0,0:0:0:0:
272,168,11262,6,0,P|320:164|356:128,2,90,0|0|8,3:0|0:0|0:0,0:0:0:0:
200,112,11965,2,0,P|268:164|253:251,1,180,2|2,0:0|0:0,0:0:0:0:
184,304,12668,1,8,0:0:0:0:
255,249,12902,2,0,P|300:248|340:272,1,90,2|0,0:0|0:0,0:0:0:0:
256,192,13371,12,0,15012,1:0:0:0:
256,336,15363,6,0,B|260:296|260:296|252:244|252:244|256:200,1,135,0|0,1:0|1:0,0:0:0:0:
268,112,15949,2,0,P|268:88|260:64,7,45,0|0|0|0|0|0|0|0,1:0|1:0|1:0|1:0|1:0|1:0|1:0|1:0,0:0:0:0:
232,32,16887,6,0,P|204:20|144:28,1,90,4|2,0:0|0:0,0:0:0:0:
80,88,17355,2,0,P|68:116|76:176,1,90,0|2,1:0|0:0,0:0:0:0:
108,260,17824,2,0,P|116:303|102:345,1,90,4|0,0:3|0:0,0:0:0:0:
24,300,18293,2,0,P|16:284|16:244,2,45,0|0|2,1:0|0:0|0:0,0:0:0:0:
102,345,18762,6,0,P|144:360|192:352,1,90,0|2,0:0|0:0,0:0:0:0:
272,324,19230,2,0,P|316:317|358:331,1,90,0|2,1:0|0:0,0:0:0:0:
436,380,19699,2,0,P|450:337|443:293,1,90,4|0,0:3|0:0,0:0:0:0:
368,200,20168,2,0,P|364:228|368:252,2,45,0|0|2,1:0|0:0|0:0,0:0:0:0:
404,116,20637,6,0,L|412:24,1,90,0|2,0:0|0:0,0:0:0:0:
312,124,21105,2,0,L|308:34,1,90,0|2,1:0|0:0,0:0:0:0:
220,132,21574,2,0,B|200:104|208:64|208:64|192:84,1,90,4|0,0:3|0:0,0:0:0:0:
128,140,22043,1,0,1:0:0:0:
64,204,22277,6,0,P|36:260|100:344,1,180,2|2,0:0|0:0,0:0:0:0:
192,348,22980,1,0,1:0:0:0:
268,296,23215,2,0,P|360:324|436:280,1,180,2|0,0:0|0:0,0:0:0:0:
484,212,23918,1,0,1:0:0:0:
436,136,24152,5,2,1:2:0:0:
436,136,24269,1,0,1:0:0:0:
436,136,24387,2,0,P|424:96|436:48,1,90,4|2,0:3|0:0,0:0:0:0:
344,52,24855,2,0,P|336:92|344:140,1,90,0|2,1:0|0:0,0:0:0:0:
372,228,25324,2,0,P|380:272|372:316,1,90
300,372,25793,2,0,P|276:380|252:380,2,45,0|0|2,1:0|0:0|0:0,0:0:0:0:
184,336,26262,6,0,P|140:320|96:328,1,90,0|2,0:0|0:0,0:0:0:0:
40,260,26730,2,0,P|24:216|32:172,1,90,0|2,1:0|0:0,0:0:0:0:
84,100,27199,2,0,P|128:84|172:92,1,90,4|0,0:3|0:0,0:0:0:0:
232,156,27668,2,0,P|241:177|240:204,2,45,0|0|2,1:0|0:0|0:0,0:0:0:0:
260,72,28137,6,0,P|308:72|344:48,1,90,0|2,0:0|0:0,0:0:0:0:
424,88,28605,2,0,P|424:136|448:172,1,90,0|2,1:0|0:0,0:0:0:0:
416,256,29074,2,0,P|368:256|332:280,1,90,4|0,0:3|0:0,0:0:0:0:
256,240,29543,1,0,1:0:0:0:
212,164,29777,6,0,P|172:216|224:324,1,180,2|2,0:0|0:0,0:0:0:0:
256,240,30480,1,0,0:0:0:0:
304,315,30715,2,0,P|343:238|300:164,1,180,2|2,0:0|0:0,0:0:0:0:
299,163,31887,5,0,0:0:0:0:
364,100,32121,2,0,P|396:80|448:80,2,90,0|2|0,0:0|0:0|0:0,0:0:0:0:
424,168,32824,1,0,0:0:0:0:
487,232,33058,2,0,P|507:264|507:316,2,90,0|2|0,0:0|0:0|0:0,0:0:0:0:
424,296,33762,5,0,0:0:0:0:
359,359,33996,2,0,P|327:379|275:379,2,90,0|2|0,0:0|0:0|0:0,0:0:0:0:
300,292,34699,1,0,0:0:0:0:
236,228,34933,2,0,P|216:196|216:144,2,90,0|2|0,0:0|0:0|0:0,0:0:0:0:
304,168,35637,5,0,0:0:0:0:
280,80,35871,1,0,0:0:0:0:
280,80,36105,2,0,P|244:56|196:56,1,90,2|0,0:0|0:0,0:0:0:0:
215,144,36574,1,0,0:0:0:0:
152,208,36808,1,0,0:0:0:0:
152,208,37042,2,0,P|188:232|236:232,1,90,2|0,0:0|0:0,0:0:0:0:
304,168,37512,5,0,0:0:0:0:
384,204,37746,1,0,0:0:0:0:
440,272,37980,2,0,P|452:324|432:364,1,90,2|0,0:0|0:0,0:0:0:0:
308,340,38449,2,0,P|296:288|316:248,1,90,2|0,0:0|0:0,0:0:0:0:
384,204,38918,2,0,P|396:161|382:119,1,90,2|2,0:0|0:0,0:0:0:0:
328,48,39387,5,0,0:0:0:0:
240,32,39621,1,0,0:0:0:0:
156,68,39855,2,0,L|240:32,1,90,2|0,0:0|0:0,0:0:0:0:
232,124,40324,1,0,0:0:0:0:
184,200,40558,1,0,0:0:0:0:
100,236,40792,2,0,L|184:200,1,90,2|0,0:0|0:0,0:0:0:0:
112,144,41262,5,0,0:0:0:0:
32,180,41496,1,0,0:0:0:0:
32,180,41730,2,0,P|16:208|20:272,1,90,2|0,0:0|0:0,0:0:0:0:
84,324,42199,1,0,0:0:0:0:
172,308,42433,2,0,P|216:304|260:328,2,90,0|2|0,0:0|0:0|0:0,0:0:0:0:
128,228,43137,6,0,P|104:152|160:72,1,180,2|0,0:0|0:0,0:0:0:0:
288,104,43840,2,0,P|312:180|256:260,1,180,2|0,0:0|0:0,0:0:0:0:
180,300,44543,2,0,P|132:288|96:304,2,90,2|0|2,0:0|0:0|0:0,0:0:0:0:
256,192,45129,12,8,46418,1:2:0:0:
64,344,46887,6,0,P|80:308|68:260,1,90,4|2,0:0|0:0,0:0:0:0:
20,184,47355,2,0,P|3:142|15:100,2,90,0|2|0,1:0|0:0|0:0,0:0:0:0:
68,260,48058,1,2,0:0:0:0:
156,244,48293,2,0,P|197:260|239:248,1,90,0|0,1:0|0:0,0:0:0:0:
308,196,48762,6,0,P|324:237|316:284,1,90,0|2,0:0|0:0,0:0:0:0:
239,248,49230,1,0,1:0:0:0:
228,164,49465,2,0,B|240:120|288:108|288:108|324:64|296:20,1,180,2|2,0:0|0:0,0:0:0:0:
216,52,50168,2,0,P|168:56|128:32,1,90,0|0,1:0|0:0,0:0:0:0:
68,92,50637,6,0,P|47:131|52:175,1,90,0|2,0:0|0:0,0:0:0:0:
116,232,51105,2,0,P|137:271|132:315,1,90,0|2,1:0|0:0,0:0:0:0:
24,376,51574,2,0,P|3:337|8:293,1,90,0|2,0:0|0:0,0:0:0:0:
133,315,52043,2,0,P|201:327|265:247,1,180,0|0,1:0|0:0,0:0:0:0:
176,156,52746,5,2,0:0:0:0:
176,156,52863,1,0,0:0:0:0:
176,156,52980,2,0,P|168:200|180:244,1,90,0|2,1:0|0:0,0:0:0:0:
264,148,53449,2,0,P|272:104|260:60,2,90,0|2|0,0:0|0:0|1:0,0:0:0:0:
176,156,54152,1,0,0:0:0:0:
88,128,54387,6,0,L|32:200,1,90,2|0,0:0|0:0,0:0:0:0:
96,240,54855,2,0,L|60:312,1,76.5000014591217,2|0,1:2|0:0,0:0:0:0:
140,320,55324,2,0,L|124:380,1,62.9999980773926,2|0,0:0|0:0,0:0:0:0:
123,380,55793,1,2,1:2:0:0:
388,380,56262,6,0,L|372:320,1,62.9999980773926,2|0,0:0|0:0,0:0:0:0:
450,308,56730,2,0,L|416:240,1,76.5000014591217,2|0,1:2|0:0,0:0:0:0:
479,199,57199,2,0,L|424:128,1,90,2|0,0:0|0:0,0:0:0:0:
368,60,57668,1,2,1:2:0:0:
332,140,57902,1,0,0:0:0:0:
256,188,58137,6,0,B|256:120|256:120|160:92|80:224|140:324|240:380|372:340|400:204|332:140,1,630,2|0,0:0|0:0,0:0:0:0:
256,188,60012,1,2,0:0:0:0:
256,192,60129,12,4,61887,0:0:0:0:
452,204,62355,5,0,1:0:0:0:
368,236,62590,2,0,B|356:180|384:148|384:148|376:92|320:104,1,180,2|2,0:0|0:0,0:0:0:0:
252,160,63293,2,0,P|211:177|168:168,1,90,0|0,1:0|0:0,0:0:0:0:
52,56,63762,6,0,P|87:82|101:124,1,90,0|0,0:0|0:0,2:0:0:0:
88,168,64113,2,0,P|48:228|60:296,1,135,2|2,0:0|0:0,0:0:0:0:
184,336,64699,2,0,P|204:288|196:248,1,90,0|2,0:0|0:0,0:0:0:0:
288,244,65168,2,0,P|277:200|246:169,1,90,0|0,1:0|0:0,0:0:0:0:
197,251,65637,5,0,0:0:0:0:
256,320,65871,2,0,L|352:348,1,90,2|0,0:0|1:0,0:0:0:0:
376,260,66340,2,0,L|480:228,1,90,2|0,0:0|0:0,0:0:0:0:
456,148,66808,2,0,L|512:76,1,90,2|0,0:0|1:0,0:0:0:0:
448,12,67277,1,0,0:0:0:0:
376,64,67512,6,0,P|328:76|292:60,1,90,0|0,0:0|0:0,0:0:0:0:
256,36,67863,2,0,P|180:32|144:80,1,135,2|2,0:0|0:0,0:0:0:0:
140,208,68449,1,0,0:0:0:0:
204,144,68683,1,2,0:0:0:0:
145,73,68918,1,0,1:0:0:0:
84,140,69152,2,0,P|68:160|64:188,1,45,0|0,1:0|1:0,0:0:0:0:
70,205,69387,6,0,B|96:216|106:234|106:234|116:216|140:208,1,90,0|2,0:0|0:0,0:0:0:0:
204,144,69855,1,0,1:0:0:0:
224,232,70090,2,0,B|257:287|208:340|208:340|180:316|196:280,1,180,2|2,0:0|0:0,0:0:0:0:
288,168,70793,2,0,P|324:152|376:160,1,90,0|0,1:0|0:0,0:0:0:0:
492,268,71262,6,0,P|460:244|441:195,1,90,0|0,0:0|0:0,0:0:0:0:
452,156,71613,2,0,P|492:96|480:32,1,135,2|2,0:0|0:0,0:0:0:0:
404,80,72199,1,0,0:0:0:0:
360,160,72433,5,2,0:0:0:0:
324,40,72668,1,0,1:0:0:0:
204,80,72902,2,0,B|188:60|196:32|196:32|112:12|88:80,1,180,0|2,0:0|0:0,0:0:0:0:
92,164,73605,1,0,1:0:0:0:
112,252,73840,6,0,B|152:244|168:212|168:212|232:228|224:292,1,180,2|2,0:0|0:0,0:0:0:0:
284,360,74543,1,0,1:0:0:0:
356,308,74777,1,0,0:0:0:0:
392,224,75012,6,0,P|408:160|372:100,2,135,0|0|0,0:0|0:0|0:0,0:0:0:0:
392,224,76183,1,0,1:0:0:0:
316,276,76418,1,0,1:0:0:0:
228,288,76652,2,0,P|208:308|192:316,1,45,0|0,1:0|1:0,0:0:0:0:
156,324,76887,6,0,P|108:320|76:292,1,90,4|0,0:0|0:0,0:0:0:0:
60,204,77355,1,0,1:0:0:0:
144,236,77590,2,0,B|156:180|128:148|128:148|136:92|192:104,1,180,2|2,0:0|0:0,0:0:0:0:
260,160,78293,2,0,P|301:177|344:168,1,90,0|0,1:0|0:0,0:0:0:0:
460,56,78762,6,0,P|425:82|411:124,1,90,0|0,0:0|0:0,2:0:0:0:
424,168,79113,2,0,P|464:228|452:296,1,135,2|2,0:0|0:0,0:0:0:0:
328,336,79699,2,0,P|308:288|316:248,1,90,0|2,0:0|0:0,0:0:0:0:
224,244,80168,2,0,P|235:200|266:169,1,90,0|0,1:0|0:0,0:0:0:0:
315,251,80637,5,0,0:0:0:0:
256,320,80871,2,0,L|160:348,1,90,2|0,0:0|1:0,0:0:0:0:
136,260,81340,2,0,L|32:228,1,90,2|0,0:0|0:0,0:0:0:0:
56,148,81808,2,0,L|0:76,1,90,2|0,0:0|1:0,0:0:0:0:
64,12,82277,1,0,0:0:0:0:
136,64,82512,6,0,P|184:76|220:60,1,90,0|0,0:0|0:0,0:0:0:0:
256,36,82863,2,0,P|332:32|368:80,1,135,2|2,0:0|0:0,0:0:0:0:
372,208,83449,1,0,0:0:0:0:
308,144,83683,1,2,0:0:0:0:
367,73,83918,1,0,1:0:0:0:
428,140,84152,2,0,P|444:160|448:188,1,45,0|0,1:0|1:0,0:0:0:0:
442,205,84387,6,0,B|416:216|406:234|406:234|396:216|372:208,1,90,0|2,0:0|0:0,0:0:0:0:
308,144,84855,1,0,1:0:0:0:
288,232,85090,2,0,B|255:287|304:340|304:340|332:316|316:280,1,180,2|2,0:0|0:0,0:0:0:0:
224,168,85793,2,0,P|188:152|136:160,1,90,0|0,1:0|0:0,0:0:0:0:
20,268,86262,6,0,P|52:244|71:195,1,90,0|0,0:0|0:0,0:0:0:0:
60,156,86613,2,0,P|20:96|32:32,1,135,2|2,0:0|0:0,0:0:0:0:
108,80,87199,1,0,0:0:0:0:
152,160,87433,5,2,0:0:0:0:
188,40,87668,1,0,1:0:0:0:
152,160,87902,2,0,B|168:180|160:208|160:208|180:212|195:195,1,90,0|2,0:0|0:0,0:0:0:0:
256,192,88254,12,2,90715,1:2:0:0:
