osu file format v14

[General]
AudioFilename: audio.mp3
AudioLeadIn: 0
PreviewTime: -1
Countdown: 1
SampleSet: None
StackLeniency: 0.7
Mode: 1
LetterboxInBreaks: 1
WidescreenStoryboard: 0

[Editor]
DistanceSpacing: 0.5
BeatDivisor: 4
GridSize: 4
TimelineZoom: 2.799999

[Metadata]
Title:Kimi ga Kimi ga -vocanico remix-
TitleUnicode:君が君が -vocanico remix-
Artist:baker
ArtistUnicode:baker
Creator:raii
Version:only you.
Source:
Tags:
BeatmapID:1558235
BeatmapSetID:738350

[Difficulty]
HPDrainRate:5
CircleSize:3
OverallDifficulty:5
ApproachRate:5
SliderMultiplier:1.4
SliderTickRate:1

[Events]
//Background and Video events
0,0,"doogdone copy.jpg",0,0
//Break Periods
2,842,10540
//Storyboard Layer 0 (Background)
//Storyboard Layer 1 (Fail)
//Storyboard Layer 2 (Pass)
//Storyboard Layer 3 (Foreground)
//Storyboard Sound Samples

[TimingPoints]
642,346.820809248555,4,1,0,100,1,0
89428,-98.0392156862745,4,1,0,100,0,1
111624,-100,4,1,0,100,0,0
144919,-98.0392156862745,4,1,0,100,0,1
189312,-102.040816326531,4,1,0,100,0,0

[HitObjects]
136,88,642,5,2,0:0:0:0:
152,96,11740,5,0,0:0:0:0:
256,192,14168,12,0,16942,0:0:0:0:
152,92,17289,5,0,0:0:0:0:
152,92,17983,1,2,0:0:0:0:
152,92,18156,1,0,0:0:0:0:
152,92,18503,1,0,0:0:0:0:
152,92,18850,1,0,0:0:0:0:
152,92,19023,1,0,0:0:0:0:
152,92,19370,1,2,0:0:0:0:
152,92,19717,1,2,0:0:0:0:
152,92,20063,1,2,0:0:0:0:
152,92,20237,1,0,0:0:0:0:
152,92,20410,1,2,0:0:0:0:
152,92,20584,1,0,0:0:0:0:
152,92,20757,1,2,0:0:0:0:
152,92,20931,1,0,0:0:0:0:
152,92,21104,1,2,0:0:0:0:
152,92,21277,1,2,0:0:0:0:
152,92,21451,1,0,0:0:0:0:
152,92,21537,1,0,0:0:0:0:
152,92,21624,1,0,0:0:0:0:
152,92,21711,1,0,0:0:0:0:
152,92,21798,1,2,0:0:0:0:
152,92,21884,1,0,0:0:0:0:
152,92,21971,1,0,0:0:0:0:
152,92,22058,1,0,0:0:0:0:
152,92,22144,1,2,0:0:0:0:
152,92,22231,1,0,0:0:0:0:
152,92,22318,1,0,0:0:0:0:
152,92,22405,1,0,0:0:0:0:
152,92,22491,1,2,0:0:0:0:
152,92,22838,1,0,0:0:0:0:
152,92,23185,1,2,0:0:0:0:
152,92,23358,1,0,0:0:0:0:
152,92,23705,1,0,0:0:0:0:
152,92,23878,1,2,0:0:0:0:
152,92,24225,1,0,0:0:0:0:
152,92,24485,1,0,0:0:0:0:
152,92,24571,1,2,0:0:0:0:
152,92,24746,1,0,0:0:0:0:
152,92,25092,1,0,0:0:0:0:
152,92,25266,1,2,0:0:0:0:
152,92,25613,1,0,0:0:0:0:
152,92,25959,1,2,0:0:0:0:
152,92,26133,1,0,0:0:0:0:
152,92,26480,1,0,0:0:0:0:
152,92,26653,1,2,0:0:0:0:
152,92,27000,1,0,0:0:0:0:
152,92,27260,1,0,0:0:0:0:
152,92,27347,1,2,0:0:0:0:
152,92,27520,1,0,0:0:0:0:
152,92,27867,1,0,0:0:0:0:
152,92,28040,1,2,0:0:0:0:
152,92,28387,1,2,0:0:0:0:
152,92,28647,1,0,0:0:0:0:
152,92,28734,1,2,0:0:0:0:
152,92,28907,1,0,0:0:0:0:
152,92,29168,1,2,0:0:0:0:
152,92,29254,1,0,0:0:0:0:
152,92,29428,1,2,0:0:0:0:
152,92,29774,1,0,0:0:0:0:
152,92,29948,1,2,0:0:0:0:
152,92,30034,1,2,0:0:0:0:
152,92,30121,1,0,0:0:0:0:
144,92,30295,1,0,0:0:0:0:
144,88,30642,1,0,0:0:0:0:
144,88,30815,1,2,0:0:0:0:
144,88,31162,1,0,0:0:0:0:
144,88,31335,1,2,0:0:0:0:
144,88,31421,1,0,0:0:0:0:
144,88,31508,1,2,0:0:0:0:
144,88,31682,1,0,0:0:0:0:
140,84,32029,1,0,0:0:0:0:
144,88,32202,1,2,0:0:0:0:
144,88,32549,1,2,0:0:0:0:
144,88,32722,1,0,0:0:0:0:
144,88,32896,1,0,0:0:0:0:
144,88,33069,1,2,0:0:0:0:
144,88,33243,1,0,0:0:0:0:
144,88,33416,1,0,0:0:0:0:
144,88,33589,1,2,0:0:0:0:
144,88,33676,1,2,0:0:0:0:
144,88,33763,1,2,0:0:0:0:
144,88,33850,1,2,0:0:0:0:
144,88,33936,1,0,0:0:0:0:
136,88,34110,1,0,0:0:0:0:
136,88,34283,1,2,0:0:0:0:
136,88,34457,1,0,0:0:0:0:
136,88,34803,1,0,0:0:0:0:
136,88,34890,1,0,0:0:0:0:
136,88,34977,1,2,0:0:0:0:
136,88,35150,1,0,0:0:0:0:
136,88,35324,1,2,0:0:0:0:
136,88,35497,1,0,0:0:0:0:
136,88,35670,1,0,0:0:0:0:
136,88,35844,1,2,0:0:0:0:
136,88,36191,1,0,0:0:0:0:
136,88,36364,1,2,0:0:0:0:
136,88,36451,1,2,0:0:0:0:
136,88,36537,1,2,0:0:0:0:
136,88,36624,1,2,0:0:0:0:
136,88,36711,1,0,0:0:0:0:
136,88,36884,1,2,0:0:0:0:
136,88,37058,1,0,0:0:0:0:
136,88,37231,1,2,0:0:0:0:
136,88,37578,1,2,0:0:0:0:
136,88,37665,1,0,0:0:0:0:
136,88,37751,1,2,0:0:0:0:
136,88,37925,1,0,0:0:0:0:
136,88,38098,1,2,0:0:0:0:
136,88,38272,1,0,0:0:0:0:
136,88,38445,1,0,0:0:0:0:
136,88,38618,1,2,0:0:0:0:
136,88,38965,1,2,0:0:0:0:
136,88,39052,1,0,0:0:0:0:
136,88,39139,1,2,0:0:0:0:
136,88,39312,1,0,0:0:0:0:
136,88,39485,1,2,0:0:0:0:
136,88,39659,1,0,0:0:0:0:
136,88,39832,1,0,0:0:0:0:
136,88,40006,1,2,0:0:0:0:
136,88,40352,1,0,0:0:0:0:
136,88,40699,1,0,0:0:0:0:
132,92,40873,1,2,0:0:0:0:
132,92,40959,1,2,0:0:0:0:
132,92,41046,1,0,0:0:0:0:
136,88,41220,1,0,0:0:0:0:
136,88,41393,1,2,0:0:0:0:
136,88,41740,1,0,0:0:0:0:
136,88,41826,1,0,0:0:0:0:
136,88,41913,1,2,0:0:0:0:
136,88,42000,1,0,0:0:0:0:
136,88,42087,1,2,0:0:0:0:
136,88,42260,1,2,0:0:0:0:
136,88,42347,1,2,0:0:0:0:
132,92,42433,1,0,0:0:0:0:
132,92,42607,1,0,0:0:0:0:
136,88,42780,1,2,0:0:0:0:
136,88,42954,1,0,0:0:0:0:
136,88,43127,1,0,0:0:0:0:
136,88,43300,1,2,0:0:0:0:
136,88,43474,1,0,0:0:0:0:
128,88,43647,1,0,0:0:0:0:
128,88,43821,1,2,0:0:0:0:
132,92,43994,1,0,0:0:0:0:
132,92,44168,1,0,0:0:0:0:
136,88,44254,1,0,0:0:0:0:
136,88,44341,1,2,0:0:0:0:
136,88,44514,1,0,0:0:0:0:
136,88,44688,1,2,0:0:0:0:
136,88,44774,1,2,0:0:0:0:
136,88,44861,1,2,0:0:0:0:
136,88,44948,1,2,0:0:0:0:
136,88,45035,1,0,0:0:0:0:
136,88,45381,1,2,0:0:0:0:
132,92,45728,1,0,0:0:0:0:
136,88,46075,1,2,0:0:0:0:
136,88,46422,1,0,0:0:0:0:
136,88,46769,1,2,0:0:0:0:
136,88,46942,1,0,0:0:0:0:
132,92,47289,1,0,0:0:0:0:
136,88,47462,1,2,0:0:0:0:
136,88,47809,1,0,0:0:0:0:
136,88,48156,1,2,0:0:0:0:
132,92,48503,1,0,0:0:0:0:
132,92,48850,1,2,0:0:0:0:
136,88,49196,1,0,0:0:0:0:
136,88,49543,1,2,0:0:0:0:
136,88,49717,1,0,0:0:0:0:
132,92,50063,1,0,0:0:0:0:
132,92,50237,1,2,0:0:0:0:
136,88,50584,1,0,0:0:0:0:
136,88,50757,1,2,0:0:0:0:
136,88,50844,1,2,0:0:0:0:
136,88,50931,1,0,0:0:0:0:
136,88,51104,1,0,0:0:0:0:
132,92,51451,1,0,0:0:0:0:
132,92,51624,1,2,0:0:0:0:
136,88,51971,1,0,0:0:0:0:
136,88,52318,1,2,0:0:0:0:
136,88,52491,1,0,0:0:0:0:
132,92,52838,1,0,0:0:0:0:
132,92,53011,1,2,0:0:0:0:
132,92,53098,1,2,0:0:0:0:
132,92,53185,1,2,0:0:0:0:
128,88,53272,1,2,0:0:0:0:
128,88,53358,1,0,0:0:0:0:
136,88,53705,1,2,0:0:0:0:
132,92,54225,1,0,0:0:0:0:
132,92,54399,1,2,0:0:0:0:
132,92,54746,1,2,0:0:0:0:
136,92,54919,1,0,0:0:0:0:
136,88,55092,1,0,0:0:0:0:
136,88,55266,1,2,0:0:0:0:
132,92,55439,1,0,0:0:0:0:
132,92,55613,1,0,0:0:0:0:
132,92,55786,1,2,0:0:0:0:
132,92,55873,1,2,0:0:0:0:
132,92,55959,1,2,0:0:0:0:
132,92,56046,1,2,0:0:0:0:
132,92,56133,1,0,0:0:0:0:
136,92,56480,1,2,0:0:0:0:
136,88,56653,1,0,0:0:0:0:
132,92,57000,1,0,0:0:0:0:
132,92,57087,1,0,0:0:0:0:
132,92,57173,1,2,0:0:0:0:
132,92,57347,1,0,0:0:0:0:
132,92,57520,1,0,0:0:0:0:
136,92,57867,1,2,0:0:0:0:
132,92,58214,1,0,0:0:0:0:
132,92,58561,1,2,0:0:0:0:
136,96,58647,1,2,0:0:0:0:
132,92,58734,1,0,0:0:0:0:
136,96,58907,1,0,0:0:0:0:
136,100,59254,1,2,0:0:0:0:
132,96,59428,1,0,0:0:0:0:
132,92,59774,1,0,0:0:0:0:
132,92,59861,1,0,0:0:0:0:
132,92,59948,1,2,0:0:0:0:
132,92,60121,1,2,0:0:0:0:
132,92,60295,1,0,0:0:0:0:
136,100,60642,1,2,0:0:0:0:
132,96,60988,1,0,0:0:0:0:
132,96,61075,1,0,0:0:0:0:
132,96,61162,1,0,0:0:0:0:
132,96,61335,1,2,0:0:0:0:
132,92,61509,1,2,0:0:0:0:
132,92,61682,1,0,0:0:0:0:
136,100,62029,1,2,0:0:0:0:
132,96,62376,1,0,0:0:0:0:
132,96,62722,1,2,0:0:0:0:
132,96,62896,1,0,0:0:0:0:
128,96,63243,1,0,0:0:0:0:
128,96,63416,1,2,0:0:0:0:
132,96,63763,1,2,0:0:0:0:
132,96,63850,1,2,0:0:0:0:
132,96,63936,1,2,0:0:0:0:
132,96,64110,1,0,0:0:0:0:
132,96,64457,1,0,0:0:0:0:
128,96,64803,1,2,0:0:0:0:
132,96,65150,1,2,0:0:0:0:
132,96,65324,1,0,0:0:0:0:
132,96,65497,1,2,0:0:0:0:
132,96,65670,1,0,0:0:0:0:
132,96,65844,1,2,0:0:0:0:
132,96,66017,1,0,0:0:0:0:
128,96,66191,1,2,0:0:0:0:
128,96,66364,1,0,0:0:0:0:
132,96,66537,1,2,0:0:0:0:
132,96,66624,1,0,0:0:0:0:
132,96,66711,1,0,0:0:0:0:
132,96,66884,1,2,0:0:0:0:
132,96,66971,1,2,0:0:0:0:
132,96,67058,1,2,0:0:0:0:
132,96,67144,1,2,0:0:0:0:
132,96,67231,1,0,0:0:0:0:
132,96,67578,1,2,0:0:0:0:
128,96,68098,1,0,0:0:0:0:
132,96,68271,1,2,0:0:0:0:
132,96,68618,1,0,0:0:0:0:
132,96,68965,1,2,0:0:0:0:
132,96,69139,1,0,0:0:0:0:
128,96,69485,1,2,0:0:0:0:
128,96,69572,1,2,0:0:0:0:
128,96,69659,1,2,0:0:0:0:
132,96,69832,1,2,0:0:0:0:
132,96,70006,1,0,0:0:0:0:
132,96,70352,1,2,0:0:0:0:
132,96,70526,1,0,0:0:0:0:
128,96,71046,1,2,0:0:0:0:
128,96,71220,1,2,0:0:0:0:
128,100,71740,1,0,0:0:0:0:
128,96,72260,1,0,0:0:0:0:
128,96,72433,1,2,0:0:0:0:
128,96,72607,1,2,0:0:0:0:
128,96,72780,1,0,0:0:0:0:
128,100,73127,1,2,0:0:0:0:
128,96,73474,1,0,0:0:0:0:
128,96,73561,1,0,0:0:0:0:
128,96,73647,1,0,0:0:0:0:
128,96,73821,1,2,0:0:0:0:
128,96,73994,1,2,0:0:0:0:
128,96,74168,1,0,0:0:0:0:
128,100,74514,1,2,0:0:0:0:
128,96,74861,1,0,0:0:0:0:
128,96,75208,1,2,0:0:0:0:
128,96,75381,1,2,0:0:0:0:
128,96,75555,1,0,0:0:0:0:
128,100,75902,1,2,0:0:0:0:
120,96,76248,1,0,0:0:0:0:
120,96,76335,1,0,0:0:0:0:
120,96,76422,1,0,0:0:0:0:
120,96,76595,1,2,0:0:0:0:
120,96,76769,1,0,0:0:0:0:
120,96,76942,1,2,0:0:0:0:
120,96,77115,1,0,0:0:0:0:
128,100,77289,1,0,0:0:0:0:
128,100,77462,1,2,0:0:0:0:
120,96,77636,1,0,0:0:0:0:
120,96,77809,1,0,0:0:0:0:
112,96,77983,1,2,0:0:0:0:
120,96,78069,1,2,0:0:0:0:
120,96,78156,1,2,0:0:0:0:
120,96,78243,1,2,0:0:0:0:
120,96,78329,1,0,0:0:0:0:
120,96,78676,1,2,0:0:0:0:
120,96,79370,1,2,0:0:0:0:
120,96,80063,1,2,0:0:0:0:
120,96,80757,1,2,0:0:0:0:
120,96,80931,1,2,0:0:0:0:
120,96,81104,1,0,0:0:0:0:
120,96,81451,1,2,0:0:0:0:
120,96,82144,1,2,0:0:0:0:
120,96,82838,1,2,0:0:0:0:
120,96,82925,1,2,0:0:0:0:
120,96,83011,1,0,0:0:0:0:
120,96,83185,1,2,0:0:0:0:
120,96,83358,1,2,0:0:0:0:
120,96,83532,1,2,0:0:0:0:
120,96,83705,1,2,0:0:0:0:
120,96,83878,1,0,0:0:0:0:
120,96,84225,1,2,0:0:0:0:
120,96,84572,1,2,0:0:0:0:
120,96,84746,1,0,0:0:0:0:
120,96,85092,1,0,0:0:0:0:
120,96,85439,1,0,0:0:0:0:
120,96,85613,1,0,0:0:0:0:
120,96,85959,1,2,0:0:0:0:
120,96,86306,1,2,0:0:0:0:
120,96,86480,1,0,0:0:0:0:
120,96,86653,1,0,0:0:0:0:
120,96,86740,1,0,0:0:0:0:
120,96,86826,1,2,0:0:0:0:
120,96,87000,1,0,0:0:0:0:
128,96,87173,1,2,0:0:0:0:
120,96,87347,1,0,0:0:0:0:
128,96,87433,1,2,0:0:0:0:
128,96,87520,1,0,0:0:0:0:
120,96,87694,1,0,0:0:0:0:
120,96,87867,1,2,0:0:0:0:
120,96,88040,1,0,0:0:0:0:
120,96,88127,1,2,0:0:0:0:
120,96,88214,1,0,0:0:0:0:
120,96,88300,1,0,0:0:0:0:
120,96,88387,1,2,0:0:0:0:
120,96,88474,1,0,0:0:0:0:
120,96,88561,1,2,0:0:0:0:
120,100,88734,1,2,0:0:0:0:
120,96,88821,1,0,0:0:0:0:
120,96,88907,1,0,0:0:0:0:
120,100,88994,1,0,0:0:0:0:
120,100,89081,1,2,0:0:0:0:
120,96,89168,1,2,0:0:0:0:
120,96,89254,1,0,0:0:0:0:
120,96,89428,1,6,0:0:0:0:
120,96,89774,1,2,0:0:0:0:
120,96,89948,1,0,0:0:0:0:
120,96,90035,1,0,0:0:0:0:
120,96,90121,1,2,0:0:0:0:
120,100,90295,1,0,0:0:0:0:
120,96,90468,1,2,0:0:0:0:
120,100,90642,1,2,0:0:0:0:
120,96,90728,1,2,0:0:0:0:
120,96,90815,1,0,0:0:0:0:
120,96,91162,1,2,0:0:0:0:
120,96,91335,1,0,0:0:0:0:
120,96,91509,1,2,0:0:0:0:
120,96,91595,1,2,0:0:0:0:
120,96,91682,1,0,0:0:0:0:
120,100,91855,1,0,0:0:0:0:
120,96,92029,1,2,0:0:0:0:
120,100,92202,1,0,0:0:0:0:
120,96,92289,1,0,0:0:0:0:
120,96,92376,1,2,0:0:0:0:
120,96,92462,1,0,0:0:0:0:
120,96,92549,1,2,0:0:0:0:
120,96,92896,1,2,0:0:0:0:
120,96,93069,1,0,0:0:0:0:
120,96,93243,1,2,0:0:0:0:
120,96,93589,1,0,0:0:0:0:
120,100,93763,1,0,0:0:0:0:
120,96,93936,1,0,0:0:0:0:
120,96,94023,1,0,0:0:0:0:
120,96,94110,1,2,0:0:0:0:
120,96,94283,1,2,0:0:0:0:
120,96,94457,1,0,0:0:0:0:
124,100,94630,1,2,0:0:0:0:
120,96,94803,1,2,0:0:0:0:
120,96,94890,1,2,0:0:0:0:
120,96,94977,1,0,0:0:0:0:
120,100,95324,1,2,0:0:0:0:
120,96,95497,1,2,0:0:0:0:
120,96,95584,1,0,0:0:0:0:
120,96,95670,1,2,0:0:0:0:
120,96,96017,1,2,0:0:0:0:
120,96,96191,1,2,0:0:0:0:
120,96,96277,1,0,0:0:0:0:
120,96,96364,1,0,0:0:0:0:
120,100,96711,1,2,0:0:0:0:
120,100,96884,1,0,0:0:0:0:
120,96,97058,1,2,0:0:0:0:
120,96,97231,1,0,0:0:0:0:
120,96,97318,1,0,0:0:0:0:
120,96,97405,1,2,0:0:0:0:
120,96,97578,1,2,0:0:0:0:
120,96,97751,1,0,0:0:0:0:
120,100,98098,1,2,0:0:0:0:
120,100,98445,1,0,0:0:0:0:
120,96,98792,1,2,0:0:0:0:
120,96,99139,1,2,0:0:0:0:
120,96,99312,1,0,0:0:0:0:
120,100,99485,1,2,0:0:0:0:
116,92,99659,1,0,0:0:0:0:
116,92,99832,1,2,0:0:0:0:
116,92,100006,1,0,0:0:0:0:
120,96,100179,1,2,0:0:0:0:
120,96,100266,1,2,0:0:0:0:
120,96,100352,1,2,0:0:0:0:
120,96,100439,1,2,0:0:0:0:
120,96,100526,1,0,0:0:0:0:
120,100,100873,1,0,0:0:0:0:
116,92,101220,1,2,0:0:0:0:
116,92,101393,1,0,0:0:0:0:
120,96,101740,1,0,0:0:0:0:
112,96,102087,1,0,0:0:0:0:
120,100,102260,1,0,0:0:0:0:
120,100,102607,1,2,0:0:0:0:
116,92,102954,1,0,0:0:0:0:
120,96,103300,1,0,0:0:0:0:
120,96,103647,1,0,0:0:0:0:
120,100,103994,1,2,0:0:0:0:
120,100,104168,1,0,0:0:0:0:
116,92,104514,1,0,0:0:0:0:
120,96,104861,1,0,0:0:0:0:
120,96,105035,1,0,0:0:0:0:
120,100,105381,1,2,0:0:0:0:
112,96,106075,1,0,0:0:0:0:
112,96,106769,1,2,0:0:0:0:
112,96,106942,1,0,0:0:0:0:
112,96,107289,1,0,0:0:0:0:
112,96,107636,1,0,0:0:0:0:
112,96,107809,1,0,0:0:0:0:
112,96,108156,1,2,0:0:0:0:
112,96,108503,1,0,0:0:0:0:
104,96,108850,1,2,0:0:0:0:
112,96,109023,1,0,0:0:0:0:
104,96,109196,1,0,0:0:0:0:
104,96,109370,1,0,0:0:0:0:
104,96,109543,1,0,0:0:0:0:
104,96,109717,1,0,0:0:0:0:
104,96,109890,1,0,0:0:0:0:
104,96,110063,1,0,0:0:0:0:
104,96,110237,1,0,0:0:0:0:
104,88,110324,1,2,0:0:0:0:
104,96,110410,1,0,0:0:0:0:
104,88,110497,1,0,0:0:0:0:
104,88,110584,1,2,0:0:0:0:
104,88,110757,1,0,0:0:0:0:
104,88,110844,1,0,0:0:0:0:
104,88,110931,1,2,0:0:0:0:
104,88,111017,1,0,0:0:0:0:
104,88,111104,1,2,0:0:0:0:
104,96,111191,1,2,0:0:0:0:
108,88,111277,1,0,0:0:0:0:
108,88,111451,1,2,0:0:0:0:
108,88,111624,1,0,0:0:0:0:
108,88,111971,1,0,0:0:0:0:
104,88,112318,1,2,0:0:0:0:
104,88,112491,1,0,0:0:0:0:
116,88,112838,1,0,0:0:0:0:
116,88,113185,1,0,0:0:0:0:
116,88,113358,1,0,0:0:0:0:
116,88,113705,1,2,0:0:0:0:
116,88,114052,1,2,0:0:0:0:
116,88,114399,1,0,0:0:0:0:
116,88,115092,1,2,0:0:0:0:
116,88,115266,1,0,0:0:0:0:
116,88,115613,1,0,0:0:0:0:
116,88,115959,1,0,0:0:0:0:
116,88,116133,1,0,0:0:0:0:
116,88,116480,1,2,0:0:0:0:
116,88,116826,1,2,0:0:0:0:
116,88,117000,1,0,0:0:0:0:
116,88,117173,1,2,0:0:0:0:
116,88,117520,1,0,0:0:0:0:
116,88,117867,1,2,0:0:0:0:
116,88,118040,1,0,0:0:0:0:
116,88,118387,1,0,0:0:0:0:
116,88,118734,1,0,0:0:0:0:
116,88,118907,1,0,0:0:0:0:
116,88,119254,1,2,0:0:0:0:
116,88,119601,1,2,0:0:0:0:
116,88,119774,1,0,0:0:0:0:
116,88,119948,1,2,0:0:0:0:
116,88,120121,1,0,0:0:0:0:
116,88,120295,1,0,0:0:0:0:
116,88,120468,1,2,0:0:0:0:
116,88,120642,1,0,0:0:0:0:
116,88,120815,1,0,0:0:0:0:
116,88,120988,1,2,0:0:0:0:
116,88,121162,1,0,0:0:0:0:
112,96,121335,1,2,0:0:0:0:
112,96,121422,1,0,0:0:0:0:
112,96,121509,1,2,0:0:0:0:
112,96,121595,1,2,0:0:0:0:
112,96,121682,1,0,0:0:0:0:
116,88,121855,1,0,0:0:0:0:
116,88,121942,1,2,0:0:0:0:
116,88,122029,1,2,0:0:0:0:
116,88,122115,1,0,0:0:0:0:
116,88,122202,1,2,0:0:0:0:
116,88,122289,1,0,0:0:0:0:
116,88,122376,1,0,0:0:0:0:
116,88,122462,1,2,0:0:0:0:
116,88,122549,1,0,0:0:0:0:
116,88,122722,1,0,0:0:0:0:
112,96,123069,1,0,0:0:0:0:
116,88,123416,1,2,0:0:0:0:
116,88,123763,1,0,0:0:0:0:
116,88,124283,1,0,0:0:0:0:
112,96,124457,1,0,0:0:0:0:
116,88,124803,1,2,0:0:0:0:
108,88,125150,1,2,0:0:0:0:
108,88,125324,1,0,0:0:0:0:
108,88,125497,1,0,0:0:0:0:
108,88,125844,1,0,0:0:0:0:
108,88,126191,1,2,0:0:0:0:
108,88,126537,1,0,0:0:0:0:
112,88,126711,1,0,0:0:0:0:
108,88,127058,1,0,0:0:0:0:
108,88,127231,1,0,0:0:0:0:
108,88,127578,1,2,0:0:0:0:
108,88,127925,1,0,0:0:0:0:
108,88,128011,1,0,0:0:0:0:
108,88,128098,1,2,0:0:0:0:
112,88,128272,1,2,0:0:0:0:
108,88,128618,1,2,0:0:0:0:
108,88,128705,1,0,0:0:0:0:
108,88,128792,1,0,0:0:0:0:
108,88,128965,1,0,0:0:0:0:
108,88,129312,1,2,0:0:0:0:
108,88,129399,1,0,0:0:0:0:
108,88,129485,1,2,0:0:0:0:
108,88,129659,1,2,0:0:0:0:
108,88,130006,1,0,0:0:0:0:
108,88,130352,1,2,0:0:0:0:
108,88,130699,1,2,0:0:0:0:
108,88,131046,1,0,0:0:0:0:
108,88,131393,1,0,0:0:0:0:
108,88,131566,1,0,0:0:0:0:
108,88,131740,1,2,0:0:0:0:
108,88,131913,1,0,0:0:0:0:
108,88,132260,1,0,0:0:0:0:
108,88,132607,1,0,0:0:0:0:
108,88,132780,1,0,0:0:0:0:
108,88,133127,1,2,0:0:0:0:
108,88,133474,1,2,0:0:0:0:
108,88,133647,1,0,0:0:0:0:
108,88,134514,1,2,0:0:0:0:
108,88,134688,1,0,0:0:0:0:
108,88,135035,1,0,0:0:0:0:
108,88,135381,1,0,0:0:0:0:
108,88,135555,1,0,0:0:0:0:
108,88,135902,1,2,0:0:0:0:
108,88,136595,1,0,0:0:0:0:
108,88,137289,1,2,0:0:0:0:
108,88,137462,1,0,0:0:0:0:
108,88,137809,1,0,0:0:0:0:
108,88,138156,1,0,0:0:0:0:
108,88,138329,1,0,0:0:0:0:
108,88,138676,1,2,0:0:0:0:
108,88,139370,1,0,0:0:0:0:
108,88,140063,1,2,0:0:0:0:
108,88,140237,1,0,0:0:0:0:
108,88,140584,1,0,0:0:0:0:
108,88,140931,1,0,0:0:0:0:
108,88,141104,1,0,0:0:0:0:
108,88,141451,1,2,0:0:0:0:
108,88,141798,1,2,0:0:0:0:
108,88,142144,1,2,0:0:0:0:
108,88,142318,1,0,0:0:0:0:
108,88,142491,1,0,0:0:0:0:
108,88,142665,1,0,0:0:0:0:
108,88,142838,1,2,0:0:0:0:
108,88,143011,1,0,0:0:0:0:
108,88,143185,1,0,0:0:0:0:
108,88,143358,1,0,0:0:0:0:
108,88,143532,1,2,0:0:0:0:
108,88,143618,1,2,0:0:0:0:
108,88,143705,1,2,0:0:0:0:
108,88,143792,1,2,0:0:0:0:
108,88,143878,1,0,0:0:0:0:
108,88,144052,1,0,0:0:0:0:
108,88,144139,1,2,0:0:0:0:
108,88,144225,1,0,0:0:0:0:
108,88,144312,1,0,0:0:0:0:
108,88,144399,1,2,0:0:0:0:
108,88,144485,1,0,0:0:0:0:
108,88,144572,1,2,0:0:0:0:
108,88,144746,1,2,0:0:0:0:
108,88,144919,1,0,0:0:0:0:
108,88,145266,1,2,0:0:0:0:
108,88,145439,1,0,0:0:0:0:
108,88,145613,1,2,0:0:0:0:
108,88,145786,1,0,0:0:0:0:
108,88,145873,1,0,0:0:0:0:
108,88,145959,1,2,0:0:0:0:
108,88,146133,1,0,0:0:0:0:
108,88,146480,1,0,0:0:0:0:
108,88,146653,1,2,0:0:0:0:
108,88,147000,1,2,0:0:0:0:
108,88,147173,1,0,0:0:0:0:
108,88,147347,1,2,0:0:0:0:
108,88,147433,1,2,0:0:0:0:
108,88,147520,1,2,0:0:0:0:
108,88,147694,1,0,0:0:0:0:
108,88,148040,1,2,0:0:0:0:
108,88,148387,1,0,0:0:0:0:
108,88,148734,1,2,0:0:0:0:
108,88,148907,1,0,0:0:0:0:
108,88,149254,1,0,0:0:0:0:
108,88,149428,1,2,0:0:0:0:
108,88,149514,1,0,0:0:0:0:
108,88,149601,1,0,0:0:0:0:
108,88,149774,1,0,0:0:0:0:
108,88,149948,1,2,0:0:0:0:
108,88,150121,1,2,0:0:0:0:
108,88,150208,1,2,0:0:0:0:
108,88,150295,1,0,0:0:0:0:
108,88,150468,1,2,0:0:0:0:
108,88,150815,1,2,0:0:0:0:
108,88,150902,1,0,0:0:0:0:
108,88,150988,1,2,0:0:0:0:
108,88,151162,1,2,0:0:0:0:
108,88,151509,1,2,0:0:0:0:
108,88,151595,1,0,0:0:0:0:
108,88,151682,1,0,0:0:0:0:
108,88,151855,1,2,0:0:0:0:
108,88,152202,1,0,0:0:0:0:
108,88,152376,1,2,0:0:0:0:
108,88,152722,1,0,0:0:0:0:
108,88,152896,1,2,0:0:0:0:
108,88,152983,1,2,0:0:0:0:
108,88,153069,1,0,0:0:0:0:
108,88,153243,1,2,0:0:0:0:
108,88,153416,1,0,0:0:0:0:
108,88,153589,1,0,0:0:0:0:
108,88,153676,1,0,0:0:0:0:
108,88,153763,1,2,0:0:0:0:
108,88,153850,1,0,0:0:0:0:
108,88,153936,1,2,0:0:0:0:
108,88,154283,1,0,0:0:0:0:
108,88,154630,1,2,0:0:0:0:
108,88,154803,1,0,0:0:0:0:
108,88,154977,1,0,0:0:0:0:
108,88,155150,1,2,0:0:0:0:
108,88,155324,1,0,0:0:0:0:
108,88,155497,1,0,0:0:0:0:
108,88,155670,1,2,0:0:0:0:
108,88,155757,1,2,0:0:0:0:
108,88,155844,1,2,0:0:0:0:
108,88,155931,1,2,0:0:0:0:
108,88,156017,1,0,0:0:0:0:
112,80,156364,1,0,0:0:0:0:
108,88,156711,1,2,0:0:0:0:
108,88,156884,1,0,0:0:0:0:
108,88,157231,1,0,0:0:0:0:
108,88,157578,1,0,0:0:0:0:
104,88,157751,1,0,0:0:0:0:
108,88,158098,1,2,0:0:0:0:
108,88,158792,1,0,0:0:0:0:
108,88,159485,1,2,0:0:0:0:
108,88,159659,1,0,0:0:0:0:
108,88,160006,1,0,0:0:0:0:
108,88,160352,1,0,0:0:0:0:
108,88,160526,1,0,0:0:0:0:
108,88,160873,1,2,0:0:0:0:
108,88,161566,1,0,0:0:0:0:
108,88,162260,1,2,0:0:0:0:
108,88,162433,1,0,0:0:0:0:
108,88,162780,1,0,0:0:0:0:
108,88,163127,1,0,0:0:0:0:
108,88,163300,1,0,0:0:0:0:
108,88,163647,1,2,0:0:0:0:
108,88,163994,1,2,0:0:0:0:
108,88,164341,1,2,0:0:0:0:
108,88,164514,1,0,0:0:0:0:
108,88,164688,1,0,0:0:0:0:
108,88,164861,1,0,0:0:0:0:
108,88,165035,1,2,0:0:0:0:
108,88,165208,1,0,0:0:0:0:
108,88,165381,1,0,0:0:0:0:
108,88,165555,1,0,0:0:0:0:
108,88,165728,1,2,0:0:0:0:
108,88,165815,1,0,0:0:0:0:
108,88,165902,1,2,0:0:0:0:
108,88,165988,1,2,0:0:0:0:
108,88,166075,1,0,0:0:0:0:
108,88,166248,1,0,0:0:0:0:
108,88,166335,1,2,0:0:0:0:
108,88,166422,1,0,0:0:0:0:
108,88,166509,1,2,0:0:0:0:
108,88,166595,1,2,0:0:0:0:
108,88,166682,1,0,0:0:0:0:
108,88,166769,1,2,0:0:0:0:
108,88,166855,1,2,0:0:0:0:
108,88,166942,1,0,0:0:0:0:
108,88,167029,1,2,0:0:0:0:
108,88,167115,1,0,0:0:0:0:
108,88,167462,1,2,0:0:0:0:
108,88,167809,1,0,0:0:0:0:
108,88,168156,1,2,0:0:0:0:
108,88,168329,1,0,0:0:0:0:
108,88,168503,1,0,0:0:0:0:
108,88,168589,1,0,0:0:0:0:
108,88,168676,1,0,0:0:0:0:
108,88,168850,1,2,0:0:0:0:
108,88,169196,1,2,0:0:0:0:
108,88,169283,1,2,0:0:0:0:
108,88,169370,1,0,0:0:0:0:
108,88,169543,1,2,0:0:0:0:
108,88,169890,1,0,0:0:0:0:
108,88,170237,1,2,0:0:0:0:
108,88,170584,1,0,0:0:0:0:
108,88,170670,1,0,0:0:0:0:
108,88,170757,1,0,0:0:0:0:
108,88,170931,1,2,0:0:0:0:
108,88,171277,1,0,0:0:0:0:
108,88,171451,1,2,0:0:0:0:
108,88,171624,1,0,0:0:0:0:
108,88,171711,1,0,0:0:0:0:
108,88,171798,1,2,0:0:0:0:
108,88,171971,1,0,0:0:0:0:
108,88,172144,1,2,0:0:0:0:
108,88,172231,1,2,0:0:0:0:
108,88,172318,1,0,0:0:0:0:
108,88,172405,1,2,0:0:0:0:
108,88,172491,1,0,0:0:0:0:
108,88,172578,1,2,0:0:0:0:
108,88,172665,1,0,0:0:0:0:
112,88,173011,1,2,0:0:0:0:
108,88,173358,1,0,0:0:0:0:
108,88,173445,1,0,0:0:0:0:
108,88,173532,1,0,0:0:0:0:
108,88,173705,1,2,0:0:0:0:
108,88,174052,1,0,0:0:0:0:
108,88,174225,1,2,0:0:0:0:
112,88,174312,1,2,0:0:0:0:
112,88,174399,1,0,0:0:0:0:
112,88,174572,1,2,0:0:0:0:
108,88,174746,1,0,0:0:0:0:
108,88,175092,1,2,0:0:0:0:
108,88,175439,1,0,0:0:0:0:
108,88,175613,1,2,0:0:0:0:
108,88,175786,1,0,0:0:0:0:
104,88,175873,1,0,0:0:0:0:
104,88,175959,1,2,0:0:0:0:
104,88,176133,1,0,0:0:0:0:
108,88,176480,1,2,0:0:0:0:
108,88,176826,1,0,0:0:0:0:
108,88,177000,1,0,0:0:0:0:
108,88,177173,1,2,0:0:0:0:
108,88,177260,1,0,0:0:0:0:
108,88,177347,1,2,0:0:0:0:
104,88,177520,1,0,0:0:0:0:
104,88,177694,1,2,0:0:0:0:
108,88,177867,1,2,0:0:0:0:
108,88,177954,1,2,0:0:0:0:
108,88,178040,1,0,0:0:0:0:
108,88,178214,1,6,0:0:0:0:
104,92,178561,1,0,0:0:0:0:
104,92,178734,1,2,0:0:0:0:
104,88,179081,1,2,0:0:0:0:
104,88,179254,1,0,0:0:0:0:
104,92,179428,1,2,0:0:0:0:
104,92,179514,1,2,0:0:0:0:
104,92,179601,1,0,0:0:0:0:
104,92,179948,1,2,0:0:0:0:
104,92,180295,1,0,0:0:0:0:
104,88,180468,1,0,0:0:0:0:
104,88,180642,1,2,0:0:0:0:
104,88,180728,1,2,0:0:0:0:
104,88,180815,1,0,0:0:0:0:
104,92,180988,1,0,0:0:0:0:
104,92,181335,1,2,0:0:0:0:
104,92,181509,1,0,0:0:0:0:
104,92,181855,1,0,0:0:0:0:
104,88,182029,1,2,0:0:0:0:
104,88,182202,1,0,0:0:0:0:
104,88,182289,1,0,0:0:0:0:
104,88,182376,1,0,0:0:0:0:
104,92,182722,1,2,0:0:0:0:
104,92,182896,1,0,0:0:0:0:
104,88,183243,1,0,0:0:0:0:
104,88,183416,1,2,0:0:0:0:
104,88,183503,1,2,0:0:0:0:
104,88,183589,1,2,0:0:0:0:
104,88,183763,1,0,0:0:0:0:
104,92,184110,1,2,0:0:0:0:
104,92,184457,1,0,0:0:0:0:
104,88,184543,1,0,0:0:0:0:
104,88,184630,1,0,0:0:0:0:
104,88,184803,1,2,0:0:0:0:
104,88,184977,1,2,0:0:0:0:
104,88,185150,1,0,0:0:0:0:
100,88,185497,1,2,0:0:0:0:
96,88,185670,1,0,0:0:0:0:
104,92,186017,1,0,0:0:0:0:
104,88,186191,1,2,0:0:0:0:
104,88,186277,1,2,0:0:0:0:
104,88,186364,1,2,0:0:0:0:
104,88,186451,1,2,0:0:0:0:
104,88,186537,1,0,0:0:0:0:
100,88,186884,1,2,0:0:0:0:
100,88,187058,1,0,0:0:0:0:
96,88,187231,1,2,0:0:0:0:
104,92,187318,1,2,0:0:0:0:
104,92,187405,1,0,0:0:0:0:
104,92,187578,1,0,0:0:0:0:
104,88,187751,1,2,0:0:0:0:
104,88,187925,1,2,0:0:0:0:
104,88,188098,1,0,0:0:0:0:
100,88,188272,1,0,0:0:0:0:
100,88,188445,1,2,0:0:0:0:
100,88,188618,1,0,0:0:0:0:
104,88,188792,1,0,0:0:0:0:
104,92,188965,1,2,0:0:0:0:
104,92,189052,1,2,0:0:0:0:
104,92,189139,1,2,0:0:0:0:
104,88,189225,1,2,0:0:0:0:
104,88,189312,1,0,0:0:0:0:
104,88,189485,1,2,0:0:0:0:
104,88,189572,1,0,0:0:0:0:
104,88,189659,1,0,0:0:0:0:
108,88,189832,1,2,0:0:0:0:
104,88,190179,1,0,0:0:0:0:
104,88,190352,1,2,0:0:0:0:
104,92,190526,1,0,0:0:0:0:
104,92,190699,1,2,0:0:0:0:
104,88,190786,1,2,0:0:0:0:
104,88,190873,1,0,0:0:0:0:
104,88,191046,1,0,0:0:0:0:
104,88,191220,1,2,0:0:0:0:
112,84,191566,1,0,0:0:0:0:
112,84,191913,1,0,0:0:0:0:
112,84,192087,1,2,0:0:0:0:
112,84,192173,1,2,0:0:0:0:
112,84,192260,1,0,0:0:0:0:
112,84,192433,1,0,0:0:0:0:
112,84,192607,1,2,0:0:0:0:
112,84,192954,1,0,0:0:0:0:
112,84,193127,1,0,0:0:0:0:
112,84,193300,1,0,0:0:0:0:
112,84,193474,1,2,0:0:0:0:
112,84,193561,1,2,0:0:0:0:
112,84,193647,1,0,0:0:0:0:
112,84,193821,1,0,0:0:0:0:
112,84,193994,1,2,0:0:0:0:
112,84,194341,1,0,0:0:0:0:
112,84,194514,1,0,0:0:0:0:
112,84,194688,1,0,0:0:0:0:
112,84,194861,1,2,0:0:0:0:
112,84,194948,1,2,0:0:0:0:
112,84,195035,1,0,0:0:0:0:
112,84,195208,1,0,0:0:0:0:
112,84,195381,1,2,0:0:0:0:
112,84,195728,1,0,0:0:0:0:
112,84,195902,1,0,0:0:0:0:
112,84,196075,1,0,0:0:0:0:
112,84,196248,1,2,0:0:0:0:
112,84,196335,1,2,0:0:0:0:
112,84,196422,1,0,0:0:0:0:
112,84,196595,1,0,0:0:0:0:
112,84,196769,1,2,0:0:0:0:
112,84,197115,1,0,0:0:0:0:
112,84,197289,1,0,0:0:0:0:
112,84,197462,1,0,0:0:0:0:
112,84,197636,1,2,0:0:0:0:
112,84,197722,1,2,0:0:0:0:
112,84,197809,1,0,0:0:0:0:
112,84,197983,1,2,0:0:0:0:
112,84,198069,1,0,0:0:0:0:
112,84,198156,1,0,0:0:0:0:
112,84,198329,1,0,0:0:0:0:
112,84,198503,1,2,0:0:0:0:
112,84,198589,1,0,0:0:0:0:
112,84,198676,1,0,0:0:0:0:
112,84,198850,1,0,0:0:0:0:
112,84,199023,1,2,0:0:0:0:
112,84,199110,1,2,0:0:0:0:
112,84,199196,1,0,0:0:0:0:
112,84,199370,1,0,0:0:0:0:
112,84,199543,1,2,0:0:0:0:
112,84,199630,1,0,0:0:0:0:
112,84,199717,1,0,0:0:0:0:
112,84,199890,1,0,0:0:0:0:
112,84,200063,1,2,0:0:0:0:
112,84,200410,1,0,0:0:0:0:
112,84,200584,1,0,0:0:0:0:
112,84,200757,1,0,0:0:0:0:
112,84,200931,1,2,0:0:0:0:
112,84,201277,1,0,0:0:0:0:
112,84,201451,1,0,0:0:0:0:
112,84,201624,1,0,0:0:0:0:
112,84,201798,1,2,0:0:0:0:
112,84,201884,1,2,0:0:0:0:
112,84,201971,1,0,0:0:0:0:
112,84,202144,1,0,0:0:0:0:
112,84,202318,1,2,0:0:0:0:
112,84,202665,1,0,0:0:0:0:
112,84,202838,1,0,0:0:0:0:
112,84,203011,1,0,0:0:0:0:
112,84,203185,1,2,0:0:0:0:
112,84,203272,1,2,0:0:0:0:
112,84,203358,1,0,0:0:0:0:
112,84,203532,1,0,0:0:0:0:
112,84,203705,1,2,0:0:0:0:
112,84,204052,1,0,0:0:0:0:
112,84,204225,1,0,0:0:0:0:
112,84,204399,1,0,0:0:0:0:
112,84,204572,1,2,0:0:0:0:
112,84,204659,1,2,0:0:0:0:
112,84,204746,1,0,0:0:0:0:
112,84,204919,1,0,0:0:0:0:
112,84,205092,1,2,0:0:0:0:
112,84,205439,1,0,0:0:0:0:
112,84,205613,1,0,0:0:0:0:
112,84,205786,1,0,0:0:0:0:
112,84,205959,1,2,0:0:0:0:
112,84,206046,1,2,0:0:0:0:
112,84,206133,1,0,0:0:0:0:
112,84,206306,1,0,0:0:0:0:
112,84,206480,1,2,0:0:0:0:
112,84,206826,1,0,0:0:0:0:
112,84,207000,1,0,0:0:0:0:
112,84,207173,1,0,0:0:0:0:
112,84,207347,1,2,0:0:0:0:
112,84,207433,1,2,0:0:0:0:
112,84,207520,1,0,0:0:0:0:
112,84,207694,1,0,0:0:0:0:
112,84,207867,1,2,0:0:0:0:
112,84,208214,1,0,0:0:0:0:
112,84,208387,1,0,0:0:0:0:
112,84,208561,1,0,0:0:0:0:
112,84,208734,1,2,0:0:0:0:
112,84,208821,1,2,0:0:0:0:
112,84,208907,1,0,0:0:0:0:
112,84,209081,1,0,0:0:0:0:
112,84,209254,1,2,0:0:0:0:
112,84,209341,1,0,0:0:0:0:
112,84,209428,1,0,0:0:0:0:
112,84,209601,1,0,0:0:0:0:
112,84,209774,1,2,0:0:0:0:
112,84,209861,1,0,0:0:0:0:
112,84,209948,1,2,0:0:0:0:
112,84,210121,1,0,0:0:0:0:
112,84,210295,1,2,0:0:0:0:
112,84,210381,1,2,0:0:0:0:
112,84,210468,1,0,0:0:0:0:
112,84,210642,1,0,0:0:0:0:
112,84,210815,1,2,0:0:0:0:
112,84,210902,1,0,0:0:0:0:
112,84,210988,1,2,0:0:0:0:
112,84,211162,1,2,0:0:0:0:
