osu file format v13

[General]
AudioFilename: Gothic and Loneliness.mp3
AudioLeadIn: 0
PreviewTime: -1
Countdown: 0
SampleSet: Normal
StackLeniency: 0.7
Mode: 0
LetterboxInBreaks: 0
WidescreenStoryboard: 0

[Editor]
DistanceSpacing: 1.1
BeatDivisor: 4
GridSize: 4
TimelineZoom: 1

[Metadata]
Title:Gothic and Lonliness ft. Kagamine Rin
TitleUnicode:Gothic and Lonliness ft. Kagamine Rin
Artist:badend
ArtistUnicode:badend
Creator:Beat Nitro
Version:Harder Godly challenge
Source:
Tags:
BeatmapID:579837
BeatmapSetID:252437

[Difficulty]
HPDrainRate:6
CircleSize:5.2
OverallDifficulty:6
ApproachRate:8
SliderMultiplier:1.4
SliderTickRate:1

[Events]
//Background and Video events
0,0,"GAL.png",0,0
//Break Periods
//Storyboard Layer 0 (Background)
//Storyboard Layer 1 (Fail)
//Storyboard Layer 2 (Pass)
//Storyboard Layer 3 (Foreground)
//Storyboard Sound Samples

[TimingPoints]
1515,382.165605095541,4,1,0,100,1,0

[HitObjects]
64,96,1515,5,0,0:0:0:0:
64,160,1897,1,0,0:0:0:0:
120,124,2088,1,0,0:0:0:0:
176,124,2279,1,0,0:0:0:0:
212,168,2470,1,0,0:0:0:0:
216,224,2852,1,0,0:0:0:0:
248,224,3043,1,0,0:0:0:0:
248,168,3425,1,0,0:0:0:0:
296,204,3616,1,0,0:0:0:0:
348,204,3807,1,0,0:0:0:0:
384,180,3999,1,0,0:0:0:0:
392,144,4381,1,0,0:0:0:0:
348,136,4572,1,0,0:0:0:0:
344,176,4954,1,0,0:0:0:0:
316,220,5145,1,0,0:0:0:0:
260,216,5336,1,0,0:0:0:0:
224,176,5527,1,0,0:0:0:0:
232,128,5909,1,0,0:0:0:0:
180,128,6100,1,0,0:0:0:0:
168,168,6483,1,0,0:0:0:0:
136,120,6674,1,0,0:0:0:0:
96,116,6865,1,0,0:0:0:0:
60,156,7056,1,0,0:0:0:0:
44,216,7629,5,0,0:0:0:0:
78,209,7725,1,0,0:0:0:0:
113,210,7820,1,0,0:0:0:0:
147,216,7916,1,0,0:0:0:0:
181,224,8011,1,0,0:0:0:0:
215,234,8107,1,0,0:0:0:0:
249,242,8202,1,0,0:0:0:0:
283,248,8298,1,0,0:0:0:0:
318,251,8393,1,0,0:0:0:0:
353,248,8489,1,0,0:0:0:0:
386,237,8585,1,0,0:0:0:0:
416,220,8680,1,0,0:0:0:0:
443,196,8776,1,0,0:0:0:0:
465,169,8871,1,0,0:0:0:0:
484,140,8967,1,0,0:0:0:0:
500,109,9062,1,0,0:0:0:0:
512,77,9158,1,0,0:0:0:0:
448,84,9731,1,0,0:0:0:0:
412,100,9827,1,0,0:0:0:0:
384,112,9922,1,0,0:0:0:0:
372,120,10018,1,0,0:0:0:0:
356,128,10113,1,0,0:0:0:0:
336,136,10209,1,0,0:0:0:0:
308,144,10304,1,0,0:0:0:0:
280,148,10400,1,0,0:0:0:0:
256,152,10495,1,0,0:0:0:0:
236,152,10591,1,0,0:0:0:0:
216,152,10686,1,0,0:0:0:0:
164,144,11642,5,0,0:0:0:0:
144,148,11737,1,0,0:0:0:0:
136,168,11833,1,0,0:0:0:0:
176,188,12024,1,0,0:0:0:0:
228,208,12215,1,0,0:0:0:0:
268,208,12788,1,0,0:0:0:0:
276,228,12884,1,0,0:0:0:0:
288,256,12979,1,0,0:0:0:0:
344,284,13744,5,0,0:0:0:0:
321,310,13839,1,0,0:0:0:0:
294,333,13935,1,0,0:0:0:0:
264,350,14030,1,0,0:0:0:0:
230,360,14126,1,0,0:0:0:0:
196,365,14222,1,0,0:0:0:0:
161,362,14317,1,0,0:0:0:0:
127,353,14413,1,0,0:0:0:0:
96,338,14508,1,0,0:0:0:0:
68,317,14604,1,0,0:0:0:0:
44,291,14699,1,0,0:0:0:0:
26,262,14795,1,0,0:0:0:0:
13,229,14890,1,0,0:0:0:0:
7,195,14986,1,0,0:0:0:0:
8,160,15081,1,0,0:0:0:0:
15,126,15177,1,0,0:0:0:0:
29,93,15272,1,0,0:0:0:0:
48,64,15368,1,0,0:0:0:0:
136,176,16037,5,0,0:0:0:0:
204,224,16419,1,0,0:0:0:0:
256,168,16801,1,0,0:0:0:0:
272,108,17183,1,0,0:0:0:0:
252,80,17374,1,0,0:0:0:0:
192,76,17757,1,0,0:0:0:0:
140,100,18234,1,0,0:0:0:0:
96,160,19094,1,0,0:0:0:0:
120,212,19381,1,0,0:0:0:0:
156,228,19667,1,0,0:0:0:0:
220,228,19858,5,0,0:0:0:0:
220,184,20050,1,0,0:0:0:0:
188,152,20241,1,0,0:0:0:0:
232,136,20432,1,0,0:0:0:0:
268,168,20623,1,0,0:0:0:0:
260,212,20814,1,0,0:0:0:0:
256,240,21196,1,0,0:0:0:0:
248,272,21387,1,0,0:0:0:0:
264,304,21578,1,0,0:0:0:0:
304,284,21769,1,0,0:0:0:0:
320,256,21960,1,0,0:0:0:0:
332,224,22151,1,0,0:0:0:0:
360,184,22725,5,0,0:0:0:0:
312,188,22916,1,0,0:0:0:0:
280,176,23107,1,0,0:0:0:0:
296,148,23298,1,0,0:0:0:0:
312,136,23489,1,0,0:0:0:0:
336,120,23680,1,0,0:0:0:0:
360,100,23871,1,0,0:0:0:0:
328,76,24253,1,0,0:0:0:0:
292,76,24444,1,0,0:0:0:0:
268,88,24636,1,0,0:0:0:0:
248,108,24827,1,0,0:0:0:0:
224,144,25018,1,0,0:0:0:0:
208,180,25209,1,0,0:0:0:0:
128,284,25973,5,0,0:0:0:0:
168,240,26164,1,0,0:0:0:0:
200,208,26355,1,0,0:0:0:0:
224,176,26546,1,0,0:0:0:0:
248,152,26737,1,0,0:0:0:0:
272,116,26929,1,0,0:0:0:0:
304,248,27311,1,0,0:0:0:0:
288,204,27502,1,0,0:0:0:0:
272,168,27693,1,0,0:0:0:0:
264,136,27884,1,0,0:0:0:0:
252,88,28075,1,0,0:0:0:0:
232,56,28266,1,0,0:0:0:0:
148,336,28839,5,0,0:0:0:0:
176,300,29030,1,0,0:0:0:0:
192,264,29222,1,0,0:0:0:0:
204,236,29413,1,0,0:0:0:0:
220,220,29604,1,0,0:0:0:0:
236,192,29795,1,0,0:0:0:0:
248,172,29986,1,0,0:0:0:0:
324,300,30368,1,0,0:0:0:0:
304,256,30559,1,0,0:0:0:0:
276,240,30750,1,0,0:0:0:0:
236,224,30941,1,0,0:0:0:0:
212,244,31132,1,0,0:0:0:0:
184,240,31323,1,0,0:0:0:0:
152,240,31514,1,0,0:0:0:0:
112,220,31706,1,0,0:0:0:0:
96,144,31897,1,0,0:0:0:0:
88,64,32088,6,0,L|476:372,1,490
476,364,33616,1,0,0:0:0:0:
448,342,33712,1,0,0:0:0:0:
421,320,33807,1,0,0:0:0:0:
393,298,33903,1,0,0:0:0:0:
366,277,33999,1,0,0:0:0:0:
338,255,34094,1,0,0:0:0:0:
311,233,34190,1,0,0:0:0:0:
283,212,34285,1,0,0:0:0:0:
256,190,34381,1,0,0:0:0:0:
228,168,34476,1,0,0:0:0:0:
201,146,34572,1,0,0:0:0:0:
174,125,34667,1,0,0:0:0:0:
146,103,34763,1,0,0:0:0:0:
119,81,34858,1,0,0:0:0:0:
91,60,34954,1,0,0:0:0:0:
64,38,35050,1,0,0:0:0:0:
36,16,35145,1,0,0:0:0:0:
112,176,36101,5,0,0:0:0:0:
140,200,36196,1,0,0:0:0:0:
176,188,36292,1,0,0:0:0:0:
160,152,36483,1,0,0:0:0:0:
176,136,36674,1,0,0:0:0:0:
72,104,37247,1,0,0:0:0:0:
104,92,37343,1,0,0:0:0:0:
128,64,37438,1,0,0:0:0:0:
168,92,37820,1,0,0:0:0:0:
216,112,38202,5,0,0:0:0:0:
250,109,38298,1,0,0:0:0:0:
267,132,38393,1,0,0:0:0:0:
256,165,38489,1,0,0:0:0:0:
248,199,38585,1,0,0:0:0:0:
251,233,38680,1,0,0:0:0:0:
269,263,38776,1,0,0:0:0:0:
297,284,38871,1,0,0:0:0:0:
330,297,38967,1,0,0:0:0:0:
364,304,39062,1,0,0:0:0:0:
399,307,39158,1,0,0:0:0:0:
434,307,39253,1,0,0:0:0:0:
469,305,39349,1,0,0:0:0:0:
492,276,39444,1,0,0:0:0:0:
476,248,39540,1,0,0:0:0:0:
452,220,39636,1,0,0:0:0:0:
432,260,39731,1,0,0:0:0:0:
364,228,40495,5,0,0:0:0:0:
352,176,40878,1,0,0:0:0:0:
304,84,41260,1,0,0:0:0:0:
208,92,41642,1,0,0:0:0:0:
176,100,41833,1,0,0:0:0:0:
128,120,42215,1,0,0:0:0:0:
96,152,42788,1,0,0:0:0:0:
156,216,43553,1,0,0:0:0:0:
192,228,43839,1,0,0:0:0:0:
232,244,44126,1,0,0:0:0:0:
272,248,44317,5,0,0:0:0:0:
316,260,44508,1,0,0:0:0:0:
344,244,44699,1,0,0:0:0:0:
324,216,44890,1,0,0:0:0:0:
304,196,45081,1,0,0:0:0:0:
288,176,45272,1,0,0:0:0:0:
172,176,45655,1,0,0:0:0:0:
152,152,45846,1,0,0:0:0:0:
168,136,46037,1,0,0:0:0:0:
180,112,46228,1,0,0:0:0:0:
160,92,46419,1,0,0:0:0:0:
132,72,46610,1,0,0:0:0:0:
208,72,47183,5,0,0:0:0:0:
228,72,47374,1,0,0:0:0:0:
252,80,47565,1,0,0:0:0:0:
268,92,47757,1,0,0:0:0:0:
296,112,47948,1,0,0:0:0:0:
316,96,48139,1,0,0:0:0:0:
336,80,48330,1,0,0:0:0:0:
272,176,48712,1,0,0:0:0:0:
256,200,48903,1,0,0:0:0:0:
220,220,49094,1,0,0:0:0:0:
192,240,49285,1,0,0:0:0:0:
176,256,49476,1,0,0:0:0:0:
148,280,49667,1,0,0:0:0:0:
88,88,50432,5,0,0:0:0:0:
136,128,50623,1,0,0:0:0:0:
168,80,50814,1,0,0:0:0:0:
216,128,51005,1,0,0:0:0:0:
252,72,51196,1,0,0:0:0:0:
280,88,51387,1,0,0:0:0:0:
304,104,51483,1,0,0:0:0:0:
316,144,51769,1,0,0:0:0:0:
316,172,51960,1,0,0:0:0:0:
308,188,52151,1,0,0:0:0:0:
276,212,52343,1,0,0:0:0:0:
252,224,52534,1,0,0:0:0:0:
196,248,52725,1,0,0:0:0:0:
132,196,53298,5,0,0:0:0:0:
96,180,53489,1,0,0:0:0:0:
76,144,53680,1,0,0:0:0:0:
140,116,53871,1,0,0:0:0:0:
208,96,54062,1,0,0:0:0:0:
256,128,54253,1,0,0:0:0:0:
280,172,54444,1,0,0:0:0:0:
344,140,54827,1,0,0:0:0:0:
360,180,55018,1,0,0:0:0:0:
328,236,55209,1,0,0:0:0:0:
292,264,55400,1,0,0:0:0:0:
248,272,55591,1,0,0:0:0:0:
180,272,55782,1,0,0:0:0:0:
124,256,56546,6,0,L|224:124,1,140
208,144,57024,2,0,L|276:244,1,105
267,230,57406,2,0,L|267:110,1,105
292,112,57884,1,0,0:0:0:0:
328,112,58075,2,0,B|264:12|128:72|176:248|36:300,1,420
60,280,59413,1,0,0:0:0:0:
68,256,59604,2,0,L|184:168,1,140
179,171,60081,2,0,L|295:99,1,105
268,115,60464,2,0,L|300:227,1,105
332,160,61132,1,0,0:0:0:0:
376,124,62279,5,0,0:0:0:0:
360,200,62661,1,0,0:0:0:0:
336,224,62757,1,0,0:0:0:0:
304,200,62852,1,0,0:0:0:0:
284,156,63043,1,0,0:0:0:0:
256,172,63234,1,0,0:0:0:0:
216,192,63330,1,0,0:0:0:0:
188,212,63425,1,0,0:0:0:0:
144,212,63521,1,0,0:0:0:0:
112,184,63616,1,0,0:0:0:0:
88,100,63999,1,0,0:0:0:0:
116,92,64094,1,0,0:0:0:0:
148,88,64190,1,0,0:0:0:0:
216,136,64858,1,0,0:0:0:0:
260,200,65145,1,0,0:0:0:0:
280,264,65432,1,0,0:0:0:0:
240,328,65718,1,0,0:0:0:0:
128,272,66578,1,0,0:0:0:0:
136,176,66865,1,0,0:0:0:0:
144,96,67056,1,0,0:0:0:0:
228,72,67247,1,0,0:0:0:0:
260,80,67343,1,0,0:0:0:0:
260,120,67438,1,0,0:0:0:0:
256,192,68776,12,0,70209,0:0:0:0:
240,192,70304,5,0,0:0:0:0:
212,196,70400,1,0,0:0:0:0:
196,204,70495,1,0,0:0:0:0:
176,208,70591,1,0,0:0:0:0:
160,192,70686,1,0,0:0:0:0:
176,164,70878,1,0,0:0:0:0:
176,144,70973,1,0,0:0:0:0:
168,124,71164,1,0,0:0:0:0:
152,116,71355,1,0,0:0:0:0:
176,92,71546,1,0,0:0:0:0:
228,84,71833,5,0,0:0:0:0:
248,84,71929,1,0,0:0:0:0:
264,92,72024,1,0,0:0:0:0:
276,100,72120,1,0,0:0:0:0:
288,112,72215,1,0,0:0:0:0:
308,164,72406,1,0,0:0:0:0:
292,176,72502,1,0,0:0:0:0:
260,180,72693,1,0,0:0:0:0:
232,160,72884,1,0,0:0:0:0:
200,172,73075,1,0,0:0:0:0:
180,120,73362,5,0,0:0:0:0:
168,152,73457,1,0,0:0:0:0:
144,124,73553,1,0,0:0:0:0:
136,152,73648,1,0,0:0:0:0:
116,120,73744,1,0,0:0:0:0:
112,184,74030,1,0,0:0:0:0:
116,208,74317,1,0,0:0:0:0:
116,236,74604,1,0,0:0:0:0:
84,272,74890,1,0,0:0:0:0:
80,244,75177,1,0,0:0:0:0:
64,220,75464,1,0,0:0:0:0:
44,200,75655,1,0,0:0:0:0:
40,184,76228,5,0,0:0:0:0:
40,168,76324,1,0,0:0:0:0:
48,152,76419,1,0,0:0:0:0:
64,124,76515,1,0,0:0:0:0:
76,104,76610,1,0,0:0:0:0:
88,80,76706,1,0,0:0:0:0:
112,72,76802,1,0,0:0:0:0:
140,84,76897,1,0,0:0:0:0:
184,116,77088,1,0,0:0:0:0:
184,132,77184,1,0,0:0:0:0:
176,156,77279,1,0,0:0:0:0:
176,184,77470,1,0,0:0:0:0:
204,168,77661,1,0,0:0:0:0:
216,188,77948,5,0,0:0:0:0:
244,196,78044,1,0,0:0:0:0:
264,208,78139,1,0,0:0:0:0:
284,212,78235,1,0,0:0:0:0:
304,220,78330,1,0,0:0:0:0:
284,240,78521,1,0,0:0:0:0:
252,252,78712,1,0,0:0:0:0:
212,232,78999,1,0,0:0:0:0:
172,212,79286,1,0,0:0:0:0:
188,164,79477,1,0,0:0:0:0:
236,180,79668,1,0,0:0:0:0:
212,228,79859,1,0,0:0:0:0:
168,208,80050,1,0,0:0:0:0:
136,176,80241,1,0,0:0:0:0:
156,152,80432,1,0,0:0:0:0:
192,124,80623,1,0,0:0:0:0:
244,128,80814,1,0,0:0:0:0:
228,100,81005,1,0,0:0:0:0:
240,60,81292,1,0,0:0:0:0:
228,32,81579,1,0,0:0:0:0:
196,32,81769,1,0,0:0:0:0:
176,32,82534,5,0,0:0:0:0:
152,44,82629,1,0,0:0:0:0:
128,60,82725,1,0,0:0:0:0:
128,80,82820,1,0,0:0:0:0:
144,96,82916,1,0,0:0:0:0:
168,104,83202,1,0,0:0:0:0:
168,104,83298,1,0,0:0:0:0:
140,124,83489,1,0,0:0:0:0:
96,152,83680,1,0,0:0:0:0:
136,176,83871,1,0,0:0:0:0:
172,192,84062,5,0,0:0:0:0:
184,200,84158,1,0,0:0:0:0:
200,208,84253,1,0,0:0:0:0:
212,216,84349,1,0,0:0:0:0:
228,224,84444,1,0,0:0:0:0:
260,224,84636,1,0,0:0:0:0:
288,224,84827,1,0,0:0:0:0:
320,216,85018,1,0,0:0:0:0:
344,244,85209,1,0,0:0:0:0:
356,272,85400,1,0,0:0:0:0:
328,280,85591,5,0,0:0:0:0:
312,284,85686,1,0,0:0:0:0:
300,288,85782,1,0,0:0:0:0:
288,292,85878,1,0,0:0:0:0:
272,300,85973,1,0,0:0:0:0:
256,264,86164,1,0,0:0:0:0:
232,240,86355,1,0,0:0:0:0:
208,224,86451,1,0,0:0:0:0:
212,184,86642,1,0,0:0:0:0:
164,156,86929,1,0,0:0:0:0:
152,96,87120,1,0,0:0:0:0:
196,52,87406,1,0,0:0:0:0:
256,64,87693,1,0,0:0:0:0:
312,116,87884,1,0,0:0:0:0:
100,172,88457,5,0,0:0:0:0:
120,192,88553,1,0,0:0:0:0:
152,208,88648,1,0,0:0:0:0:
184,212,88744,1,0,0:0:0:0:
208,216,88839,1,0,0:0:0:0:
240,216,88935,1,0,0:0:0:0:
284,240,89222,1,0,0:0:0:0:
312,244,89317,1,0,0:0:0:0:
340,248,89413,1,0,0:0:0:0:
384,260,89604,1,0,0:0:0:0:
420,240,89795,1,0,0:0:0:0:
392,200,89986,1,0,0:0:0:0:
356,188,90177,5,0,0:0:0:0:
336,180,90272,1,0,0:0:0:0:
320,176,90368,1,0,0:0:0:0:
304,168,90464,1,0,0:0:0:0:
288,160,90559,1,0,0:0:0:0:
272,152,90655,1,0,0:0:0:0:
228,160,90846,1,0,0:0:0:0:
220,172,90941,1,0,0:0:0:0:
212,208,91132,1,0,0:0:0:0:
216,240,91323,1,0,0:0:0:0:
224,256,91514,1,0,0:0:0:0:
248,268,91706,1,0,0:0:0:0:
272,256,91897,1,0,0:0:0:0:
308,240,92088,1,0,0:0:0:0:
328,264,92279,1,0,0:0:0:0:
304,296,92470,1,0,0:0:0:0:
276,320,92661,1,0,0:0:0:0:
320,332,92852,1,0,0:0:0:0:
356,308,93043,1,0,0:0:0:0:
388,280,93234,1,0,0:0:0:0:
392,184,93616,1,0,0:0:0:0:
328,128,93999,1,0,0:0:0:0:
260,140,94381,1,0,0:0:0:0:
200,216,94763,1,0,0:0:0:0:
248,272,96292,5,0,0:0:0:0:
276,308,96483,1,0,0:0:0:0:
216,312,96865,1,0,0:0:0:0:
192,240,97343,1,0,0:0:0:0:
136,236,97820,1,0,0:0:0:0:
140,220,97916,1,0,0:0:0:0:
144,200,98011,1,0,0:0:0:0:
148,184,98107,1,0,0:0:0:0:
152,172,98202,1,0,0:0:0:0:
164,156,98298,1,0,0:0:0:0:
176,144,98393,1,0,0:0:0:0:
192,136,98489,1,0,0:0:0:0:
208,132,98585,1,0,0:0:0:0:
224,132,98680,1,0,0:0:0:0:
244,132,98776,1,0,0:0:0:0:
264,136,98871,1,0,0:0:0:0:
280,144,98967,1,0,0:0:0:0:
296,152,99062,1,0,0:0:0:0:
312,168,99158,1,0,0:0:0:0:
320,184,99253,1,0,0:0:0:0:
320,204,99349,1,0,0:0:0:0:
252,208,100495,5,0,0:0:0:0:
200,156,100878,1,0,0:0:0:0:
304,128,101642,2,0,L|336:152,1,35
340,164,101833,1,0,0:0:0:0:
352,204,102024,1,0,0:0:0:0:
320,224,102215,1,0,0:0:0:0:
288,232,102406,1,0,0:0:0:0:
252,240,102979,1,0,0:0:0:0:
232,240,103075,1,0,0:0:0:0:
208,240,103171,1,0,0:0:0:0:
184,208,103553,1,0,0:0:0:0:
188,180,103935,5,0,0:0:0:0:
184,164,104030,1,0,0:0:0:0:
168,144,104126,1,0,0:0:0:0:
152,132,104222,1,0,0:0:0:0:
132,128,104317,1,0,0:0:0:0:
116,128,104413,1,0,0:0:0:0:
100,132,104508,1,0,0:0:0:0:
88,140,104604,1,0,0:0:0:0:
76,152,104699,1,0,0:0:0:0:
68,160,104795,1,0,0:0:0:0:
64,176,104890,1,0,0:0:0:0:
68,192,104986,1,0,0:0:0:0:
80,208,105081,1,0,0:0:0:0:
96,216,105177,1,0,0:0:0:0:
128,216,105272,1,0,0:0:0:0:
152,208,105368,1,0,0:0:0:0:
172,192,105464,1,0,0:0:0:0:
196,148,106228,5,0,0:0:0:0:
224,100,106610,1,0,0:0:0:0:
272,84,106992,1,0,0:0:0:0:
324,120,107374,1,0,0:0:0:0:
324,152,107565,1,0,0:0:0:0:
292,196,107948,1,0,0:0:0:0:
236,216,108425,1,0,0:0:0:0:
152,160,109285,1,0,0:0:0:0:
224,128,109572,1,0,0:0:0:0:
280,120,109858,1,0,0:0:0:0:
236,300,110050,5,0,0:0:0:0:
204,296,110241,1,0,0:0:0:0:
180,284,110432,1,0,0:0:0:0:
164,264,110623,1,0,0:0:0:0:
136,228,110814,1,0,0:0:0:0:
116,192,111005,1,0,0:0:0:0:
140,96,111387,5,0,0:0:0:0:
168,84,111578,1,0,0:0:0:0:
200,116,111769,1,0,0:0:0:0:
224,72,111960,1,0,0:0:0:0:
260,104,112151,1,0,0:0:0:0:
320,64,112343,1,0,0:0:0:0:
408,288,112916,5,0,0:0:0:0:
344,200,113107,1,0,0:0:0:0:
296,284,113298,1,0,0:0:0:0:
240,212,113489,1,0,0:0:0:0:
212,272,113680,1,0,0:0:0:0:
168,196,113871,1,0,0:0:0:0:
112,244,114062,1,0,0:0:0:0:
76,72,114444,5,0,0:0:0:0:
140,72,114636,1,0,0:0:0:0:
192,72,114827,1,0,0:0:0:0:
240,68,115018,1,0,0:0:0:0:
316,72,115209,1,0,0:0:0:0:
380,80,115400,1,0,0:0:0:0:
156,168,116164,5,0,0:0:0:0:
204,176,116355,1,0,0:0:0:0:
252,208,116546,1,0,0:0:0:0:
312,232,116737,1,0,0:0:0:0:
376,268,116929,1,0,0:0:0:0:
376,304,117120,1,0,0:0:0:0:
192,272,117502,5,0,0:0:0:0:
176,172,117693,1,0,0:0:0:0:
192,88,117884,1,0,0:0:0:0:
232,48,118075,1,0,0:0:0:0:
320,60,118266,1,0,0:0:0:0:
372,120,118457,1,0,0:0:0:0:
320,248,119030,5,0,0:0:0:0:
248,176,119222,1,0,0:0:0:0:
220,240,119413,1,0,0:0:0:0:
148,144,119604,1,0,0:0:0:0:
116,208,119795,1,0,0:0:0:0:
56,88,119986,1,0,0:0:0:0:
72,20,120177,1,0,0:0:0:0:
220,76,120559,5,0,0:0:0:0:
328,112,120750,1,0,0:0:0:0:
340,176,120941,1,0,0:0:0:0:
292,216,121132,1,0,0:0:0:0:
236,244,121323,1,0,0:0:0:0:
220,280,121514,1,0,0:0:0:0:
132,56,122279,2,0,L|256:128,1,140
253,126,122757,2,0,L|365:102,1,105
355,103,123139,2,0,L|416:216,1,105,0|0,0:0|0:0,0:0:0:0:
412,244,123616,1,0,0:0:0:0:
396,272,123807,2,0,L|244:224,1,140
264,228,124285,2,0,L|144:172,1,105
168,183,124667,2,0,L|88:103,1,105
120,76,125145,1,0,0:0:0:0:
160,48,125336,2,0,L|284:124,1,140,0|0,0:0|0:0,0:0:0:0:
280,124,125814,2,0,L|400:164,1,105
379,157,126196,2,0,L|400:284,1,105
392,304,126865,1,0,0:0:0:0:
64,112,128011,5,0,0:0:0:0:
112,160,128393,1,0,0:0:0:0:
144,152,128489,1,0,0:0:0:0:
176,144,128585,1,0,0:0:0:0:
208,140,128680,1,0,0:0:0:0:
224,164,128871,1,0,0:0:0:0:
240,200,129062,1,0,0:0:0:0:
208,212,129158,1,0,0:0:0:0:
176,220,129253,1,0,0:0:0:0:
136,232,129349,1,0,0:0:0:0:
100,240,129731,1,0,0:0:0:0:
100,208,129827,1,0,0:0:0:0:
136,184,129922,1,0,0:0:0:0:
168,108,130686,5,0,0:0:0:0:
240,128,130973,1,0,0:0:0:0:
216,184,131260,1,0,0:0:0:0:
280,192,131451,1,0,0:0:0:0:
416,204,132406,1,0,0:0:0:0:
380,176,132597,1,0,0:0:0:0:
348,140,132788,1,0,0:0:0:0:
316,120,132979,1,0,0:0:0:0:
296,120,133171,1,0,0:0:0:0:
264,96,133266,1,0,0:0:0:0:
244,92,134508,5,0,0:0:0:0:
224,92,134604,1,0,0:0:0:0:
208,92,134699,1,0,0:0:0:0:
192,92,134795,1,0,0:0:0:0:
184,92,134890,1,0,0:0:0:0:
176,92,134986,1,0,0:0:0:0:
168,92,135081,1,0,0:0:0:0:
160,92,135177,1,0,0:0:0:0:
152,92,135272,1,0,0:0:0:0:
144,92,135368,1,0,0:0:0:0:
136,92,135464,1,0,0:0:0:0:
128,92,135559,1,0,0:0:0:0:
120,92,135655,1,0,0:0:0:0:
112,92,135750,1,0,0:0:0:0:
104,112,135846,1,0,0:0:0:0:
96,136,135941,5,0,0:0:0:0:
92,160,136037,1,0,0:0:0:0:
92,180,136132,1,0,0:0:0:0:
112,188,136228,1,0,0:0:0:0:
136,192,136323,1,0,0:0:0:0:
156,200,136419,1,0,0:0:0:0:
192,200,136610,1,0,0:0:0:0:
208,196,136706,1,0,0:0:0:0:
236,184,136801,1,0,0:0:0:0:
256,152,136992,1,0,0:0:0:0:
272,128,137183,1,0,0:0:0:0:
296,156,137374,1,0,0:0:0:0:
316,176,137565,5,0,0:0:0:0:
336,176,137661,1,0,0:0:0:0:
356,176,137757,1,0,0:0:0:0:
376,176,137852,1,0,0:0:0:0:
384,140,138043,1,0,0:0:0:0:
376,124,138139,1,0,0:0:0:0:
360,108,138234,1,0,0:0:0:0:
340,100,138330,1,0,0:0:0:0:
296,92,138521,1,0,0:0:0:0:
256,92,138712,1,0,0:0:0:0:
224,92,138903,1,0,0:0:0:0:
204,92,139094,5,0,0:0:0:0:
188,100,139190,1,0,0:0:0:0:
180,108,139285,1,0,0:0:0:0:
172,116,139381,1,0,0:0:0:0:
152,140,139572,1,0,0:0:0:0:
144,148,139667,1,0,0:0:0:0:
144,168,139858,1,0,0:0:0:0:
156,192,140145,1,0,0:0:0:0:
164,232,140432,1,0,0:0:0:0:
196,232,140623,1,0,0:0:0:0:
248,216,140909,1,0,0:0:0:0:
288,240,141196,1,0,0:0:0:0:
320,240,141387,1,0,0:0:0:0:
336,304,141960,5,0,0:0:0:0:
360,288,142056,1,0,0:0:0:0:
384,276,142151,1,0,0:0:0:0:
396,248,142247,1,0,0:0:0:0:
368,192,142438,1,0,0:0:0:0:
344,180,142534,1,0,0:0:0:0:
316,176,142629,1,0,0:0:0:0:
260,160,142820,1,0,0:0:0:0:
208,148,143011,1,0,0:0:0:0:
176,128,143202,1,0,0:0:0:0:
144,132,143393,1,0,0:0:0:0:
104,104,143680,5,0,0:0:0:0:
84,116,143776,1,0,0:0:0:0:
72,144,143871,1,0,0:0:0:0:
80,164,143967,1,0,0:0:0:0:
108,176,144062,1,0,0:0:0:0:
132,176,144158,1,0,0:0:0:0:
164,200,144253,1,0,0:0:0:0:
156,240,144444,1,0,0:0:0:0:
200,248,144731,1,0,0:0:0:0:
248,212,145018,1,0,0:0:0:0:
268,160,145209,1,0,0:0:0:0:
288,112,145400,1,0,0:0:0:0:
344,116,145591,1,0,0:0:0:0:
356,160,145782,1,0,0:0:0:0:
364,204,145973,1,0,0:0:0:0:
344,256,146164,1,0,0:0:0:0:
316,296,146355,1,0,0:0:0:0:
292,328,146546,1,0,0:0:0:0:
248,328,146737,1,0,0:0:0:0:
216,284,147024,1,0,0:0:0:0:
200,232,147311,1,0,0:0:0:0:
192,200,147502,1,0,0:0:0:0:
224,144,148266,5,0,0:0:0:0:
248,120,148362,1,0,0:0:0:0:
232,96,148457,1,0,0:0:0:0:
200,108,148553,1,0,0:0:0:0:
168,112,148648,1,0,0:0:0:0:
108,124,148839,1,0,0:0:0:0:
104,160,148935,1,0,0:0:0:0:
144,160,149030,1,0,0:0:0:0:
132,212,149222,1,0,0:0:0:0:
144,248,149413,1,0,0:0:0:0:
168,272,149604,1,0,0:0:0:0:
200,264,149795,5,0,0:0:0:0:
220,248,149890,1,0,0:0:0:0:
244,228,149986,1,0,0:0:0:0:
264,216,150081,1,0,0:0:0:0:
288,200,150177,1,0,0:0:0:0:
272,164,150368,1,0,0:0:0:0:
248,132,150464,1,0,0:0:0:0:
280,120,150559,1,0,0:0:0:0:
324,132,150750,1,0,0:0:0:0:
348,164,150941,1,0,0:0:0:0:
372,192,151132,1,0,0:0:0:0:
368,232,151323,5,0,0:0:0:0:
352,248,151419,1,0,0:0:0:0:
336,260,151514,1,0,0:0:0:0:
320,268,151610,1,0,0:0:0:0:
304,280,151706,1,0,0:0:0:0:
268,264,151897,1,0,0:0:0:0:
232,248,152088,1,0,0:0:0:0:
212,260,152183,1,0,0:0:0:0:
176,248,152374,1,0,0:0:0:0:
152,216,152565,1,0,0:0:0:0:
148,180,152757,1,0,0:0:0:0:
160,144,152948,1,0,0:0:0:0:
188,136,153139,1,0,0:0:0:0:
228,148,153425,1,0,0:0:0:0:
264,172,153616,1,0,0:0:0:0:
312,104,154190,5,0,0:0:0:0:
332,112,154285,1,0,0:0:0:0:
352,128,154381,1,0,0:0:0:0:
360,148,154476,1,0,0:0:0:0:
356,184,154572,1,0,0:0:0:0:
344,196,154667,1,0,0:0:0:0:
320,204,154858,1,0,0:0:0:0:
288,208,155050,1,0,0:0:0:0:
264,208,155145,1,0,0:0:0:0:
228,212,155336,1,0,0:0:0:0:
200,212,155527,1,0,0:0:0:0:
176,204,155718,1,0,0:0:0:0:
144,180,155909,5,0,0:0:0:0:
140,156,156005,1,0,0:0:0:0:
140,132,156100,1,0,0:0:0:0:
148,112,156196,1,0,0:0:0:0:
160,96,156292,1,0,0:0:0:0:
200,84,156483,1,0,0:0:0:0:
236,100,156674,1,0,0:0:0:0:
264,104,156769,1,0,0:0:0:0:
288,112,156865,1,0,0:0:0:0:
328,120,157056,1,0,0:0:0:0:
360,132,157247,1,0,0:0:0:0:
380,156,157438,1,0,0:0:0:0:
356,192,157629,1,0,0:0:0:0:
388,216,157820,1,0,0:0:0:0:
352,236,158011,1,0,0:0:0:0:
384,256,158202,1,0,0:0:0:0:
348,272,158393,1,0,0:0:0:0:
376,288,158585,1,0,0:0:0:0:
328,312,158776,1,0,0:0:0:0:
372,328,158967,1,0,0:0:0:0:
432,320,159349,1,0,0:0:0:0:
444,152,159731,1,0,0:0:0:0:
308,72,160113,1,0,0:0:0:0:
48,80,160495,2,0,L|464:340,1,490
392,352,162024,1,0,0:0:0:0:
304,316,162215,1,0,0:0:0:0:
248,272,162788,1,0,0:0:0:0:
196,212,163171,1,0,0:0:0:0:
256,192,163553,12,0,175591,0:0:0:0:
104,76,176642,5,0,0:0:0:0:
132,88,176929,1,0,0:0:0:0:
144,96,177120,1,0,0:0:0:0:
192,96,177311,2,0,B|356:148|328:148,1,140
324,141,177788,2,0,L|476:241,1,175
468,292,178457,1,0,0:0:0:0:
420,296,178648,1,0,0:0:0:0:
376,296,178839,2,0,L|200:236,1,175
216,240,179413,2,0,L|100:136,1,140
116,100,179986,1,0,0:0:0:0:
160,112,180177,1,0,0:0:0:0:
204,76,180368,2,0,L|360:172,1,175
353,167,180941,2,0,L|465:287,1,140
408,304,181514,1,0,0:0:0:0:
348,320,181897,1,0,0:0:0:0:
88,112,183139,5,0,0:0:0:0:
136,96,183425,2,0,L|272:156,1,140
264,152,183903,2,0,L|352:296,1,140
260,260,184476,1,0,0:0:0:0:
304,204,184667,1,0,0:0:0:0:
344,208,184954,2,0,L|384:28,1,175
381,37,185527,2,0,L|457:221,1,175
412,268,186196,1,0,0:0:0:0:
256,192,186483,12,0,188011,0:0:0:0:
308,144,188871,5,0,0:0:0:0:
276,160,189540,2,0,L|148:124,1,105
174,131,189922,2,0,L|326:107,1,140
312,168,190591,1,0,0:0:0:0:
304,208,190782,1,0,0:0:0:0:
272,232,191069,2,0,B|260:116|209:159|220:248,1,175
184,232,191833,1,0,0:0:0:0:
152,216,192311,1,0,0:0:0:0:
120,172,192597,1,0,0:0:0:0:
116,152,193075,1,0,0:0:0:0:
108,120,193648,1,0,0:0:0:0:
128,108,193839,1,0,0:0:0:0:
152,104,194126,1,0,0:0:0:0:
208,120,194699,1,0,0:0:0:0:
232,140,195368,1,0,0:0:0:0:
256,168,195559,1,0,0:0:0:0:
232,148,196706,1,0,0:0:0:0:
212,168,196897,1,0,0:0:0:0:
196,176,197088,1,0,0:0:0:0:
180,248,197948,1,0,0:0:0:0:
204,260,198330,1,0,0:0:0:0:
240,268,198616,2,0,L|300:124,1,140
293,138,199094,2,0,L|437:222,1,140
413,208,199572,2,0,L|305:220,1,105
308,219,199954,2,0,L|188:163,1,105
92,176,201769,6,0,L|260:200,1,140,0|0,0:0|0:0,0:0:0:0:
136,68,202629,2,0,L|436:328,1,385
360,348,203871,1,0,0:0:0:0:
300,352,204062,2,0,L|24:32,1,420
92,32,205400,1,0,0:0:0:0:
140,36,205591,2,0,L|448:248,1,350
372,272,206737,1,0,0:0:0:0:
324,268,206929,2,0,B|112:228|344:136|308:0|252:332,1,385
208,320,208266,5,0,0:0:0:0:
180,272,208648,1,0,0:0:0:0:
176,248,208744,1,0,0:0:0:0:
152,244,208839,1,0,0:0:0:0:
140,224,208935,1,0,0:0:0:0:
104,208,209126,1,0,0:0:0:0:
112,192,209222,1,0,0:0:0:0:
136,164,209413,1,0,0:0:0:0:
156,152,209508,1,0,0:0:0:0:
184,144,209604,1,0,0:0:0:0:
220,168,209986,1,0,0:0:0:0:
236,192,210081,1,0,0:0:0:0:
244,208,210177,1,0,0:0:0:0:
268,260,210941,1,0,0:0:0:0:
324,220,211228,1,0,0:0:0:0:
352,164,211514,1,0,0:0:0:0:
312,136,211706,1,0,0:0:0:0:
252,120,212757,1,0,0:0:0:0:
200,136,212948,1,0,0:0:0:0:
148,136,213139,1,0,0:0:0:0:
136,104,213330,1,0,0:0:0:0:
144,88,213425,1,0,0:0:0:0:
192,72,213616,1,0,0:0:0:0:
0,192,214667,5,0,0:0:0:0:
16,208,214763,1,0,0:0:0:0:
40,208,214858,1,0,0:0:0:0:
56,192,214954,1,0,0:0:0:0:
72,180,215050,1,0,0:0:0:0:
96,180,215145,1,0,0:0:0:0:
116,192,215241,1,0,0:0:0:0:
132,208,215336,1,0,0:0:0:0:
156,208,215432,1,0,0:0:0:0:
176,192,215527,1,0,0:0:0:0:
192,176,215623,1,0,0:0:0:0:
216,176,215718,1,0,0:0:0:0:
232,192,215814,1,0,0:0:0:0:
256,200,215909,1,0,0:0:0:0:
284,200,216005,1,0,0:0:0:0:
300,192,216100,1,0,0:0:0:0:
312,180,216196,1,0,0:0:0:0:
336,176,216292,1,0,0:0:0:0:
356,192,216387,1,0,0:0:0:0:
376,204,216483,1,0,0:0:0:0:
400,204,216578,1,0,0:0:0:0:
424,192,216674,1,0,0:0:0:0:
448,176,216769,1,0,0:0:0:0:
472,176,216865,1,0,0:0:0:0:
496,192,216960,1,0,0:0:0:0:
512,204,217056,1,0,0:0:0:0:
480,260,217438,1,0,0:0:0:0:
424,304,217820,1,0,0:0:0:0:
60,192,220400,5,0,0:0:0:0:
84,192,220495,1,0,0:0:0:0:
108,192,220591,1,0,0:0:0:0:
128,184,220686,1,0,0:0:0:0:
148,168,220782,1,0,0:0:0:0:
168,160,220878,1,0,0:0:0:0:
184,152,220973,1,0,0:0:0:0:
204,140,221069,1,0,0:0:0:0:
220,128,221164,1,0,0:0:0:0:
244,116,221260,1,0,0:0:0:0:
284,132,221451,1,0,0:0:0:0:
284,156,221546,1,0,0:0:0:0:
284,180,221642,1,0,0:0:0:0:
320,188,221833,1,0,0:0:0:0:
360,188,222024,1,0,0:0:0:0:
400,192,222215,1,0,0:0:0:0:
388,228,222406,5,0,0:0:0:0:
368,228,222502,1,0,0:0:0:0:
348,228,222597,1,0,0:0:0:0:
328,236,222693,1,0,0:0:0:0:
304,248,222788,1,0,0:0:0:0:
284,264,222884,1,0,0:0:0:0:
252,248,223075,1,0,0:0:0:0:
240,236,223171,1,0,0:0:0:0:
216,204,223362,1,0,0:0:0:0:
176,204,223553,1,0,0:0:0:0:
148,200,223744,1,0,0:0:0:0:
152,168,223935,5,0,0:0:0:0:
176,156,224030,1,0,0:0:0:0:
196,144,224126,1,0,0:0:0:0:
216,136,224222,1,0,0:0:0:0:
236,128,224317,1,0,0:0:0:0:
264,124,224508,1,0,0:0:0:0:
292,120,224699,1,0,0:0:0:0:
324,124,224890,1,0,0:0:0:0:
360,108,225177,1,0,0:0:0:0:
340,80,225464,1,0,0:0:0:0:
300,80,225750,1,0,0:0:0:0:
264,76,226037,1,0,0:0:0:0:
232,84,226228,1,0,0:0:0:0:
184,144,226801,5,0,0:0:0:0:
204,156,226897,1,0,0:0:0:0:
220,168,226992,1,0,0:0:0:0:
248,188,227183,1,0,0:0:0:0:
268,192,227279,1,0,0:0:0:0:
292,196,227374,1,0,0:0:0:0:
312,200,227470,1,0,0:0:0:0:
332,204,227565,1,0,0:0:0:0:
356,208,227661,1,0,0:0:0:0:
384,212,227757,1,0,0:0:0:0:
408,216,227948,1,0,0:0:0:0:
428,232,228139,1,0,0:0:0:0:
416,248,228330,1,0,0:0:0:0:
392,256,228521,5,0,0:0:0:0:
368,260,228616,1,0,0:0:0:0:
348,264,228712,1,0,0:0:0:0:
328,264,228807,1,0,0:0:0:0:
304,244,229094,1,0,0:0:0:0:
296,228,229190,1,0,0:0:0:0:
292,204,229285,1,0,0:0:0:0:
284,168,229476,1,0,0:0:0:0:
280,124,229667,1,0,0:0:0:0:
256,72,229858,1,0,0:0:0:0:
196,88,230050,1,0,0:0:0:0:
152,120,230241,1,0,0:0:0:0:
140,176,230432,1,0,0:0:0:0:
144,224,230623,1,0,0:0:0:0:
172,260,230814,1,0,0:0:0:0:
204,268,231005,1,0,0:0:0:0:
252,264,231196,1,0,0:0:0:0:
296,232,231387,1,0,0:0:0:0:
328,200,231578,1,0,0:0:0:0:
356,160,231865,1,0,0:0:0:0:
384,120,232151,1,0,0:0:0:0:
376,84,232343,1,0,0:0:0:0:
288,48,233107,5,0,0:0:0:0:
276,60,233202,1,0,0:0:0:0:
260,76,233298,1,0,0:0:0:0:
248,88,233393,1,0,0:0:0:0:
216,88,233585,1,0,0:0:0:0:
192,88,233680,1,0,0:0:0:0:
188,116,233871,1,0,0:0:0:0:
188,148,234062,1,0,0:0:0:0:
188,176,234253,1,0,0:0:0:0:
188,200,234444,1,0,0:0:0:0:
240,200,234636,5,0,0:0:0:0:
256,184,234731,1,0,0:0:0:0:
272,168,234827,1,0,0:0:0:0:
288,152,234922,1,0,0:0:0:0:
304,136,235018,1,0,0:0:0:0:
308,108,235304,1,0,0:0:0:0:
308,84,235400,1,0,0:0:0:0:
276,80,235591,1,0,0:0:0:0:
248,80,235782,1,0,0:0:0:0:
216,80,235973,1,0,0:0:0:0:
192,96,236164,5,0,0:0:0:0:
176,112,236260,1,0,0:0:0:0:
164,128,236355,1,0,0:0:0:0:
148,144,236451,1,0,0:0:0:0:
132,160,236546,1,0,0:0:0:0:
144,192,236737,1,0,0:0:0:0:
164,212,236929,1,0,0:0:0:0:
192,216,237024,1,0,0:0:0:0:
220,228,237215,1,0,0:0:0:0:
252,216,237502,1,0,0:0:0:0:
280,184,237693,1,0,0:0:0:0:
320,180,237979,1,0,0:0:0:0:
336,144,238266,1,0,0:0:0:0:
320,112,238457,1,0,0:0:0:0:
288,100,239030,5,0,0:0:0:0:
264,100,239126,1,0,0:0:0:0:
236,100,239222,1,0,0:0:0:0:
212,100,239317,1,0,0:0:0:0:
184,100,239413,1,0,0:0:0:0:
152,104,239508,1,0,0:0:0:0:
164,136,239699,1,0,0:0:0:0:
172,168,239795,1,0,0:0:0:0:
180,188,239890,1,0,0:0:0:0:
148,204,240081,1,0,0:0:0:0:
112,208,240177,1,0,0:0:0:0:
104,176,240368,1,0,0:0:0:0:
96,144,240559,1,0,0:0:0:0:
52,152,240750,5,0,0:0:0:0:
48,180,240846,1,0,0:0:0:0:
48,208,240941,1,0,0:0:0:0:
44,240,241037,1,0,0:0:0:0:
68,256,241228,1,0,0:0:0:0:
88,268,241323,1,0,0:0:0:0:
108,288,241419,1,0,0:0:0:0:
136,296,241514,1,0,0:0:0:0:
176,284,241706,1,0,0:0:0:0:
208,268,241897,1,0,0:0:0:0:
240,240,242088,1,0,0:0:0:0:
200,208,242279,1,0,0:0:0:0:
232,184,242470,1,0,0:0:0:0:
264,168,242661,1,0,0:0:0:0:
240,132,242852,1,0,0:0:0:0:
272,112,243043,1,0,0:0:0:0:
312,88,243234,1,0,0:0:0:0:
288,52,243425,1,0,0:0:0:0:
324,40,243616,1,0,0:0:0:0:
364,24,243807,1,0,0:0:0:0:
424,56,244094,1,0,0:0:0:0:
436,120,244476,1,0,0:0:0:0:
356,156,245336,5,0,0:0:0:0:
324,140,245432,1,0,0:0:0:0:
296,128,245527,1,0,0:0:0:0:
264,120,245623,1,0,0:0:0:0:
232,120,245718,1,0,0:0:0:0:
208,104,245909,5,0,0:0:0:0:
196,72,246005,1,0,0:0:0:0:
152,64,246196,1,0,0:0:0:0:
124,64,246292,1,0,0:0:0:0:
120,116,246483,1,0,0:0:0:0:
136,152,246674,1,0,0:0:0:0:
168,168,246865,5,0,0:0:0:0:
196,176,246960,1,0,0:0:0:0:
224,180,247056,1,0,0:0:0:0:
252,192,247151,1,0,0:0:0:0:
276,200,247247,1,0,0:0:0:0:
336,216,247534,5,0,0:0:0:0:
320,244,247629,1,0,0:0:0:0:
368,248,247820,1,0,0:0:0:0:
400,216,248011,1,0,0:0:0:0:
384,184,248202,1,0,0:0:0:0:
336,168,248393,5,0,0:0:0:0:
312,180,248489,1,0,0:0:0:0:
292,192,248585,1,0,0:0:0:0:
272,208,248680,1,0,0:0:0:0:
252,220,248776,1,0,0:0:0:0:
224,236,248967,5,0,0:0:0:0:
184,236,249158,1,0,0:0:0:0:
168,192,249444,1,0,0:0:0:0:
176,140,249731,1,0,0:0:0:0:
200,112,249922,1,0,0:0:0:0:
256,112,250209,1,0,0:0:0:0:
308,116,250495,1,0,0:0:0:0:
352,112,250686,1,0,0:0:0:0:
424,180,251260,5,0,0:0:0:0:
376,184,251355,1,0,0:0:0:0:
348,196,251451,1,0,0:0:0:0:
328,216,251546,1,0,0:0:0:0:
296,228,251642,1,0,0:0:0:0:
260,228,251737,1,0,0:0:0:0:
224,224,251833,1,0,0:0:0:0:
180,208,252120,5,0,0:0:0:0:
196,176,252215,1,0,0:0:0:0:
216,160,252311,1,0,0:0:0:0:
248,156,252502,1,0,0:0:0:0:
260,120,252788,1,0,0:0:0:0:
228,112,252979,5,0,0:0:0:0:
196,112,253075,1,0,0:0:0:0:
168,112,253171,1,0,0:0:0:0:
140,112,253266,1,0,0:0:0:0:
104,112,253362,1,0,0:0:0:0:
72,120,253457,1,0,0:0:0:0:
76,160,253648,5,0,0:0:0:0:
88,176,253744,1,0,0:0:0:0:
128,224,254030,1,0,0:0:0:0:
144,240,254126,1,0,0:0:0:0:
188,244,254317,1,0,0:0:0:0:
224,224,254508,1,0,0:0:0:0:
256,200,254699,1,0,0:0:0:0:
188,244,254890,1,0,0:0:0:0:
224,224,255081,1,0,0:0:0:0:
256,200,255272,1,0,0:0:0:0:
184,244,255464,1,0,0:0:0:0:
224,224,255655,1,0,0:0:0:0:
256,200,255846,1,0,0:0:0:0:
292,172,256037,1,0,0:0:0:0:
96,64,257565,5,0,0:0:0:0:
124,64,257661,1,0,0:0:0:0:
148,72,257757,1,0,0:0:0:0:
168,88,257852,1,0,0:0:0:0:
196,100,257948,1,0,0:0:0:0:
224,116,258043,1,0,0:0:0:0:
264,104,258234,1,0,0:0:0:0:
300,88,258425,1,0,0:0:0:0:
332,88,258616,1,0,0:0:0:0:
364,116,258807,1,0,0:0:0:0:
344,152,258999,1,0,0:0:0:0:
308,164,259190,5,0,0:0:0:0:
280,164,259285,1,0,0:0:0:0:
256,164,259381,1,0,0:0:0:0:
236,164,259476,1,0,0:0:0:0:
212,164,259572,1,0,0:0:0:0:
192,188,259763,1,0,0:0:0:0:
184,208,259858,1,0,0:0:0:0:
200,240,260050,1,0,0:0:0:0:
240,252,260241,1,0,0:0:0:0:
276,248,260432,1,0,0:0:0:0:
308,232,260623,5,0,0:0:0:0:
336,232,260718,1,0,0:0:0:0:
360,228,260814,1,0,0:0:0:0:
384,232,260909,1,0,0:0:0:0:
412,232,261005,1,0,0:0:0:0:
444,240,261100,1,0,0:0:0:0:
456,200,261292,1,0,0:0:0:0:
440,176,261387,1,0,0:0:0:0:
416,144,261578,1,0,0:0:0:0:
400,136,261674,1,0,0:0:0:0:
364,164,261960,1,0,0:0:0:0:
328,184,262151,1,0,0:0:0:0:
288,184,262438,1,0,0:0:0:0:
240,184,262725,1,0,0:0:0:0:
208,160,262916,1,0,0:0:0:0:
76,172,263489,5,0,0:0:0:0:
92,152,263585,1,0,0:0:0:0:
112,136,263680,1,0,0:0:0:0:
136,112,263776,1,0,0:0:0:0:
156,100,263871,1,0,0:0:0:0:
200,84,264062,1,0,0:0:0:0:
240,80,264253,1,0,0:0:0:0:
276,88,264444,1,0,0:0:0:0:
304,108,264636,1,0,0:0:0:0:
324,120,264827,1,0,0:0:0:0:
336,144,265018,1,0,0:0:0:0:
312,168,265209,5,0,0:0:0:0:
292,184,265304,1,0,0:0:0:0:
276,196,265400,1,0,0:0:0:0:
252,212,265495,1,0,0:0:0:0:
228,224,265591,1,0,0:0:0:0:
208,236,265782,1,0,0:0:0:0:
192,212,265878,1,0,0:0:0:0:
204,188,265973,1,0,0:0:0:0:
240,160,266164,1,0,0:0:0:0:
228,128,266355,1,0,0:0:0:0:
216,40,266546,1,0,0:0:0:0:
120,88,266737,1,0,0:0:0:0:
300,96,266929,1,0,0:0:0:0:
116,176,267120,1,0,0:0:0:0:
304,180,267311,1,0,0:0:0:0:
108,260,267502,1,0,0:0:0:0:
316,272,267693,1,0,0:0:0:0:
120,336,267884,1,0,0:0:0:0:
312,348,268075,1,0,0:0:0:0:
116,292,268266,1,0,0:0:0:0:
388,292,268648,1,0,0:0:0:0:
388,72,269030,1,0,0:0:0:0:
116,76,269413,1,0,0:0:0:0:
256,196,269795,2,0,B|396:200|212:412|223:128|295:127|352:149|371:211|355:267|290:296|228:273|161:199|200:144|363:123|409:239|368:292|270:294|192:192|327:89|456:287|197:274|168:104|364:71|515:247|192:308|115:136|477:62|584:312|12:137|418:133|607:375|620:108|8:96,1,840
324,104,272852,6,0,B|64:196|296:312|296:312|520:280|320:128|312:88|312:88,1,630
256,100,275241,1,0,0:0:0:0:
236,96,275336,1,0,0:0:0:0:
208,96,275432,1,0,0:0:0:0:
184,104,275527,1,0,0:0:0:0:
160,104,275623,1,0,0:0:0:0:
132,104,275718,1,0,0:0:0:0:
104,104,275814,1,0,0:0:0:0:
84,108,275909,1,0,0:0:0:0:
68,168,276674,5,0,0:0:0:0:
92,192,276865,1,0,0:0:0:0:
128,192,276960,1,0,0:0:0:0:
156,192,277056,1,0,0:0:0:0:
184,192,277151,1,0,0:0:0:0:
212,192,277247,1,0,0:0:0:0:
232,192,277343,1,0,0:0:0:0:
260,192,277438,1,0,0:0:0:0:
204,96,278202,5,0,0:0:0:0:
232,96,278298,1,0,0:0:0:0:
264,104,278393,1,0,0:0:0:0:
292,120,278489,1,0,0:0:0:0:
312,136,278585,1,0,0:0:0:0:
332,160,278680,1,0,0:0:0:0:
340,184,278776,1,0,0:0:0:0:
336,208,278871,1,0,0:0:0:0:
316,220,278967,1,0,0:0:0:0:
256,240,279349,1,0,0:0:0:0:
204,188,279731,1,0,0:0:0:0:
256,136,280113,1,0,0:0:0:0:
312,192,280495,1,0,0:0:0:0:
128,92,281260,1,0,0:0:0:0:
336,80,282024,1,0,0:0:0:0:
296,128,283171,5,0,0:0:0:0:
184,128,283553,1,0,0:0:0:0:
252,60,284699,1,0,0:0:0:0:
252,176,285081,1,0,0:0:0:0:
200,156,285846,1,0,0:0:0:0:
96,220,286610,1,0,0:0:0:0:
84,188,287470,5,0,0:0:0:0:
112,164,287565,1,0,0:0:0:0:
136,144,287661,1,0,0:0:0:0:
160,128,287757,1,0,0:0:0:0:
180,112,287852,1,0,0:0:0:0:
204,92,287948,1,0,0:0:0:0:
224,76,288043,1,0,0:0:0:0:
240,60,288139,1,0,0:0:0:0:
300,84,288903,5,0,0:0:0:0:
320,116,289190,1,0,0:0:0:0:
320,168,289476,1,0,0:0:0:0:
280,200,289667,1,0,0:0:0:0:
120,152,290432,1,0,0:0:0:0:
176,100,290718,1,0,0:0:0:0:
228,128,291005,5,0,0:0:0:0:
228,152,291196,1,0,0:0:0:0:
228,176,291387,1,0,0:0:0:0:
228,196,291578,1,0,0:0:0:0:
228,216,291769,1,0,0:0:0:0:
228,240,291960,1,0,0:0:0:0:
232,260,292151,1,0,0:0:0:0:
264,264,292343,1,0,0:0:0:0:
284,240,292534,1,0,0:0:0:0:
304,208,292725,1,0,0:0:0:0:
344,160,293107,1,0,0:0:0:0:
316,88,293489,1,0,0:0:0:0:
268,88,293871,1,0,0:0:0:0:
236,148,294253,5,0,0:0:0:0:
172,180,294636,1,0,0:0:0:0:
176,80,295018,1,0,0:0:0:0:
104,112,295400,1,0,0:0:0:0:
80,216,295782,1,0,0:0:0:0:
120,264,295973,1,0,0:0:0:0:
200,260,296451,1,0,0:0:0:0:
264,208,296833,1,0,0:0:0:0:
