osu file format v14

[General]
AudioFilename: mp3.mp3
AudioLeadIn: 0
PreviewTime: 56089
Countdown: 0
SampleSet: Soft
StackLeniency: 0.7
Mode: 0
LetterboxInBreaks: 1
WidescreenStoryboard: 0

[Editor]
Bookmarks: 7944
DistanceSpacing: 1.2
BeatDivisor: 4
GridSize: 4
TimelineZoom: 1.4

[Metadata]
Title:Watagashi
TitleUnicode:わたがし
Artist:back number
ArtistUnicode:back number
Creator:-Hanashi-
Version:Yukata
Source:
Tags:cotton candy yukata festival
BeatmapID:1034988
BeatmapSetID:485315

[Difficulty]
HPDrainRate:5
CircleSize:4
OverallDifficulty:5
ApproachRate:6
SliderMultiplier:1.6
SliderTickRate:1

[Events]
//Background and Video events
0,0,"bg.jpg",0,0
//Break Periods
//Storyboard Layer 0 (Background)
//Storyboard Layer 1 (Fail)
//Storyboard Layer 2 (Pass)
//Storyboard Layer 3 (Foreground)
//Storyboard Sound Samples

[TimingPoints]
6493,483.870967741935,4,2,0,100,1,0

[Colours]
Combo1 : 255,128,64
Combo2 : 255,83,83
Combo3 : 102,255,140
Combo4 : 98,176,255
Combo5 : 190,125,255

[HitObjects]
58,209,6251,5,0,0:0:0:0:
58,209,6372,1,0,0:0:0:0:
58,209,6493,2,0,L|185:211,1,120
216,184,6976,2,0,P|202:242|295:233,1,160
364,204,7702,1,0,0:0:0:0:
428,276,7944,6,0,L|419:369,2,80
364,204,8670,2,0,P|394:170|434:159,1,80
509,110,9154,1,0,0:0:0:0:
423,66,9396,1,0,0:0:0:0:
425,159,9638,5,0,0:0:0:0:
423,66,9880,2,0,L|299:69,2,120
496,127,10847,2,0,P|504:154|484:213,1,80
399,174,11331,2,0,P|393:213|416:261,1,80
455,333,11815,5,0,0:0:0:0:
359,320,12057,1,0,0:0:0:0:
288,254,12299,2,0,P|295:214|280:166,1,80
194,146,12783,2,0,L|102:150,1,80
50,76,13267,1,0,0:0:0:0:
114,149,13509,1,0,0:0:0:0:
48,219,13751,6,0,B|80:254|54:300|54:300,1,80
40,336,14113,1,0,0:0:0:0:
40,336,14234,1,0,0:0:0:0:
132,304,14476,1,0,0:0:0:0:
216,348,14718,2,0,L|320:352,1,80
336,264,15202,2,0,L|244:260,1,80
192,188,15686,5,0,0:0:0:0:
192,188,16170,2,0,P|178:146|183:90,1,80
252,48,16654,1,0,0:0:0:0:
328,104,16896,2,0,L|427:107,1,80
476,36,17380,1,0,0:0:0:0:
492,132,17622,6,0,P|470:166|472:210,1,80
408,276,18105,2,0,P|363:269|311:282,1,80
240,236,18589,1,0,0:0:0:0:
240,236,19073,2,0,L|147:239,1,80
72,200,19557,5,0,0:0:0:0:
132,124,19799,1,0,0:0:0:0:
224,144,20041,2,0,P|262:138|323:156,1,80
400,140,20525,1,0,0:0:0:0:
352,224,20767,2,0,P|313:230|252:215,1,80
224,144,21251,1,0,0:0:0:0:
239,61,21492,6,0,L|116:61,1,120
84,28,21976,2,0,P|51:39|0:39,1,80
40,132,22460,1,0,0:0:0:0:
60,224,22702,1,0,0:0:0:0:
136,164,22944,1,0,0:0:0:0:
301,261,23428,6,0,L|292:349,2,80
375,200,24154,1,0,0:0:0:0:
257,47,24638,1,0,0:0:0:0:
257,47,24880,2,0,P|211:42|172:50,1,80
110,115,25363,6,0,L|98:255,2,120
178,48,26331,1,0,0:0:0:0:
227,130,26573,1,0,0:0:0:0:
284,53,26815,2,0,P|322:46|370:62,1,80
446,102,27299,6,0,L|441:198,1,80
364,239,27783,2,0,L|369:154,1,80
358,63,28267,1,0,0:0:0:0:
274,110,28509,1,0,0:0:0:0:
204,43,28751,2,0,P|162:53|116:40,1,80
77,127,29234,6,0,P|114:138|151:165,1,80
187,189,29597,1,0,0:0:0:0:
187,189,29718,1,0,0:0:0:0:
217,279,29960,1,0,0:0:0:0:
286,212,30202,2,0,L|381:210,1,80
425,134,30686,2,0,L|326:131,1,80
266,75,31170,1,0,0:0:0:0:
72,204,31654,6,0,P|76:284|92:304,1,80
164,240,32138,2,0,P|164:184|152:160,1,80
120,76,32622,1,0,0:0:0:0:
212,112,32863,1,0,0:0:0:0:
290,59,33105,2,0,L|370:55,1,80
468,36,33589,1,0,0:0:0:0:
432,128,33831,1,0,0:0:0:0:
369,55,34073,1,0,0:0:0:0:
400,244,34557,6,0,P|332:249|307:237,1,80
248,183,35041,1,0,0:0:0:0:
122,328,35525,1,0,0:0:0:0:
55,148,36009,1,0,0:0:0:0:
122,328,36492,1,0,0:0:0:0:
248,183,36976,1,0,0:0:0:0:
297,264,37218,6,0,L|377:260,1,80
445,190,37702,1,0,0:0:0:0:
445,190,37823,1,0,0:0:0:0:
445,190,37944,2,0,L|453:126,3,40
411,120,38428,2,0,L|419:64,3,40
421,32,38912,1,0,0:0:0:0:
