osu file format v11

[General]
AudioFilename: Manatsu no Photograph - TV Edit -.mp3
AudioLeadIn: 2000
PreviewTime: 40579
Countdown: 0
SampleSet: Soft
StackLeniency: 0.7
Mode: 0
LetterboxInBreaks: 0

[Editor]
DistanceSpacing: 1
BeatDivisor: 4
GridSize: 8

[Metadata]
Title:Manatsu no Photograph (TV Size)
TitleUnicode:真夏のフォトグラフ (TV Size)
Artist:azusa
ArtistUnicode:azusa
Creator:KoiSuru_
Version:Hard
Source:Astarotte no Omocha!
Tags:Summer in Photos ending loli
BeatmapID:189527
BeatmapSetID:63864

[Difficulty]
HPDrainRate:4
CircleSize:4
OverallDifficulty:6
ApproachRate:6
SliderMultiplier:1.6
SliderTickRate:2

[Events]
//Background and Video events
0,0,"pgbg.png"
Video,0,"mnpg.avi"
//Break Periods
//Storyboard Layer 0 (Background)
//Storyboard Layer 1 (Fail)
//Storyboard Layer 2 (Pass)
//Storyboard Layer 3 (Foreground)
//Storyboard Sound Samples
//Background Colour Transformations
3,100,255,255,255

[TimingPoints]
580,588.235294117647,4,2,1,25,1,0
4697,-100,4,2,1,20,0,0
5285,-125,4,2,1,15,0,0
24109,-111.111111111111,4,2,1,20,0,0
35874,-111.111111111111,4,2,1,15,0,0
36756,-111.111111111111,4,2,1,20,0,0
37638,-111.111111111111,4,2,1,30,0,0
38227,-100,4,2,1,50,0,0
39109,-100,4,2,1,40,0,0
39403,-100,4,2,1,30,0,0
39697,-100,4,2,2,40,0,0
40579,-100,4,1,2,50,0,1
40874,-100,4,1,1,50,0,1
46168,-100,4,2,2,50,0,1
46462,-100,4,1,1,50,0,1
49697,-100,4,2,2,50,0,1
49918,-100,4,1,1,50,0,0
49991,-100,4,1,1,50,0,1
59109,-100,4,2,2,50,0,1
59329,-100,4,1,1,50,0,0
59403,-100,4,1,2,50,0,1
59697,-100,4,1,1,50,0,1
64991,-100,4,2,2,50,0,1
65285,-100,4,1,1,50,0,1
68521,-100,4,2,2,50,0,1
68741,-100,4,1,1,50,0,0
68815,-100,4,1,2,50,0,1
69109,-100,4,1,1,50,0,1
72050,-100,4,2,2,50,0,1
72197,-100,4,1,1,50,0,1
72344,-100,4,2,2,50,0,1
72638,-100,4,1,1,50,0,1
76756,-100,4,2,2,50,0,1
77050,-100,4,1,1,50,0,1
77932,-100,4,2,2,50,0,1
78227,-111.111111111111,4,2,1,50,0,0
82344,-111.111111111111,4,2,2,50,0,0
82932,625,4,2,1,40,1,0
82932,-133.333333333333,4,2,1,40,0,0
84182,652.173913043478,4,2,1,30,1,0
84182,-133.333333333333,4,2,1,30,0,0
85486,659.340659340659,4,2,1,20,1,0
85650,-100,4,2,1,5,0,0

[Colours]
Combo1 : 235,140,230
Combo2 : 255,255,255
Combo3 : 250,240,160
Combo4 : 255,150,0
Combo5 : 112,188,245
Combo6 : 51,51,191

[HitObjects]
32,32,580,2,0,B|8:152|32:272,1,240,2|0,0:0|0:0,0:0:0
96,320,1756,2,0,B|224:264|304:384,1,240,2|0,0:0|0:0,0:0:0
376,344,2932,2,0,B|424:272|416:192,1,160,2|0,0:0|0:0,0:0:0
376,120,3815,1,0,0:0:0
392,40,4109,1,2,0:0:0
232,72,4697,1,0,0:0:0
232,72,5285,6,0,B|192:128|120:120,1,128,2|0,0:0|0:0,0:0:0
48,96,6168,1,0,0:0:0
48,96,6462,2,0,B|56:160,1,64,2|0,0:0|0:0,0:0:0
80,224,7050,2,0,B|56:360,2,128,0|2|0,0:0|0:0|0:0,0:0:0
148,200,8521,1,0,0:0:0
176,264,8815,1,2,0:0:0
280,320,9403,1,0,0:0:0
280,320,9991,6,0,B|336:280|400:288,1,128,2|0,0:0|0:0,0:0:0
464,260,10874,1,0,0:0:0
512,208,11168,2,0,B|520:144|512:80,1,128,2|0,0:0|0:0,0:0:0
456,32,12050,1,0,0:0:0
400,80,12344,2,0,B|392:144|400:208,2,128,2|0|0,0:0|0:0|0:0,0:0:0
344,32,13815,2,0,B|232:0|184:104,1,192,2|2,0:0|0:0,0:0:0
152,328,15579,5,0,0:0:0
152,328,15874,2,0,B|280:320,1,128,2|0,0:0|0:0,0:0:0
348,348,16756,1,0,0:0:0
384,288,17050,2,0,B|392:240|384:192,2,96,2|0|0,0:0|0:0|0:0,0:0:0
440,328,18227,1,2,0:0:0
496,192,18815,1,0,0:0:0
496,192,19403,6,0,B|472:64,1,128,2|0,0:0|0:0,0:0:0
416,24,20285,1,0,0:0:0
416,24,20579,2,0,B|360:56|288:48,1,128,2|0,0:0|0:0,0:0:0
228,24,21462,1,0,0:0:0
184,80,21756,2,0,B|176:200|64:168|56:296,1,256,2|2,0:0|0:0,0:0:0
144,384,23521,1,0,0:0:0
288,344,24109,6,0,B|328:384|392:376,2,107.999996704102,2|0|0,0:0|0:0|0:0,0:0:0
320,276,25285,2,0,B|400:292|448:228,1,143.999995605469,2|0,0:0|0:0,0:0:0
504,176,26168,1,0,0:0:0
512,104,26462,2,0,B|432:112|384:48,1,143.999995605469,2|0,0:0|0:0,0:0:0
328,96,27344,1,2,0:0:0
328,96,27491,2,0,B|248:40|152:72,1,179.999994506836,0|0,0:0|0:0,0:0:0
96,120,28521,5,0,0:0:0
96,120,28668,1,0,0:0:0
96,120,28815,2,0,B|104:200|56:256,1,143.999995605469,2|0,0:0|0:0,0:0:0
88,324,29697,1,0,0:0:0
88,324,29844,1,0,0:0:0
88,324,29991,2,0,B|168:348|216:276,1,143.999995605469,0|2,0:0|0:0,0:0:0
424,324,31168,2,0,B|344:348|296:276,2,143.999995605469,2|0|2,0:0|0:0|0:0,0:0:0
488,192,32932,1,0,0:0:0
464,120,33227,5,0,0:0:0
464,120,33374,1,0,0:0:0
464,120,33521,2,0,B|400:152|320:144,1,143.999995605469,2|0,0:0|0:0,0:0:0
256,112,34403,1,2,0:0:0
112,88,34991,2,0,B|192:80,2,71.9999978027344,2|0|0,0:0|0:0|0:0,0:0:0
72,152,35874,6,0,B|80:232|16:280,1,143.999995605469,4|0,0:0|0:0,0:0:0
64,336,36756,2,0,B|128:368|208:360,1,143.999995605469,2|0,0:0|0:0,0:0:0
256,312,37638,1,2,0:0:0
256,152,38227,5,2,0:0:0
40,48,39109,5,2,0:0:0
72,120,39403,2,0,B|64:200,3,80,2|2|8|4,0:0|0:0|0:0|0:0,0:0:0
56,280,40579,6,0,B|144:264|192:344,1,160,6|0,0:0|0:0,0:0:0
272,328,41462,1,2,0:0:0
344,368,41756,2,0,B|504:352,1,160,2|8,0:0|0:0,0:0:0
456,192,42932,6,0,B|368:216|312:144,1,160,2|0,0:0|0:0,0:0:0
352,72,43815,1,2,0:0:0
352,72,44109,2,0,B|440:96|496:24,1,160,2|8,0:0|0:0,0:0:0
256,48,45285,6,0,B|176:32|96:48,3,160,2|0|2|8,0:0|0:0|0:0|0:0,0:0:0
112,128,47344,1,0,0:0:0
32,112,47638,6,0,B|16:192|32:272,1,160,2|0,0:0|0:0,0:0:0
108,296,48521,1,2,0:0:0
108,296,48668,1,0,0:0:0
108,296,48815,2,0,P|148:296|188:280|188:280,1,80,2|0,0:0|0:0,0:0:0
232,216,49403,1,8,0:0:0
232,216,49697,1,8,0:0:0
304,240,49991,6,0,B|320:328,1,80,6|0,0:0|0:0,0:0:0
384,368,50579,2,0,B|400:280,2,80,0|2|2,0:0|0:0|0:0,0:0:0
416,208,51756,1,8,0:0:0
488,64,52344,6,0,B|416:24|328:40,1,160,2|0,0:0|0:0,0:0:0
256,64,53227,1,2,0:0:0
176,88,53521,2,0,B|93:103|21:63,1,160,2|8,0:0|0:0,0:0:0
0,224,54697,6,0,B|32:312|128:288,1,160,2|0,0:0|0:0,0:0:0
200,256,55579,1,2,0:0:0
200,256,55874,2,0,B|360:272,1,160,2|8,0:0|0:0,0:0:0
408,208,56756,1,0,0:0:0
352,152,57050,6,0,B|272:160,2,80,2|0|0,0:0|0:0|0:0,0:0:0
392,80,57932,1,2,0:0:0
392,80,58079,1,0,0:0:0
392,80,58227,2,0,B|312:72,2,80,2|0|8,0:0|0:0|0:0,0:0:0
444,16,59109,1,8,0:0:0
472,88,59403,6,0,B|488:168|472:248,1,160,6|0,0:0|0:0,0:0:0
416,304,60285,1,2,0:0:0
416,304,60579,2,0,B|416:344|440:384,2,80,2|0|8,0:0|0:0|0:0,0:0:0
352,256,61462,1,0,0:0:0
352,256,61756,6,0,B|304:336|216:320,1,160,2|0,0:0|0:0,0:0:0
152,272,62638,1,2,0:0:0
80,304,62932,2,0,B|72:344|80:384,2,80,2|0|8,0:0|0:0|0:0,0:0:0
32,240,63815,1,0,0:0:0
32,240,63962,1,0,0:0:0
32,240,64109,6,0,B|80:176|72:88,3,160,2|0|2|8,0:0|0:0|0:0|0:0,0:0:0
144,48,66168,1,0,0:0:0
176,120,66462,6,0,B|168:160|168:200,2,80,2|0|0,0:0|0:0|0:0,0:0:0
240,72,67344,1,2,0:0:0
240,72,67491,1,0,0:0:0
240,72,67638,2,0,B|280:72|320:80,1,80,2|0,0:0|0:0,0:0:0
392,112,68227,2,0,B|432:112|472:104,1,80,8|8,0:0|0:0,0:0:0
472,24,68815,6,0,B|472:192,1,160,6|0,0:0|0:0,0:0:0
472,264,69697,1,2,0:0:0
472,264,69991,2,0,B|432:256|392:264,1,80,2|0,0:0|0:0,0:0:0
392,344,70579,2,0,B|432:352|472:344,2,80,8|0|2,0:0|0:0|0:0,0:0:0
320,304,71462,5,0,0:0:0
272,368,71756,2,0,B|208:376|160:336,2,120
272,368,72932,1,8,0:0:0
104,384,73521,6,0,B|184:336|176:240,1,160,2|0,0:0|0:0,0:0:0
112,208,74403,1,2,0:0:0
48,160,74697,2,0,B|40:74|120:26,1,160,2|8,0:0|0:0,0:0:0
192,56,75579,1,0,0:0:0
256,104,75874,6,0,B|256:264,2,160,2|0|2,0:0|0:0|0:0,0:0:0
256,104,77638,1,8,0:0:0
320,56,77932,1,8,0:0:0
320,56,78227,6,0,B|448:24|480:160,1,215.999993408203,4|0,0:0|0:0,0:0:0
448,224,79403,2,0,B|440:304|488:376,1,143.999995605469,2|0,0:0|0:0,0:0:0
344,304,80579,2,0,B|308:304|272:320,1,71.9999978027344,2|0,0:0|0:0,0:0:0
208,352,81168,2,0,B|152:360|104:320,1,107.999996704102,0|2,0:0|0:0,0:0:0
48,232,82050,1,0,0:0:0
12,168,82344,1,2,0:0:0
48,104,82638,1,8,0:0:0
84,168,82932,6,0,P|144:176|208:168,1,120.000004577637,4|0,0:0|0:0,0:0:0
428,216,84182,6,0,P|368:208|304:216,1,120.000004577637,4|0,0:0|0:0,0:0:0
256,80,85486,5,4,0:0:0
256,192,85650,12,0,89606,0:0:0
