osu file format v9

[General]
AudioFilename: kimi no mamade.mp3
AudioLeadIn: 2007
PreviewTime: 77603
Countdown: 0
SampleSet: Soft
StackLeniency: 0.7
Mode: 0
LetterboxInBreaks: 0

[Editor]
Bookmarks: 1158,9936,13603,33158,46936,120269,194936,210825
DistanceSpacing: 1
BeatDivisor: 4
GridSize: 4

[Metadata]
Title:Kimi no Mama de
Artist:azusa
Creator:Sumisola
Version:Lover
Source:Amagami SS
Tags:Flash bag kiss Disoy Okamiroy tachibana rihoko morishima haruka tsukasa ayatsuji nanasaki kaoru nakata sae christmas

[Difficulty]
HPDrainRate:7
CircleSize:4
OverallDifficulty:7
ApproachRate:7
SliderMultiplier:1.7
SliderTickRate:2

[Events]
//Background and Video events
0,0,"lhk.jpg"
//Break Periods
2,15581,32258
2,177358,194036
//Storyboard Layer 0 (Background)
//Storyboard Layer 1 (Fail)
//Storyboard Layer 2 (Pass)
//Storyboard Layer 3 (Foreground)
//Storyboard Sound Samples
//Background Colour Transformations
3,100,251,214,145

[TimingPoints]
270,444.444444444444,4,2,1,50,1,0
1047,-200,4,2,1,50,0,0
33047,-100,4,2,1,70,0,0
47381,-100,4,2,1,50,0,0
47492,-100,4,2,1,70,0,0
61492,-100,4,2,1,50,0,0
61714,-100,4,2,1,70,0,0
65047,-100,4,2,1,50,0,0
65269,-100,4,2,1,70,0,0
68603,-100,4,2,1,50,0,0
68825,-100,4,2,1,70,0,0
72158,-100,4,2,1,50,0,0
72381,-100,4,2,1,70,0,0
77603,-100,4,2,1,80,0,1
104269,-100,4,2,1,70,0,0
105936,-100,4,2,1,50,0,0
106158,-100,4,2,1,70,0,0
120158,-100,4,2,1,50,0,0
120381,-100,4,2,1,70,0,0
134381,-100,4,2,1,50,0,0
134603,-100,4,2,1,70,0,0
137936,-100,4,2,1,50,0,0
138158,-100,4,2,1,70,0,0
141492,-100,4,2,1,50,0,0
141714,-100,4,2,1,70,0,0
145158,-100,4,2,1,50,0,0
145269,-100,4,2,1,70,0,0
150492,-100,4,2,1,80,0,1
177158,-100,4,2,1,70,0,0
194825,-200,4,2,2,50,0,0
195047,-200,4,2,2,70,0,0
198381,-200,4,2,2,40,0,0
198603,-200,4,2,2,70,0,0
201825,-100,4,2,2,50,0,0
202158,-100,4,2,2,70,0,0
205492,-100,4,2,2,40,0,0
205714,-100,4,2,2,70,0,0
209047,-100,4,2,2,0,0,0
211714,-100,4,2,1,50,0,0
213158,-100,4,2,1,80,0,1
236158,-100,4,2,1,60,0,1
237936,-100,4,2,1,40,0,1
239825,-100,4,2,1,0,0,0

[Colours]
Combo1 : 220,16,149
Combo2 : 47,204,118
Combo3 : 22,152,222
Combo4 : 231,177,16
Combo5 : 220,53,35

[HitObjects]
104,112,1158,2,0,B|80:144|56:192|80:248|112:280,3,170
256,192,4269,1,2
408,112,4714,6,0,B|432:144|456:192|432:248|400:280,3,170
256,192,7825,1,2
116,96,8270,6,0,B|88:128,2,42.5,0|0|2
184,48,8936,1,0
256,96,9158,2,0,B|308:124|324:168,1,85,0|2
317,153,9825,1,0
64,192,10492,6,0,B|88:248|124:272,2,85,2|0|2
112,120,11603,1,0
180,68,11825,2,0,B|236:56|280:72,4,85,4|2|8|2|8
256,192,14047,12,4,15381
48,48,33158,6,0,B|76:144|168:156,1,170,0|2
224,92,33825,1,0
304,124,34047,6,0,B|400:152|412:244,1,170,0|8
360,308,34714,1,0
276,308,34936,2,0,B|176:308|176:308,2,85,0|0|2
312,232,35603,1,0
328,204,35714,1,0
348,176,35825,1,0
372,96,36047,2,0,B|288:56|200:96,1,170
124,108,36714,6,0,B|64:192|132:288,1,170,0|2
192,312,37381,1,0
192,228,37603,2,0,B|268:172|360:236,1,170,0|8
404,296,38269,5,0
372,312,38381,1,0
340,320,38492,1,0
256,300,38714,2,0,B|256:204,2,85,0|2|0
172,320,39381,1,0
100,276,39603,2,0,B|56:192|104:100,1,170
172,68,40269,6,0,B|256:68,2,85,0|0|2
108,124,40936,1,0
88,152,41047,1,0
108,180,41158,2,0,B|280:180,1,170,0|10
324,120,41825,1,0
380,184,42047,6,0,B|432:264|384:344,2,170,0|2|0
380,184,43158,1,0
296,184,43381,2,0,B|208:184,2,85,10|0|0
368,144,44047,5,0
352,116,44158,1,0
324,96,44269,1,2
240,104,44492,1,0
132,132,44714,1,0
220,224,44936,1,0
284,116,45158,1,8
180,188,45380,5,0
136,68,45602,1,0
92,188,45825,1,0
216,156,46047,1,0
220,284,46269,5,0
216,156,46492,1,0
296,256,46714,1,0
184,320,46936,1,8
288,248,47158,5,0
288,248,47269,1,0
288,248,47381,2,0,B|368:176|272:76,1,170,4|2
208,96,48047,1,0
128,128,48269,2,0,B|96:172|144:232,2,85,0|0|8
188,68,48936,5,0
220,56,49047,1,0
252,52,49158,2,0,B|336:52,2,85,0|0|2
252,136,49825,2,0,B|252:228,1,85
252,304,50269,1,0
252,304,50714,5,0
184,252,50936,2,0,B|144:208|204:152,1,85
216,172,51269,1,0
252,172,51381,1,2
336,172,51603,5,0
420,172,51825,2,0,B|460:216|400:272,1,85
388,252,52158,1,0
356,252,52269,1,8
272,252,52492,1,0
212,192,52714,6,0,B|152:256,2,85,0|0|2
268,128,53381,1,0
268,128,53825,1,0
100,128,54269,5,0
120,100,54381,1,0
148,80,54492,2,0,B|240:56|324:84,1,170,0|2
388,124,55158,1,0
412,148,55269,1,0
424,180,55381,2,0,B|456:228|408:288,2,85,0|0|8
340,180,56047,5,0
256,180,56269,2,0,B|224:228|272:288,2,85,0|0|2
328,136,56936,2,0,B|300:60|188:60,1,170
124,116,57603,1,8
88,192,57825,5,0
120,192,57936,1,0
152,192,58047,2,0,B|328:192,1,170,0|2
408,192,58714,1,0
408,192,58936,2,0,B|440:144|388:92,2,85,0|0|8
372,268,59603,5,0
348,292,59714,1,0
316,308,59825,1,0
256,248,60047,1,0
256,76,60492,1,0
256,76,60936,6,0,B|296:40|360:92,2,85,0|8|0
180,112,61603,5,4
128,180,61825,1,0
156,260,62047,1,2
224,312,62269,1,0
308,312,62492,2,0,B|384:232|296:140,1,170,0|8
312,159,63158,1,0
256,84,63381,5,2
256,84,63825,2,0,B|160:152|268:232,1,170,2|0
336,192,64492,1,0
176,192,64714,1,8
256,300,64936,1,0
256,300,65158,6,0,B|360:228|240:160,1,170,4|2
180,124,65825,1,0
256,244,66047,1,0
320,136,66269,1,0
232,104,66492,5,8
296,220,66714,1,0
368,112,66936,1,0
284,80,67158,5,0
340,200,67381,1,2
412,84,67603,2,0,B|328:52|220:88,1,170
244,80,68269,1,8
80,332,68714,5,4
196,192,68936,1,0
68,208,69158,1,2
196,236,69381,5,0
40,264,69603,1,0
144,344,69825,1,0
124,176,70047,5,8
208,296,70269,1,0
104,120,70492,1,2
104,120,70936,6,0,B|196:164|296:108,2,170,2|0|8
168,64,72047,5,0
244,100,72269,2,0,B|244:272,1,170,4|2
320,312,72936,5,0
376,248,73158,1,0
372,164,73381,1,0
328,92,73603,1,8
260,44,73825,1,0
180,72,74047,6,0,B|104:148|188:240,1,170,0|2
256,248,74714,1,0
328,192,74936,6,0,B|376:240|304:292,2,85,0|0|2
256,144,75603,1,0
188,192,75825,6,0,B|148:232|108:184,4,85,0|0|2|0|0
368,40,77158,1,8
368,40,77603,6,0,B|428:124|364:204,1,170,4|8
308,140,78269,1,0
308,140,78714,6,0,B|264:104|228:140,2,85,0|8|0
376,192,79381,2,0,B|356:248|280:268|208:224,1,170,0|8
204,156,80047,2,0,B|224:100|300:80|372:124,1,170
349,112,80714,1,8
256,256,81158,6,0,B|196:176|256:100,1,170,0|8
340,100,81825,1,0
340,100,82269,6,0,B|384:64|420:100,2,85,0|8|0
288,168,82936,2,0,B|232:188|212:264|256:336,1,170,0|8
324,340,83603,2,0,B|380:320|400:244|356:172,1,170
368,195,84269,1,8
256,64,84714,6,0,B|168:64,2,85,0|0|8
256,64,85381,1,0
148,192,85825,5,0
256,264,86047,1,8
364,192,86269,1,0
256,120,86492,2,0,B|256:36,2,85,0|0|8
256,248,87158,1,0
256,248,87603,6,0,B|336:212|396:116,1,170
336,72,88269,2,0,B|256:16|172:72,3,170,0|8|0|8
128,136,89825,5,0
116,168,89936,1,0
124,200,90047,1,0
188,252,90269,2,0,B|132:320,2,85,0|8|0
240,184,90936,1,0
300,124,91158,2,0,B|396:192|296:272,1,170,0|0
220,264,91825,6,0,B|180:340,2,85,4|0|8
296,228,92492,2,0,B|352:148|292:64,1,170
212,64,93158,5,8
124,160,93381,1,0
248,180,93603,1,0
168,80,93825,5,0
84,176,94047,1,8
212,196,94269,2,0,B|208:92|80:88,1,170
102,89,94936,1,8
100,260,95381,5,0
192,260,95603,1,0
212,232,95714,1,0
232,204,95825,1,8
280,132,96047,1,0
280,132,96492,6,0,B|368:132,2,85,0|8|0
216,76,97158,1,0
216,76,97381,2,0,B|168:156|220:248,1,170
256,312,98047,1,0
320,256,98269,1,2
304,232,98381,1,2
288,208,98492,1,10
232,144,98714,5,0
296,88,98936,1,0
316,108,99047,1,0
324,136,99158,1,0
312,164,99269,1,0
296,188,99381,1,8
236,248,99603,2,0,B|112:248,2,85
316,280,100269,1,8
396,252,100492,1,0
436,180,100714,2,0,B|420:128|360:104,1,85
312,72,101158,5,8
228,52,101381,1,0
188,128,101603,2,0,B|128:188,2,85,0|0|8
256,180,102269,1,0
256,192,102492,12,4,104269
460,332,106047,6,0,B|392:332|284:332,1,170,4|2
288,248,106714,1,0
204,248,106936,6,0,B|108:220|96:128,1,170,0|8
156,68,107603,1,0
240,68,107825,2,0,B|340:68|340:68,2,85,0|0|2
204,144,108492,1,0
188,176,108603,1,0
208,204,108714,1,0
292,204,108936,2,0,B|376:164|464:204,1,170
452,284,109603,6,0,B|368:344|272:276,1,170,0|2
212,264,110270,1,0
140,216,110492,2,0,B|140:144|140:40,1,170,0|8
224,56,111158,5,0
252,76,111270,1,0
268,104,111381,1,0
308,180,111603,2,0,B|308:276,2,85,0|2|0
348,104,112270,1,0
432,104,112492,2,0,B|476:188|428:280,1,170
356,300,113158,6,0,B|272:300,2,85,0|0|2
424,248,113825,1,0
440,220,113936,1,0
420,192,114047,2,0,B|248:192,1,170,0|8
192,252,114714,1,0
136,188,114936,6,0,B|84:108|132:28,2,170,0|2|0
136,188,116047,1,0
220,188,116270,2,0,B|308:188,2,85,8|0|0
148,228,116936,5,0
164,256,117047,1,0
192,276,117158,1,2
256,332,117381,1,0
328,284,117603,6,0,B|372:192|320:108,2,170,0|8|0
256,240,118714,1,0
256,212,118825,1,0
256,184,118936,1,0
256,100,119158,1,0
176,136,119381,1,0
248,180,119603,1,0
280,180,119714,1,0
312,180,119825,1,8
396,180,120047,5,0
480,184,120269,6,0,B|480:288|356:288,1,170,4|2
288,292,120936,1,0
288,208,121158,2,0,B|332:176|392:224,2,85,0|0|8
260,288,121825,5,0
260,288,121936,1,0
260,288,122047,2,0,B|260:344|328:344,2,85
256,204,122714,2,0,B|256:112,1,85
256,36,123158,1,0
256,36,123603,5,0
256,36,123714,1,0
256,36,123825,2,0,B|212:36|164:36,2,85
316,96,124492,5,0
316,96,124714,2,0,B|400:144|400:144,2,85,0|0|8
232,96,125381,1,0
164,148,125603,1,0
148,172,125714,1,0
176,184,125825,1,0
152,204,125936,1,0
172,224,126047,1,0
256,244,126269,1,0
256,244,126714,1,0
412,256,127158,5,0
392,284,127269,1,0
364,304,127381,2,0,B|272:328|188:300,1,170,0|2
124,260,128047,1,0
100,236,128158,1,0
88,204,128269,2,0,B|56:156|104:96,2,85,0|0|8
172,204,128936,5,0
256,204,129158,2,0,B|288:156|240:96,2,85,0|0|2
184,248,129825,2,0,B|212:324|324:324,1,170
388,268,130492,1,8
424,192,130714,5,0
392,192,130825,1,0
360,192,130936,2,0,B|184:192,1,170,0|2
104,192,131603,5,0
168,304,131825,1,0
228,192,132047,1,0
164,80,132269,1,8
104,192,132492,6,0,B|36:192,2,42.5
188,192,132936,1,0
264,228,133158,1,0
256,308,133381,1,0
256,308,133825,6,0,B|216:344|152:292,2,85,0|8|0
332,272,134492,5,4
384,204,134714,1,0
356,124,134936,1,2
288,72,135158,1,0
244,148,135381,2,0,B|204:232,3,85,0|0|8|0
256,300,136269,5,2
256,300,136714,2,0,B|352:232|244:152,1,170,2|0
176,192,137381,1,0
336,192,137603,1,8
256,84,137825,1,0
256,84,138047,6,0,B|152:156|272:224,1,170,4|2
332,260,138714,1,0
396,128,138936,1,0
288,200,139158,1,0
332,52,139381,5,8
224,160,139603,1,0
208,20,139825,1,0
152,184,140047,5,0
56,84,140269,1,2
100,300,140492,2,0,B|184:332|292:296,1,170
268,304,141158,1,8
432,52,141603,5,4
284,100,141825,1,0
428,196,142047,1,2
460,96,142269,5,0
452,224,142492,1,0
316,136,142714,1,0
328,244,142936,5,8
404,104,143158,1,0
408,264,143381,1,2
408,264,143825,6,0,B|316:220|216:276,2,170,2|0|8
344,320,144936,5,0
304,304,145047,1,0
268,284,145158,2,0,B|268:112,1,170,4|2
192,72,145825,5,0
136,136,146047,1,0
140,220,146270,1,0
184,292,146492,1,8
252,340,146714,1,0
332,312,146936,6,0,B|408:236|324:144,1,170,0|2
256,136,147603,1,0
184,192,147825,6,0,B|136:144|208:92,2,85,0|0|8
264,160,148492,1,0
340,120,148714,5,0
440,172,148936,1,0
436,284,149158,1,0
352,356,149381,1,0
256,300,149603,1,0
256,40,150047,1,8
144,344,150492,6,0,B|84:260|148:180,1,170,4|8
228,188,151158,1,0
228,188,151603,6,0,B|272:224|304:184,2,85,0|8|0
180,120,152270,2,0,B|220:60|292:60|336:140,1,170,0|8
324,200,152936,2,0,B|284:260|212:260|168:180,1,170,0|0
100,192,153603,1,8
256,124,154047,6,0,B|372:124|372:256,1,170,0|8
284,224,154714,1,0
284,224,155158,6,0,B|228:224|228:284,2,85,0|8|0
360,224,155825,2,0,B|456:156|352:88,1,170,0|8
272,92,156492,6,0,B|164:92|140:188,1,170,0|0
144,176,157158,1,8
256,320,157603,6,0,B|344:320,2,85,0|0|8
256,320,158270,1,0
364,192,158714,5,0
256,120,158936,1,8
148,192,159158,1,0
256,264,159381,2,0,B|256:348,2,85,0|0|8
256,136,160047,1,0
256,136,160492,6,0,B|176:172|116:268,1,170
204,288,161158,2,0,B|176:332|112:332,2,85,0|0|8
256,220,161825,1,0
388,328,162269,5,0
432,256,162492,1,8
380,188,162714,1,0
380,188,162825,1,0
380,188,162936,1,0
324,132,163158,2,0,B|380:64,2,85,0|8|0
272,200,163825,1,0
212,260,164047,2,0,B|116:192|216:112,1,170,0|0
292,120,164714,6,0,B|332:44,2,85,4|0|8
216,156,165381,2,0,B|160:236|220:320,1,170
300,320,166047,5,8
372,192,166270,1,0
296,68,166492,1,0
220,192,166714,5,0
264,192,166825,1,0
308,192,166936,1,8
308,192,167158,2,0,B|312:296|424:296,1,170
416,296,167825,1,8
412,124,168270,5,0
320,124,168492,1,0
300,152,168603,1,0
280,180,168714,1,8
232,252,168936,1,0
232,252,169381,6,0,B|144:252,2,85,0|8|0
296,308,170047,1,0
296,308,170270,2,0,B|344:228|292:136,1,170
296,144,171158,1,2
296,144,171270,1,2
296,144,171381,1,10
256,220,171603,5,0
188,272,171825,1,0
172,244,171936,1,0
184,212,172047,1,0
256,164,172270,1,8
256,164,172492,2,0,B|380:164,2,85
196,104,173158,1,8
116,132,173381,1,0
76,204,173603,2,0,B|92:256|152:280,1,85
200,312,174047,5,8
284,332,174270,1,0
324,256,174492,2,0,B|384:196,2,85,0|0|8
256,204,175158,1,0
200,140,175381,2,0,B|164:176|172:240,2,85,0|0|8
256,76,176047,1,0
256,248,176492,1,0
256,248,176714,2,0,B|336:172|256:104,1,170,8|4
432,60,194936,5,4
404,116,195158,1,0
368,168,195381,1,0
328,216,195603,1,0
280,256,195825,1,8
280,256,196270,6,0,B|280:316,2,42.5
228,216,196936,1,0
168,192,197158,2,0,B|168:144|220:112,2,85,0|8|0
188,252,198270,5,0
216,308,198492,2,0,B|256:344|308:300,1,85,4|0
320,252,199158,1,0
296,192,199381,2,0,B|296:144,1,42.5,8|0
232,160,199825,2,0,B|232:108,1,42.5
168,124,200270,6,0,B|168:80,1,42.5
108,96,200714,2,0,B|108:44,1,42.5
192,56,201381,1,0
192,56,201603,1,0
360,64,202047,5,4
360,200,202269,1,0
280,92,202492,5,0
300,236,202714,1,0
208,136,202936,5,8
252,288,203158,1,0
144,188,203381,5,0
208,344,203603,1,0
128,188,203825,5,0
256,68,204047,1,0
372,188,204269,2,0,B|340:280|224:312,2,170,0|8|0
316,124,205381,5,0
256,64,205603,2,0,B|256:248,1,170,4|0
256,320,206269,5,0
340,320,206492,2,0,B|388:320|416:288,1,85,8|0
344,244,206936,2,0,B|372:212|420:212,1,85
472,144,207381,6,0,B|392:84|304:152,1,170
256,208,208047,1,0
192,264,208269,6,0,B|124:184|196:96,1,170,8|0
256,60,208936,1,0
256,192,209158,12,0,210825
256,192,211825,5,4
256,192,212270,1,4
256,192,212714,1,4
144,40,213158,6,0,B|84:124|148:204,1,170,4|8
204,140,213825,1,0
204,140,214270,6,0,B|248:104|284:140,2,85,0|8|0
140,192,214936,1,0
244,268,215269,1,0
244,268,215381,1,8
308,156,215603,2,0,B|288:100|212:80|140:124,1,170
162,112,216158,1,0
163,112,216270,1,8
256,256,216714,6,0,B|316:176|256:100,1,170,0|8
172,100,217381,1,0
172,100,217825,6,0,B|128:64|92:100,2,85,0|8|0
236,156,218492,2,0,B|276:184|272:248,1,85,0|0
268,260,218825,1,0
256,288,218936,1,8
188,340,219158,2,0,B|132:320|112:244|156:172,1,170
144,195,219825,1,8
256,64,220270,6,0,B|344:64,2,85,0|0|8
192,120,220936,1,0
148,192,221158,2,0,B|332:192,1,170,0|8
388,240,221825,1,0
324,296,222047,2,0,B|244:340,2,85,0|0|8
360,220,222714,1,0
316,148,222936,6,0,B|232:88|136:164,1,170,0|8
200,224,223603,1,0
140,284,223825,1,0
212,328,224047,1,0
240,324,224158,1,0
268,312,224269,1,8
336,260,224492,1,0
340,176,224713,1,0
340,148,224824,1,0
340,120,224936,1,0
312,120,225047,1,0
284,120,225158,1,8
128,192,225603,6,0,B|216:192,1,85,4|0
296,192,226047,1,8
256,116,226269,1,4
56,324,226714,1,4
56,240,226936,1,8
292,264,227381,6,0,B|332:340,2,85,4|0|8
216,228,228047,2,0,B|160:148|220:64,1,170
300,64,228714,5,8
388,160,228936,1,0
264,180,229158,1,0
344,80,229381,5,0
428,176,229603,1,8
300,196,229825,2,0,B|304:92|432:88,1,170
409,90,230492,1,8
412,260,230936,5,0
320,260,231158,1,0
300,232,231270,1,0
280,204,231381,1,8
220,140,231603,2,0,B|252:96|304:96,1,85,0|0
376,100,232047,5,0
412,176,232270,1,8
380,256,232492,1,0
312,308,232714,1,0
228,288,232936,1,0
208,260,233047,1,0
200,228,233158,2,0,B|232:192|280:184,4,85,8|0|0|0|8
128,276,234270,5,0
72,212,234492,2,0,B|40:168|80:112,1,85,0|0
144,96,234936,1,8
228,92,235158,2,0,B|352:92,2,85,0|0|0
208,176,235825,1,8
152,240,236047,1,0
76,180,236270,2,0,B|92:128|152:104,1,85,4|0
200,72,236714,5,0
284,52,236936,1,0
340,116,237158,2,0,B|428:192|324:296,1,170
304,192,237825,1,0
256,192,238047,12,0,239825
