osu file format v13

[General]
AudioFilename: song4u.mp3
AudioLeadIn: 0
PreviewTime: 47426
Countdown: 0
SampleSet: None
StackLeniency: 0.7
Mode: 0
LetterboxInBreaks: 0
WidescreenStoryboard: 0

[Editor]
Bookmarks: 28793
DistanceSpacing: 1
BeatDivisor: 4
GridSize: 4
TimelineZoom: 1

[Metadata]
Title:Song 4 u (Original mix)
TitleUnicode:Song 4 u (Original mix)
Artist:ayumi hamasaki
ArtistUnicode:浜崎あゆみ
Creator:Alex Li
Version:Normal
Source:TALES OF XILLIA2
Tags:テイルズ オブ エクシリア2 Love Again TOX2 HINATAspring Yuta Nakano short ver
BeatmapID:506000
BeatmapSetID:215103

[Difficulty]
HPDrainRate:3
CircleSize:3
OverallDifficulty:4
ApproachRate:5
SliderMultiplier:1.2
SliderTickRate:1

[Events]
//Background and Video events
Video,0,"OP.flv"
0,0,"2.jpg",0,0
//Break Periods
//Storyboard Layer 0 (Background)
//Storyboard Layer 1 (Fail)
//Storyboard Layer 2 (Pass)
//Storyboard Layer 3 (Foreground)
//Storyboard Sound Samples
//Background Colour Transformations
3,100,163,162,255

[TimingPoints]
668.727272727273,468.75,4,2,1,40,1,0
4418,-100,4,1,1,70,0,0
11918,-100,4,1,1,60,0,0
25043,-100,4,1,1,70,0,0
25981,-100,4,1,1,80,0,0
26918,-100,4,1,1,50,0,0
45668,-100,4,2,1,40,0,0
47543,-100,4,1,1,60,0,0
50824,-100,4,2,1,25,0,0
51293,-100,4,1,1,60,0,0
62543,-100,4,1,1,65,0,0
77543,-100,4,1,1,70,0,1
109418,-100,4,1,1,70,0,0
122607,545.454545454546,4,2,1,40,1,0
123185,714.285714285714,4,2,1,40,1,0
123884,833.333333333333,4,2,1,40,1,0

[Colours]
Combo1 : 128,0,255
Combo2 : 0,128,64
Combo3 : 0,128,255
Combo4 : 255,128,255

[HitObjects]
256,192,668,12,0,2543,0:0:0:0:
176,104,4418,6,0,L|240:100,1,60,4|0,0:0|0:0,0:0:0:0:
296,96,4887,2,0,P|344:92|396:112,2,90,8|0|0,0:0|0:0|0:0,0:0:0:0:
236,100,5824,1,8,0:0:0:0:
140,172,6293,2,0,L|136:232,1,60,0|0,1:0|0:0,0:0:0:0:
132,292,6762,2,0,P|176:288|228:296,2,90,8|0|0,0:0|0:0|0:0,0:0:0:0:
72,304,7699,1,8,0:0:0:0:
40,188,8168,6,0,L|36:120,1,60,0|0,0:0|0:0,0:0:0:0:
36,68,8637,2,0,P|80:56|136:64,2,90,8|0|0,0:0|0:0|0:0,0:0:0:0:
36,128,9574,1,8,0:0:0:0:
140,188,10043,2,0,L|200:184,2,60,2|0|0,2:0|0:0|2:0,0:0:0:0:
112,304,10981,2,0,B|172:312|172:312|232:304,1,120,0|0,2:0|0:0,0:0:0:0:
340,252,11918,6,0,L|348:188,1,60,4|0,0:0|0:0,0:0:0:0:
352,132,12387,2,0,B|292:136|292:136|232:120,2,120,8|0|8,0:0|0:0|0:0,0:0:0:0:
456,72,13793,2,0,L|460:132,1,60,0|0,0:0|0:0,0:0:0:0:
464,192,14262,2,0,B|468:248|468:248|452:312,2,120,8|0|8,0:0|0:0|0:0,0:0:0:0:
344,204,15668,6,0,P|272:216|224:200,1,120,0|8,0:0|0:0,0:0:0:0:
184,164,16371,2,0,L|180:100,1,60,0|0,0:0|0:0,0:0:0:0:
204,48,16840,2,0,P|232:36|272:32,2,60,0|8|0,0:0|0:0|0:0,0:0:0:0:
152,76,17543,2,0,P|96:92|32:80,1,120,0|8,0:0|0:0,0:0:0:0:
16,200,18481,2,0,P|72:184|136:196,1,120,0|8,0:0|0:0,0:0:0:0:
240,248,19418,6,0,P|298:258|355:242,2,120,0|8|0,0:0|0:0|0:0,0:0:0:0:
204,200,20590,2,0,P|196:160|196:128,1,60,0|8,0:0|0:0,0:0:0:0:
116,228,21293,2,0,B|128:288|128:288|124:348,2,120,0|8|0,0:0|0:0|0:0,0:0:0:0:
96,172,22465,2,0,L|76:108,1,60,0|8,0:0|0:0,0:0:0:0:
172,36,23168,6,0,P|232:28|296:36,1,120,0|0,0:0|0:0,0:0:0:0:
352,44,23871,2,0,P|411:50|470:42,2,120,0|0|0,0:0|0:0|0:0,0:0:0:0:
304,84,25043,2,0,L|296:144,1,60,4|0,0:0|0:0,0:0:0:0:
264,196,25512,2,0,L|204:188,1,60,4|0,0:0|0:0,0:0:0:0:
172,136,25981,2,0,L|180:76,1,60,0|8,0:0|0:0,0:0:0:0:
124,52,26449,1,0,0:0:0:0:
88,168,26918,6,0,P|56:228|136:296,1,180,4|0,0:0|0:0,0:0:0:0:
184,280,27856,2,0,P|236:264|300:276,1,120,0|8,0:0|0:0,0:0:0:0:
420,284,28793,2,0,B|460:224|464:172|464:172|444:112,1,180,0|0,0:0|0:0,0:0:0:0:
416,64,29731,2,0,P|376:44|320:44,2,90,2|2|2,2:0|2:0|2:0,0:0:0:0:
396,120,30668,6,0,L|272:132,1,120,0|8,0:0|0:0,0:0:0:0:
160,156,31606,2,0,P|144:224|172:272,1,120,0|8,0:0|0:0,0:0:0:0:
276,316,32543,2,0,P|329:292|386:310,1,120,0|8,0:0|0:0,0:0:0:0:
436,344,33246,2,0,P|468:352|496:352,1,60,0|0,0:0|0:0,0:0:0:0:
480,232,33949,2,0,L|472:168,1,60,8|0,0:0|0:0,0:0:0:0:
460,112,34418,6,0,P|404:136|344:128,1,120,4|8,0:0|0:0,0:0:0:0:
292,108,35121,2,0,P|233:101|178:125,1,120,0|0,0:0|0:0,0:0:0:0:
164,184,35824,2,0,L|172:248,1,60,8|0,0:0|0:0,0:0:0:0:
184,304,36293,2,0,B|104:296|104:296|52:304,2,120,0|8|0,0:0|0:0|0:0,0:0:0:0:
304,320,37699,2,0,L|372:316,1,60,8|0,0:0|0:0,0:0:0:0:
420,292,38168,6,0,B|436:232|436:232|424:172,1,120,0|8,0:0|0:0,0:0:0:0:
328,104,39106,2,0,B|312:164|312:164|323:220,1,120,0|8,0:0|0:0,0:0:0:0:
252,316,40043,2,0,B|195:327|195:327|135:311,1,120,0|8,0:0|0:0,0:0:0:0:
80,204,40981,2,0,B|136:192|136:192|196:208,1,120,0|8,0:0|0:0,0:0:0:0:
252,228,41684,6,0,L|316:224,1,60,0|4,0:0|0:0,0:0:0:0:
380,128,42387,2,0,L|316:124,2,60,8|0|4,0:0|0:0|0:0,0:0:0:0:
464,216,43324,2,0,L|460:280,1,60,4|0,0:0|0:0,0:0:0:0:
440,332,43793,2,0,B|380:304|316:336|316:336|348:272|340:200|260:168|180:192|152:268|204:336,1,480,0|2,0:0|0:0,0:0:0:0:
328,64,46840,6,0,L|320:124,1,60,2|2,0:0|0:0,0:0:0:0:
372,232,47543,6,0,P|308:244|244:212,2,120,4|0|0,0:0|0:0|0:0,0:0:0:0:
416,188,48715,2,0,P|424:160|428:128,1,60,8|0,0:0|0:0,0:0:0:0:
352,40,49418,2,0,B|272:36|272:36|236:16,2,120,4|0|0,0:0|0:0|0:0,0:0:0:0:
412,40,50590,2,0,P|444:40|484:32,1,60,8|0,0:0|0:0,0:0:0:0:
404,136,51293,6,0,L|268:132,1,120,4|0,0:0|0:0,0:0:0:0:
228,156,51996,2,0,P|220:188|220:216,1,60,0|0,0:0|0:0,0:0:0:0:
256,264,52465,2,0,P|255:293|247:322,1,60,8|0,0:0|0:0,0:0:0:0:
136,280,53168,2,0,P|92:272|40:280,2,90,4|0|0,0:0|0:0|0:0,0:0:0:0:
180,240,54106,2,0,P|184:208|184:176,1,60,0|4,0:0|0:0,0:0:0:0:
164,124,54574,2,0,P|164:94|168:64,1,60,0|0,0:0|0:0,0:0:0:0:
212,24,55043,6,0,P|268:16|336:36,2,120,4|0|8,0:0|0:0|0:0,0:0:0:0:
236,80,56215,2,0,L|264:132,1,60
384,148,56918,2,0,B|388:228|388:228|416:264,1,120,4|0,0:0|0:0,0:0:0:0:
444,308,57621,2,0,B|412:332|412:332|332:336,1,120,0|0,0:0|0:0,0:0:0:0:
272,332,58324,2,0,P|244:328|212:316,1,60,8|0,0:0|0:0,0:0:0:0:
172,276,58793,6,0,B|152:216|152:216|176:144,2,120,4|0|4,0:0|0:0|0:0,0:0:0:0:
124,312,59965,2,0,L|60:308,1,60,0|8,0:0|0:0,0:0:0:0:
24,196,60668,2,0,L|20:76,2,120,4|0|0,0:0|0:0|0:0,0:0:0:0:
76,228,61840,2,0,P|108:228|136:220,1,60,0|8,0:0|0:0,0:0:0:0:
208,128,62543,6,0,B|288:140|288:140|328:128,1,120,4|8,0:0|0:0,0:0:0:0:
380,104,63246,2,0,P|424:168|384:256,1,180,0|0,0:0|0:0,0:0:0:0:
272,288,64418,2,0,P|212:272|144:288,1,120,0|8,0:0|0:0,0:0:0:0:
100,308,65121,2,0,B|92:184|92:184|136:132,1,180,0|8,0:0|0:0,0:0:0:0:
212,56,66293,6,0,B|264:28|264:28|324:32,1,120,0|8,0:0|0:0,0:0:0:0:
384,44,66996,2,0,B|444:48|444:48|496:20,1,120,0|0,0:0|0:0,0:0:0:0:
492,80,67699,2,0,L|484:148,1,60,8|0,0:0|0:0,0:0:0:0:
444,180,68168,6,0,L|328:172,2,90,0|0|0,0:0|0:0|0:0,0:0:0:0:
488,220,69106,2,0,P|484:280|444:320,1,120,0|8,0:0|0:0,0:0:0:0:
392,352,69809,1,0,0:0:0:0:
344,320,70043,6,0,L|248:312,1,90,4|0,0:0|0:0,0:0:0:0:
168,292,70746,2,0,P|132:216|192:128,1,180,0|8,0:0|0:0,0:0:0:0:
288,100,71918,2,0,B|348:112|348:112|412:104,1,120,0|0,0:0|0:0,0:0:0:0:
464,92,72621,2,0,P|496:152|480:212,1,120,0|0,0:0|0:0,0:0:0:0:
464,256,73324,2,0,P|460:288|464:320,1,60,8|0,0:0|0:0,0:0:0:0:
404,316,73793,6,0,L|340:308,1,60,0|0,0:0|0:0,0:0:0:0:
284,296,74262,2,0,P|272:256|288:208,2,90,8|0|0,0:0|0:0|0:0,0:0:0:0:
232,324,75199,2,0,L|168:320,1,60,8|0,0:0|0:0,0:0:0:0:
112,308,75668,1,4,0:0:0:0:
272,196,76606,5,0,0:0:0:0:
272,196,77074,5,4,0:0:0:0:
272,196,77543,6,0,L|268:316,2,120,4|8|0,0:0|0:0|0:0,0:0:0:0:
320,160,78715,2,0,P|352:156|384:160,1,60,0|8,0:0|0:0,0:0:0:0:
324,52,79418,2,0,P|260:60|204:48,2,120,0|8|0,0:0|0:0|0:0,0:0:0:0:
384,44,80590,2,0,P|420:44|448:48,1,60,0|8,0:0|0:0,0:0:0:0:
436,168,81293,6,0,B|448:228|448:228|440:292,2,120,4|8|0,0:0|0:0|0:0,0:0:0:0:
376,168,82465,2,0,L|312:172,1,60,0|8,0:0|0:0,0:0:0:0:
236,260,83168,2,0,B|148:272|148:272|112:252,1,120,0|8,0:0|0:0,0:0:0:0:
104,200,83871,2,0,B|96:80|96:80|56:16,1,180,0|8,0:0|0:0,0:0:0:0:
184,52,85043,6,0,B|240:80|240:80|300:80,1,120,4|8,0:0|0:0,0:0:0:0:
356,80,85746,2,0,B|413:80|413:80|469:108,1,120,0|0,0:0|0:0,0:0:0:0:
480,228,86684,2,0,P|432:296|328:276,1,180,0|8,0:0|0:0,0:0:0:0:
300,248,87621,1,0,0:0:0:0:
256,208,87856,2,0,B|196:192|196:192|132:204,1,120,0|8,0:0|0:0,0:0:0:0:
84,224,88559,1,0,0:0:0:0:
64,168,88793,6,0,P|48:112|76:56,1,120,0|8,0:0|0:0,0:0:0:0:
188,100,89731,2,0,B|248:116|248:116|312:104,1,120,0|8,0:0|0:0,0:0:0:0:
408,48,90668,2,0,P|424:104|412:164,1,120,4|0,0:0|0:0,0:0:0:0:
308,224,91606,2,0,L|172:216,2,120,4|0|4,0:0|0:0|0:0,0:0:0:0:
364,328,93012,6,0,B|240:324|240:324|176:348,1,180,8|0,0:0|0:0,0:0:0:0:
132,320,93949,2,0,P|116:284|112:256,1,60,8|0,0:0|0:0,0:0:0:0:
108,204,94418,2,0,L|116:80,2,120,4|8|0,0:0|0:0|0:0,0:0:0:0:
168,220,95590,2,0,P|190:199|206:175,1,60,0|8,0:0|0:0,0:0:0:0:
324,192,96293,6,0,B|404:184|404:184|456:192,2,120,4|8|0,0:0|0:0|0:0,0:0:0:0:
292,244,97465,2,0,P|288:284|292:312,1,60,0|8,0:0|0:0,0:0:0:0:
176,344,98168,2,0,P|180:272|176:208,1,120,0|8,0:0|0:0,0:0:0:0:
168,164,98871,2,0,P|165:104|169:44,1,120,0|0,0:0|0:0,0:0:0:0:
336,4,100043,6,0,B|428:16|428:16|464:8,1,120,4|8,0:0|0:0,0:0:0:0:
500,48,100746,2,0,P|508:120|460:156,1,120,0|0,0:0|0:0,0:0:0:0:
356,148,101684,2,0,P|260:144|176:148,1,180,0|8,0:0|0:0,0:0:0:0:
116,156,102621,2,0,P|80:160|48:156,1,60,0|0,0:0|0:0,0:0:0:0:
120,260,103324,2,0,P|156:256|188:260,1,60,8|0,0:0|0:0,0:0:0:0:
236,280,103793,6,0,P|284:308|368:292,1,120,4|0,0:0|0:0,0:0:0:0:
376,188,104731,2,0,P|328:160|244:176,1,120,0|0,0:0|0:0,0:0:0:0:
160,220,105668,2,0,P|128:224|100:224,1,60,4|8,0:0|0:0,0:0:0:0:
48,196,106137,2,0,P|32:136|64:76,2,120,8|8|8,0:0|0:0|0:0,0:0:0:0:
104,304,107543,6,0,P|172:300|228:304,1,120,4|8,0:0|0:0,0:0:0:0:
280,320,108246,2,0,P|339:323|399:319,1,120,0|0,0:0|0:0,0:0:0:0:
432,268,108949,1,8,0:0:0:0:
400,216,109184,2,0,P|392:176|392:148,1,60,0|4,0:0|0:0,0:0:0:0:
232,120,111293,6,0,B|172:112|172:112|104:120,1,120,4|8,0:0|0:0,0:0:0:0:
112,240,112231,2,0,B|171:246|171:246|231:238,1,120,0|8,0:0|0:0,0:0:0:0:
332,176,113168,2,0,P|352:232|340:292,2,120,0|8|0,0:0|0:0|0:0,0:0:0:0:
304,120,114340,2,0,P|296:88|296:60,1,60,0|8,0:0|0:0,0:0:0:0:
408,16,115043,6,0,L|420:92,1,60
388,128,115512,2,0,P|364:180|304:204,2,120,8|0|8,0:0|0:0|0:0,0:0:0:0:
300,48,116918,2,0,L|240:44,1,60,0|0,0:0|0:0,0:0:0:0:
196,88,117387,2,0,L|136:84,1,60,8|0,0:0|0:0,0:0:0:0:
88,124,117856,2,0,P|52:176|68:236,1,120,0|8,0:0|0:0,0:0:0:0:
120,336,118793,6,0,B|84:332|84:332|56:336,2,60,4|0|8,0:0|0:0|0:0,0:0:0:0:
216,264,119731,2,0,P|276:272|336:264,1,120,0|8,0:0|0:0,0:0:0:0:
256,192,120668,12,2,122607,0:0:0:0:
