osu file format v13

[General]
AudioFilename: song4u.mp3
AudioLeadIn: 0
PreviewTime: 47426
Countdown: 0
SampleSet: Soft
StackLeniency: 0.7
Mode: 0
LetterboxInBreaks: 0
WidescreenStoryboard: 0

[Editor]
DistanceSpacing: 0.5
BeatDivisor: 6
GridSize: 4
TimelineZoom: 1

[Metadata]
Title:Song 4 u (Original mix)
TitleUnicode:Song 4 u (Original mix)
Artist:ayumi hamasaki
ArtistUnicode:浜崎あゆみ
Creator:Alex Li
Version:Insane
Source:TALES OF XILLIA2
Tags:テイルズ オブ エクシリア2 Love Again TOX2 HINATAspring Yuta Nakano short ver
BeatmapID:505278
BeatmapSetID:215103

[Difficulty]
HPDrainRate:6
CircleSize:4.3
OverallDifficulty:7
ApproachRate:8
SliderMultiplier:1.8
SliderTickRate:1

[Events]
//Background and Video events
0,0,"1.jpg",0,0
Video,0,"op.flv"
//Break Periods
//Storyboard Layer 0 (Background)
//Storyboard Layer 1 (Fail)
//Storyboard Layer 2 (Pass)
//Storyboard Layer 3 (Foreground)
//Storyboard Sound Samples
//Background Colour Transformations
3,100,163,162,255

[TimingPoints]
668.727272727273,468.75,4,2,1,40,1,0
3481,-100,4,2,1,50,0,0
3949,-100,4,2,1,60,0,0
4418,-100,4,1,1,70,0,0
11918,-125,4,1,1,60,0,0
25043,-125,4,1,1,70,0,0
25981,-125,4,1,1,80,0,0
26918,-125,4,1,1,50,0,0
44731,-125,4,1,1,90,0,0
45668,-200,4,2,1,40,0,0
47543,-125,4,1,1,60,0,0
50824,-125,4,2,1,25,0,0
51293,-125,4,1,1,60,0,0
62543,-125,4,1,1,65,0,0
77543,-100,4,1,1,70,0,1
109418,-100,4,1,1,70,0,0
122607,545.454545454546,4,2,1,40,1,0
123185,714.285714285714,4,2,1,40,1,0
123884,833.333333333333,4,2,1,40,1,0
124856,-200,4,2,1,40,0,0
124925,-200,4,2,1,5,0,0

[Colours]
Combo1 : 128,0,255
Combo2 : 0,128,64
Combo3 : 0,128,255
Combo4 : 255,128,255

[HitObjects]
256,192,668,5,2,0:0:0:0:
256,192,785,12,0,2543,0:0:0:0:
88,152,3481,5,0,0:0:0:0:
107,162,3598,1,0,0:0:0:0:
129,167,3715,1,0,0:0:0:0:
152,167,3832,1,0,0:0:0:0:
173,160,3949,1,0,0:0:0:0:
196,156,4067,1,0,0:0:0:0:
217,149,4184,1,0,0:0:0:0:
240,149,4301,1,0,0:0:0:0:
262,154,4418,5,4,0:0:0:0:
412,148,4653,1,0,0:0:0:0:
336,100,4887,1,8,0:0:0:0:
340,204,5121,1,0,0:0:0:0:
336,228,5239,2,0,B|328:276|328:276|340:320,1,90,0|8,0:0|0:0,0:0:0:0:
344,336,5590,2,0,P|299:328|255:333,2,90,0|8|0,0:0|0:0|2:0,0:0:0:0:
176,372,6293,5,0,1:0:0:0:
96,336,6528,1,0,0:0:0:0:
84,248,6762,1,8,0:0:0:0:
144,180,6996,1,0,0:0:0:0:
160,172,7114,2,0,B|200:156|200:156|248:164,1,90,0|8,0:0|0:0,0:0:0:0:
264,168,7465,1,0,0:0:0:0:
285,175,7582,1,0,0:0:0:0:
302,189,7699,1,8,0:0:0:0:
378,349,7934,1,0,2:0:0:0:
374,326,8051,1,0,2:0:0:0:
376,303,8168,6,0,P|419:292|463:298,1,90
292,336,8637,2,0,P|248:347|204:341,1,90,8|0,0:0|0:0,0:0:0:0:
188,328,8989,1,0,0:0:0:0:
259,142,9223,1,8,0:0:0:0:
259,164,9340,1,0,0:0:0:0:
255,186,9457,1,0,0:0:0:0:
247,208,9574,2,0,P|204:219|160:214,1,90,8|0,0:0|2:0,0:0:0:0:
372,264,10043,6,0,L|376:216,1,45,2|0,2:0|0:0,0:0:0:0:
448,164,10278,2,0,L|451:208,1,45
460,300,10512,1,0,2:0:0:0:
280,316,10746,5,0,0:0:0:0:
235,321,10863,1,0,0:0:0:0:
190,327,10981,5,0,2:0:0:0:
201,295,11098,1,0,0:0:0:0:
198,262,11215,1,0,0:0:0:0:
181,233,11332,1,0,0:0:0:0:
153,214,11449,5,0,0:0:0:0:
133,205,11566,1,0,0:0:0:0:
115,191,11683,1,0,0:0:0:0:
103,172,11800,1,0,0:0:0:0:
100,152,11918,5,4,0:0:0:0:
160,80,12153,1,0,0:0:0:0:
240,128,12387,2,0,P|276:136|320:136,1,72,8|0,0:0|0:0,0:0:0:0:
467,83,12856,2,0,P|431:84|396:92,1,72,0|0,0:0|0:0,0:0:0:0:
364,212,13324,1,8,0:0:0:0:
220,288,13559,1,0,0:0:0:0:
224,292,13676,1,0,0:0:0:0:
228,296,13793,6,0,L|304:292,1,72
113,322,14262,1,8,0:0:0:0:
44,260,14496,1,0,0:0:0:0:
172,196,14731,1,0,0:0:0:0:
176,192,14848,1,8,0:0:0:0:
180,188,14965,1,0,0:0:0:0:
184,184,15082,1,0,0:0:0:0:
188,179,15199,2,0,P|202:147|203:111,1,72,8|0,0:0|0:0,0:0:0:0:
260,240,15668,6,0,B|300:252|336:240|336:240|372:228|412:240,2,144,0|8|0,0:0|0:0|0:0,0:0:0:0:
296,152,16840,1,0,0:0:0:0:
171,276,17074,2,0,P|137:287|102:287,1,72,8|0,0:0|0:0,0:0:0:0:
208,188,17543,6,0,B|220:116|220:116|208:45,2,144,0|8|0,0:0|0:0|0:0,0:0:0:0:
124,148,18715,1,0,0:0:0:0:
120,144,18832,1,0,0:0:0:0:
115,139,18949,2,0,P|82:127|47:130,1,72,8|0,0:0|0:0,0:0:0:0:
172,272,19418,6,0,P|248:280|316:260,1,144,0|8,0:0|0:0,0:0:0:0:
380,196,20121,1,0,0:0:0:0:
376,328,20356,1,0,0:0:0:0:
392,335,20473,1,0,0:0:0:0:
409,339,20590,1,0,0:0:0:0:
427,340,20707,1,0,0:0:0:0:
445,338,20824,2,0,P|484:320|516:272,1,72,8|0,0:0|0:0,0:0:0:0:
380,196,21293,5,0,0:0:0:0:
358,104,21528,1,0,0:0:0:0:
288,217,21761,1,8,0:0:0:0:
267,125,21996,2,0,L|264:53,1,72
288,216,22465,2,0,L|291:293,1,72,0|8,0:0|0:0,0:0:0:0:
240,368,22934,1,0,0:0:0:0:
172,304,23168,6,0,P|104:288|28:304,1,144,0|8,0:0|0:0,0:0:0:0:
4,211,23871,2,0,P|68:183|96:119,2,144,0|0|0,0:0|0:0|0:0,0:0:0:0:
180,164,25043,6,0,L|168:236,1,72,4|0,0:0|0:0,0:0:0:0:
272,156,25512,2,0,L|297:224,1,72,4|0,0:0|0:0,0:0:0:0:
348,100,25981,2,0,L|404:146,1,72,0|8,0:0|0:0,0:0:0:0:
380,12,26449,2,0,L|452:23,1,72
492,108,26918,6,0,B|480:176|480:176|491:250,2,144,4|8|0,0:0|0:0|0:0,0:0:0:0:
404,212,28090,1,0,0:0:0:0:
332,272,28324,2,0,L|260:268,1,72,8|0,0:0|0:0,0:0:0:0:
168,264,28793,6,0,P|236:232|252:160,2,144,0|8|2,0:0|0:0|2:0,0:0:0:0:
253,169,30082,2,0,B|296:176|328:160|328:160|372:168,1,108,2|2,2:0|2:0,0:0:0:0:
392,260,30668,6,0,P|320:252|256:288,2,144,0|8|0,0:0|0:0|0:0,0:0:0:0:
456,328,31840,1,0,0:0:0:0:
468,200,32074,2,0,L|472:120,1,72,8|0,0:0|0:0,0:0:0:0:
440,40,32543,6,0,P|364:20|288:40,1,144,0|8,0:0|0:0,0:0:0:0:
236,104,33246,1,0,0:0:0:0:
346,210,33481,1,0,0:0:0:0:
331,199,33598,1,8,0:0:0:0:
315,191,33715,1,0,0:0:0:0:
297,188,33832,1,0,0:0:0:0:
280,187,33949,1,8,0:0:0:0:
204,240,34184,1,0,0:0:0:0:
136,304,34418,6,0,P|64:304|4:260,1,144,4|8,0:0|0:0,0:0:0:0:
54,107,35121,2,0,P|125:107|184:148,1,144
204,240,35824,1,8,0:0:0:0:
276,136,36059,1,0,0:0:0:0:
360,176,36293,6,0,B|432:196|432:196|496:168,1,144,0|8,0:0|0:0,0:0:0:0:
428,104,36996,1,0,0:0:0:0:
492,264,37231,1,0,0:0:0:0:
496,281,37348,1,8,0:0:0:0:
496,299,37465,1,0,0:0:0:0:
493,317,37582,1,0,0:0:0:0:
486,333,37699,2,0,L|412:348,1,72,8|0,0:0|0:0,0:0:0:0:
328,316,38168,6,0,B|316:276|320:240|320:240|324:200|320:164,2,144,0|8|0,0:0|0:0|0:0,0:0:0:0:
236,292,39340,1,0,0:0:0:0:
152,336,39574,2,0,L|80:332,1,72,8|0,0:0|0:0,0:0:0:0:
180,216,40043,6,0,P|144:160|60:152,2,144,0|8|0,0:0|0:0|0:0,0:0:0:0:
180,236,41098,1,8,0:0:0:0:
174,253,41215,1,0,0:0:0:0:
272,192,41449,2,0,L|276:120,1,72,8|0,0:0|0:0,0:0:0:0:
272,192,41918,6,0,P|304:184|344:180,1,72,4|0,0:0|0:0,0:0:0:0:
368,324,42387,2,0,P|336:332|296:336,1,72,8|0,0:0|0:0,0:0:0:0:
152,192,42856,5,4,0:0:0:0:
212,256,43091,1,0,0:0:0:0:
152,320,43324,5,4,0:0:0:0:
212,128,43558,1,0,0:0:0:0:
292,224,43793,5,4,0:0:0:0:
308,228,43910,2,0,L|384:216,1,72,8|0,0:0|0:0,0:0:0:0:
443,139,44262,2,0,L|372:128,1,72,8|0,0:0|0:0,0:0:0:0:
272,76,44731,5,0,0:0:0:0:
152,172,44965,1,0,0:0:0:0:
164,64,45199,1,0,0:0:0:0:
140,280,45433,1,0,0:0:0:0:
237,329,45668,5,2,0:0:0:0:
260,327,45903,1,2,0:0:0:0:
283,325,46137,1,2,0:0:0:0:
306,323,46371,1,2,0:0:0:0:
288,92,46840,6,0,L|284:48,1,45,2|2,0:0|0:0,0:0:0:0:
320,260,47543,6,0,P|392:252|472:280,2,144,4|0|0,0:0|0:0|0:0,0:0:0:0:
244,304,48715,1,8,0:0:0:0:
168,184,48949,2,0,L|172:256,1,72
228,124,49418,6,0,P|299:132|367:111,2,144,4|0|0,0:0|0:0|0:0,0:0:0:0:
367,111,50590,2,0,L|376:184,1,72,8|0,0:0|0:0,0:0:0:0:
296,304,51059,1,0,0:0:0:0:
292,308,51176,1,0,0:0:0:0:
288,312,51293,6,0,P|256:340|156:340,2,144,4|0|0,0:0|0:0|0:0,0:0:0:0:
316,208,52465,1,8,0:0:0:0:
156,100,52699,1,0,0:0:0:0:
73,164,52934,1,0,0:0:0:0:
260,119,53168,6,0,L|368:100,2,108,4|0|0,0:0|0:0|0:0,0:0:0:0:
216,196,54106,1,0,0:0:0:0:
358,224,54340,2,0,L|288:240,1,72,4|0,0:0|0:0,0:0:0:0:
236,308,54809,1,0,0:0:0:0:
232,312,54926,1,0,0:0:0:0:
228,316,55043,6,0,P|160:352|88:324,1,144,4|0,0:0|0:0,0:0:0:0:
152,256,55746,1,0,0:0:0:0:
24,192,55981,2,0,L|32:264,1,72,8|0,0:0|0:0,0:0:0:0:
40,256,56332,1,0,0:0:0:0:
48,248,56449,1,0,0:0:0:0:
40,108,56684,1,0,0:0:0:0:
120,140,56918,6,0,B|160:132|192:140|192:140|228:148|272:136,1,144,4|0,0:0|0:0,0:0:0:0:
308,212,57621,2,0,P|240:240|232:320,1,144
312,296,58324,2,0,L|388:292,1,72,8|0,0:0|0:0,0:0:0:0:
507,227,58793,6,0,L|436:224,1,72,4|0,0:0|0:0,0:0:0:0:
376,165,59262,1,0,0:0:0:0:
387,83,59496,1,0,0:0:0:0:
460,42,59731,1,4,0:0:0:0:
377,165,59965,2,0,L|305:168,1,72,0|8,0:0|0:0,0:0:0:0:
252,236,60434,1,0,0:0:0:0:
228,132,60668,6,0,B|172:120|172:120|128:124|128:124|80:112,2,144,4|8|0,0:0|0:0|0:0,0:0:0:0:
240,144,61723,1,0,0:0:0:0:
247,160,61840,1,0,0:0:0:0:
249,178,61957,1,0,0:0:0:0:
246,195,62074,1,8,0:0:0:0:
239,212,62191,1,0,0:0:0:0:
227,225,62309,1,0,0:0:0:0:
212,235,62426,1,0,0:0:0:0:
195,240,62543,6,0,B|124:216|124:216|55:222,1,144,4|0,0:0|0:0,0:0:0:0:
256,312,63246,1,8,0:0:0:0:
328,251,63481,2,0,P|339:218|340:182,2,72,0|8|0,0:0|0:0|0:0,0:0:0:0:
376,332,64184,1,0,0:0:0:0:
380,336,64301,1,0,0:0:0:0:
384,340,64418,6,0,P|452:348|496:280,1,144
460,208,65121,1,8,0:0:0:0:
391,58,65356,1,0,0:0:0:0:
392,76,65473,1,8,0:0:0:0:
396,94,65590,1,0,0:0:0:0:
404,110,65707,1,0,0:0:0:0:
416,124,65824,1,8,0:0:0:0:
324,108,66059,1,0,0:0:0:0:
307,101,66176,1,0,0:0:0:0:
289,100,66293,6,0,L|216:104,1,72
156,199,66762,2,0,L|228:196,1,72,8|0,0:0|0:0,0:0:0:0:
244,204,67114,2,0,P|280:252|260:308,1,108
368,216,67699,2,0,P|396:188|432:172,1,72,8|0,0:0|0:0,0:0:0:0:
356,91,68168,6,0,P|305:108|254:92,2,108,0|0|0,0:0|0:0|0:0,0:0:0:0:
160,92,69106,2,0,L|167:20,1,72,0|0,0:0|0:0,0:0:0:0:
92,156,69574,2,0,L|84:232,1,72,8|0,0:0|0:0,0:0:0:0:
148,295,70043,6,0,P|197:275|249:286,2,108,4|0|0,0:0|0:0|0:0,0:0:0:0:
92,372,70981,1,0,0:0:0:0:
168,204,71215,2,0,L|172:128,1,72,0|8,0:0|0:0,0:0:0:0:
171,132,71684,1,0,0:0:0:0:
244,192,71918,6,0,P|296:224|400:208,1,144,0|8,0:0|0:0,0:0:0:0:
372,39,72621,2,0,P|301:33|240:67,1,144
100,132,73324,2,0,L|172:132,1,72,8|0,0:0|0:0,0:0:0:0:
56,280,73793,5,0,0:0:0:0:
28,189,74028,1,0,0:0:0:0:
120,210,74262,1,8,0:0:0:0:
56,280,74496,2,0,L|22:293,1,36,8|0,0:0|0:0,0:0:0:0:
148,304,74848,2,0,L|188:288,1,36,8|0,0:0|0:0,0:0:0:0:
264,244,75199,1,8,0:0:0:0:
270,227,75316,1,0,0:0:0:0:
271,209,75433,1,0,0:0:0:0:
268,192,75551,1,0,0:0:0:0:
259,176,75668,6,0,B|240:120|240:120|256:68,2,108,4|0|0,0:0|0:0|0:0,0:0:0:0:
436,112,76606,5,4,0:0:0:0:
444,124,77074,5,4,0:0:0:0:
452,136,77543,6,0,P|480:212|448:316,1,180,4|8,0:0|0:0,0:0:0:0:
372,344,78246,1,0,0:0:0:0:
308,280,78481,2,0,P|264:264|220:260,1,90,0|0,0:0|0:0,0:0:0:0:
85,356,78949,2,0,P|129:351|172:336,1,90,8|0,0:0|0:0,0:0:0:0:
156,196,79418,6,0,B|140:108|140:108|156:16,2,180,0|8|0,0:0|0:0|0:0,0:0:0:0:
68,172,80590,1,0,0:0:0:0:
228,144,80824,2,0,L|324:148,1,90,8|0,0:0|0:0,0:0:0:0:
364,228,81293,6,0,P|410:162|374:75,2,180,4|8|0,0:0|0:0|0:0,0:0:0:0:
284,268,82465,1,0,0:0:0:0:
126,203,82699,2,0,P|171:204|216:212,1,90,8|0,0:0|0:0,0:0:0:0:
126,203,83168,6,0,B|112:160|128:112|128:112|144:76|132:24,1,180,0|8,0:0|0:0,0:0:0:0:
56,72,83871,2,0,P|136:108|224:44,1,180
373,127,84574,2,0,L|284:120,1,90,8|0,0:0|0:0,0:0:0:0:
373,127,85043,6,0,B|408:212|408:212|400:304,1,180,4|8,0:0|0:0,0:0:0:0:
284,372,85746,2,0,B|249:287|249:287|257:199,1,180
372,128,86449,2,0,L|461:135,1,90,8|0,0:0|0:0,0:0:0:0:
292,84,86918,5,0,0:0:0:0:
220,200,87153,1,0,0:0:0:0:
220,200,87387,2,0,L|140:256,1,90,8|0,0:0|0:0,0:0:0:0:
80,312,87856,2,0,L|168:353,1,90
248,376,88324,2,0,L|239:278,1,90,8|0,0:0|0:0,0:0:0:0:
336,192,88793,6,0,B|428:184|428:184|520:208,2,180,0|8|0,0:0|0:0|0:0,0:0:0:0:
168,260,89965,1,0,0:0:0:0:
24,200,90199,1,8,0:0:0:0:
112,188,90433,1,0,0:0:0:0:
80,272,90668,6,0,L|76:368,1,90,4|0,0:0|0:0,0:0:0:0:
112,188,91137,2,0,L|115:98,1,90,0|4,0:0|0:0,0:0:0:0:
168,260,91606,1,0,0:0:0:0:
228,140,91840,1,8,0:0:0:0:
240,158,91957,1,0,0:0:0:0:
258,171,92074,1,0,0:0:0:0:
279,179,92191,1,0,0:0:0:0:
302,179,92308,1,0,0:0:0:0:
323,172,92425,1,0,0:0:0:0:
341,159,92543,6,0,B|392:128|392:128|444:144|444:144|500:108,2,180,4|8|0,0:0|0:0|0:0,0:0:0:0:
296,240,93715,1,0,0:0:0:0:
356,308,93949,2,0,P|396:320|456:320,1,90,8|0,0:0|0:0,0:0:0:0:
232,304,94418,6,0,P|164:344|79:304,2,180,4|8|0,0:0|0:0|0:0,0:0:0:0:
156,252,95590,1,0,0:0:0:0:
188,168,95824,2,0,L|184:72,1,90,8|0,0:0|0:0,0:0:0:0:
264,120,96293,6,0,B|308:132|352:112|352:112|396:92|452:104,2,180,4|8|0,0:0|0:0|0:0,0:0:0:0:
300,36,97465,1,0,0:0:0:0:
412,188,97699,2,0,P|420:232|412:280,1,90,8|0,0:0|0:0,0:0:0:0:
336,336,98168,6,0,B|289:349|248:336|228:308|228:308|196:308|156:336,1,180,0|8,0:0|0:0,0:0:0:0:
136,236,98871,2,0,B|183:249|224:236|244:208|244:208|276:208|316:236,1,180,0|0,0:0|0:0,0:0:0:0:
168,152,99574,1,8,0:0:0:0:
60,184,99809,1,0,0:0:0:0:
64,180,99926,1,0,0:0:0:0:
68,176,100043,6,0,P|108:96|56:-4,1,180,4|8,0:0|0:0,0:0:0:0:
240,264,100746,2,0,P|200:184|252:84,1,180
316,52,101449,1,8,0:0:0:0:
316,52,101684,1,0,0:0:0:0:
292,184,101918,6,0,P|288:276|288:368,2,180,0|8|0,0:0|0:0|0:0,0:0:0:0:
216,236,103090,1,0,0:0:0:0:
148,180,103324,2,0,P|100:164|48:164,1,90,8|0,0:0|0:0,0:0:0:0:
408,64,103793,6,0,L|496:83,1,90,4|0,0:0|0:0,0:0:0:0:
370,145,104262,2,0,L|437:205,1,90,0|0,0:0|0:0,0:0:0:0:
298,201,104731,2,0,L|326:286,1,90,0|0,0:0|0:0,0:0:0:0:
210,209,105199,2,0,L|191:296,1,90,0|0,0:0|0:0,0:0:0:0:
56,184,105668,5,4,0:0:0:0:
118,373,105903,1,8,0:0:0:0:
119,247,106137,1,8,0:0:0:0:
55,310,106371,1,0,0:0:0:0:
181,309,106606,2,0,P|248:320|300:272,2,135,8|0|0,0:0|0:0|0:0,0:0:0:0:
452,324,107543,6,0,P|464:280|472:236,1,90,4|0,0:0|0:0,0:0:0:0:
316,192,108012,2,0,P|304:236|296:280,1,90,8|0,0:0|0:0,0:0:0:0:
452,324,108481,1,0,0:0:0:0:
316,192,108715,1,0,0:0:0:0:
296,279,108949,1,8,0:0:0:0:
471,236,109184,1,0,0:0:0:0:
352,104,109418,5,4,0:0:0:0:
256,192,109535,12,0,110824,0:0:0:0:
120,152,111059,5,0,0:0:0:0:
116,156,111176,1,0,0:0:0:0:
112,160,111293,2,0,B|152:176|196:164|196:164|244:152|288:168,2,180,4|8|0,0:0|0:0|0:0,0:0:0:0:
52,92,112465,1,0,0:0:0:0:
124,36,112699,2,0,P|168:32|220:44,1,90,8|0,0:0|0:0,0:0:0:0:
287,91,113168,6,0,P|332:95|376:86,2,90,0|0|8,0:0|0:0|0:0,0:0:0:0:
444,28,113871,1,0,0:0:0:0:
492,104,114106,1,0,0:0:0:0:
496,125,114223,1,8,0:0:0:0:
495,148,114340,1,0,0:0:0:0:
487,169,114457,1,0,0:0:0:0:
475,188,114574,2,0,L|376:196,1,90,8|0,0:0|0:0,0:0:0:0:
295,183,115043,6,0,P|288:139|287:94,1,90,4|0,0:0|0:0,0:0:0:0:
324,268,115512,2,0,P|323:312|315:357,1,90,0|0,0:0|1:0,0:0:0:0:
315,357,115981,2,0,L|216:360,2,90,0|0|8,0:0|0:0|0:0,0:0:0:0:
396,320,116684,1,0,0:0:0:0:
324,268,116918,6,0,P|332:224|336:168,1,90,0|0,0:0|0:0,0:0:0:0:
236,28,117387,2,0,P|228:72|224:128,1,90,8|0,0:0|0:0,0:0:0:0:
324,268,117856,1,0,0:0:0:0:
236,28,118090,1,0,0:0:0:0:
335,178,118324,1,8,0:0:0:0:
224,117,118559,1,0,0:0:0:0:
156,224,118793,6,0,P|88:264|4:216,2,180,4|8|0,0:0|0:0|0:0,0:0:0:0:
84,172,119965,1,0,0:0:0:0:
98,28,120199,1,8,0:0:0:0:
45,95,120433,1,0,0:0:0:0:
156,224,120668,5,4,0:0:0:0:
277,283,120903,1,4,0:0:0:0:
267,148,121137,1,4,0:0:0:0:
224,344,121371,1,0,0:0:0:0:
356,296,121606,5,4,0:0:0:0:
156,224,121840,1,0,0:0:0:0:
267,148,122074,1,4,0:0:0:0:
156,224,122309,1,0,0:0:0:0:
268,148,122607,5,2,0:0:0:0:
302,52,122879,1,0,0:0:0:0:
401,35,123185,1,2,0:0:0:0:
464,112,123542,5,2,0:0:0:0:
430,205,123884,1,0,0:0:0:0:
332,223,124300,1,2,0:0:0:0:
268,148,124856,6,0,B|243:177|212:184|184:180|164:160|156:132|164:104|200:80|200:80|172:80|144:64,1,255,2|0,0:0|0:0,0:0:0:0:
