osu file format v12

[General]
AudioFilename: ayaponzu children record.mp3
AudioLeadIn: 0
PreviewTime: 64462
Countdown: 0
SampleSet: Normal
StackLeniency: 0.7
Mode: 0
LetterboxInBreaks: 1
WidescreenStoryboard: 0

[Editor]
DistanceSpacing: 0.5
BeatDivisor: 4
GridSize: 4
TimelineZoom: 2.350003

[Metadata]
Title:Children Record
TitleUnicode:Children Record
Artist:ayaponzu*
ArtistUnicode:ayaponzu*
Creator:captin1
Version:Insane
Source:
Tags:vocaloid utaite cover ia jin kagerou project kagepro
BeatmapID:422343
BeatmapSetID:175045

[Difficulty]
HPDrainRate:6
CircleSize:4
OverallDifficulty:8
ApproachRate:9
SliderMultiplier:1.8
SliderTickRate:1

[Events]
//Background and Video events
0,0,"30757230.jpg",0,0
//Break Periods
2,80589,87789
2,144732,152932
//Storyboard Layer 0 (Background)
//Storyboard Layer 1 (Fail)
//Storyboard Layer 2 (Pass)
//Storyboard Layer 3 (Foreground)
//Storyboard Sound Samples
//Background Colour Transformations
3,100,163,162,255

[TimingPoints]
17706,285.714285714286,4,1,1,60,1,0
18533,285.714285714286,4,1,1,60,1,0
18818,285.714285714286,4,1,1,60,1,0
18818,-111.111111111111,4,1,1,60,0,0
27818,-133.333333333333,4,1,1,70,0,0
36960,-111.111111111111,4,1,1,70,0,0
46103,-133.333333333333,4,1,1,60,0,0
59960,-111.111111111111,4,1,1,70,0,0
64532,285.714285714286,4,1,1,70,1,1
64532,-100,4,1,1,70,0,1
80389,-100,4,1,1,70,0,0
88675,-133.333333333333,4,1,1,60,0,0
98675,-111.111111111111,4,1,1,70,0,0
107960,-133.333333333333,4,1,1,70,0,0
126246,-111.111111111111,4,1,1,70,0,0
153532,-133.333333333333,4,2,1,80,0,0
159960,-133.333333333333,4,1,1,60,0,0
160248,285.714285714286,4,1,1,80,1,1
178390,-100,4,1,1,80,0,0
178676,-100,4,2,1,5,0,0

[Colours]
Combo1 : 0,128,64
Combo2 : 187,0,0
Combo3 : 0,0,215
Combo4 : 255,99,23
Combo5 : 192,192,192

[HitObjects]
256,180,17563,5,0,0:0:0:0:
256,180,17634,1,0,0:0:0:0:
256,180,17705,2,0,L|276:268,1,90,8|8,0:0|0:0,0:0:0:0:
200,112,18533,5,8,0:3:0:0:
379,334,18818,6,0,L|360:256,1,80.9999975280763,6|2,0:0|0:0,0:0:0:0:
380,88,19103,1,8,0:0:0:0:
408,216,19246,1,0,0:0:0:0:
388,240,19318,1,0,0:0:0:0:
360,256,19389,2,0,L|264:280,1,80.9999975280763,2|2,0:0|0:0,0:0:0:0:
88,208,19675,2,0,L|184:184,1,80.9999975280763,8|0,0:0|0:0,0:0:0:0:
100,340,19960,5,2,0:0:0:0:
16,280,20103,1,2,0:0:0:0:
184,275,20246,2,0,P|216:300|233:336,1,80.9999975280763,8|0,0:0|0:0,0:0:0:0:
233,336,20460,1,0,0:0:0:0:
233,336,20532,1,2,0:0:0:0:
100,340,20675,1,2,0:0:0:0:
88,208,20818,2,0,L|64:112,1,80.9999975280763,8|0,0:0|0:0,0:0:0:0:
216,16,21103,6,0,L|240:112,1,80.9999975280763,2|2,0:0|0:0,0:0:0:0:
208,240,21389,1,8,0:0:0:0:
328,176,21532,1,0,0:0:0:0:
360,184,21603,1,0,0:0:0:0:
384,208,21675,2,0,P|400:256|392:300,1,80.9999975280763,2|2,0:0|0:0,0:0:0:0:
264,324,21960,2,0,P|219:318|177:334,1,80.9999975280763,8|0,0:0|0:0,0:0:0:0:
364,372,22246,6,0,P|408:377|450:361,1,80.9999975280763,2|2,0:0|0:0,0:0:0:0:
461,175,22532,2,0,L|443:96,1,80.9999975280763,8|0,0:0|0:0,0:0:0:0:
443,96,22746,1,0,0:0:0:0:
443,96,22818,1,2,0:0:0:0:
384,208,22960,1,2,0:0:0:0:
300,304,23103,2,0,P|240:320|196:312,1,80.9999975280763,8|0,0:0|0:0,0:0:0:0:
96,148,23389,6,0,P|156:168|180:196,1,80.9999975280763,6|2,0:0|0:0,0:0:0:0:
104,308,23675,1,8,0:0:0:0:
20,240,23818,1,0,0:0:0:0:
16,208,23889,1,0,0:0:0:0:
12,176,23960,2,0,P|10:127|28:88,1,80.9999975280763,2|2,0:0|0:0,0:0:0:0:
168,96,24246,2,0,P|236:84|268:56,1,80.9999975280763,8|0,0:0|0:0,0:0:0:0:
96,148,24532,6,0,P|105:191|134:225,1,80.9999975280763,2|2,0:0|0:0,0:0:0:0:
292,288,24818,2,0,P|322:314|338:351,1,80.9999975280763,8|0,0:0|0:0,0:0:0:0:
338,351,25032,1,0,0:0:0:0:
338,351,25103,1,2,0:0:0:0:
184,328,25246,1,2,0:0:0:0:
236,176,25389,2,0,L|260:80,1,80.9999975280763,8|0,0:0|0:0,0:0:0:0:
448,88,25675,5,8,0:0:0:0:
324,160,25818,1,8,0:0:0:0:
252,352,27532,6,0,P|260:292|252:248,1,80.9999975280763
132,132,27818,6,0,P|132:204|180:276,1,135.000005149842,4|0,0:2|0:0,0:0:0:0:
352,268,28246,1,8,0:0:0:0:
404,176,28389,2,0,L|388:96,1,67.5000025749208,0|0,0:0|0:0,0:0:0:0:
496,224,28675,2,0,L|512:304,1,67.5000025749208,0|8,0:0|0:0,0:0:0:0:
344,352,28960,6,0,P|268:332|188:344,1,135.000005149842,2|0,0:0|0:0,0:0:0:0:
88,376,29389,2,0,L|72:292,1,67.5000025749208,8|0,0:0|0:0,0:0:0:0:
136,220,29675,1,0,0:0:0:0:
132,132,29818,1,0,0:0:0:0:
52,96,29960,1,8,0:0:0:0:
224,128,30103,6,0,P|276:116|304:100,1,67.5000025749208,2|0,0:0|0:0,0:0:0:0:
400,28,30389,1,0,0:0:0:0:
420,132,30532,1,8,0:0:0:0:
356,216,30675,2,0,L|364:296,1,67.5000025749208,0|0,0:0|0:0,0:0:0:0:
248,272,30960,2,0,L|256:352,1,67.5000025749208,0|8,0:0|0:0,0:0:0:0:
104,192,31246,6,0,P|140:140|228:128,1,135.000005149842,6|2,0:0|0:0,0:0:0:0:
206,122,31603,1,0,0:0:0:0:
206,122,31675,1,8,0:0:0:0:
168,248,31818,2,0,B|132:284|132:284|116:316|116:316|72:360,1,135.000005149842,6|6,0:0|0:0,0:0:0:0:
81,350,32175,1,0,0:0:0:0:
81,350,32246,1,8,0:0:0:0:
224,348,32389,5,4,0:2:0:0:
224,348,32675,2,0,P|280:344|296:348,1,67.5000025749208,0|8,0:0|0:0,0:0:0:0:
424,240,32960,2,0,L|344:216,1,67.5000025749208,0|0,0:0|0:0,0:0:0:0:
184,248,33246,2,0,L|264:272,1,67.5000025749208,0|8,0:0|0:0,0:0:0:0:
248,128,33532,6,0,P|260:68|328:12,1,135.000005149842,2|0,0:0|0:0,0:0:0:0:
168,56,33960,1,8,0:0:0:0:
128,152,34103,2,0,L|152:224,1,67.5000025749208,0|0,0:0|0:0,0:0:0:0:
32,108,34389,2,0,L|8:36,1,67.5000025749208,0|8,0:0|0:0,0:0:0:0:
28,228,34675,6,0,P|36:268|56:296,1,67.5000025749208,2|0,0:0|0:0,0:0:0:0:
200,284,34960,2,0,P|161:270|127:274,1,67.5000025749208,0|8,0:0|0:0,0:0:0:0:
292,272,35246,2,0,P|322:245|336:213,1,67.5000025749208,0|0,0:0|0:0,0:0:0:0:
240,80,35532,2,0,P|248:120|268:148,1,67.5000025749208,0|8,0:0|0:0,0:0:0:0:
432,348,35818,6,0,L|412:268,1,67.5000025749208,4|0,0:2|0:0,0:0:0:0:
440,48,36103,2,0,L|460:128,1,67.5000025749208,0|4,0:0|0:2,0:0:0:0:
312,336,36389,1,0,0:0:0:0:
216,304,36532,2,0,L|193:240,2,67.5000025749208,0|0|0,0:0|0:0|0:0,0:0:0:0:
280,80,36960,6,0,P|296:124|276:240,1,161.999995056153,6|0,0:0|0:0,0:0:0:0:
52,200,37389,2,0,P|100:188|140:192,1,80.9999975280763,8|0,0:0|0:0,0:0:0:0:
352,280,37675,1,2,0:0:0:0:
412,204,37818,2,0,P|412:156|400:120,1,80.9999975280763,2|8,0:0|0:0,0:0:0:0:
196,112,38103,1,0,0:0:0:0:
196,112,38246,6,0,P|228:152|284:168,1,80.9999975280763,0|2,0:0|0:0,0:0:0:0:
416,88,38532,1,8,0:0:0:0:
292,240,38675,2,0,B|264:268|232:260|232:260|204:212|136:224,1,161.999995056153,0|2,0:0|0:0,0:0:0:0:
48,316,39103,1,8,0:0:0:0:
132,356,39246,6,0,B|196:376|224:324|304:360,1,161.999995056153,4|2,0:0|0:0,0:0:0:0:
472,368,39675,2,0,L|372:336,1,80.9999975280763,8|0,0:0|0:0,0:0:0:0:
316,148,39960,1,2,0:0:0:0:
396,196,40103,2,0,P|416:240|416:288,1,80.9999975280763,2|8,0:0|0:0,0:0:0:0:
264,276,40389,6,0,L|180:268,1,80.9999975280763,4|0,0:2|0:0,0:0:0:0:
272,104,40675,2,0,L|356:96,1,80.9999975280763,0|8,0:0|0:0,0:0:0:0:
172,160,40960,2,0,P|120:128|96:24,1,161.999995056153,4|2,0:2|0:0,0:0:0:0:
224,32,41389,1,8,0:0:0:0:
264,200,41532,5,6,0:0:0:0:
264,200,41960,2,0,P|312:208|364:200,1,80.9999975280763,8|0,0:0|0:0,0:0:0:0:
180,256,42246,2,0,P|149:293|130:342,1,80.9999975280763,0|2,0:0|0:0,0:0:0:0:
264,296,42532,1,8,0:0:0:0:
72,276,42675,6,0,B|52:232|52:232|76:184|64:120,1,161.999995056153,2|2,0:0|0:0,0:0:0:0:
8,28,43103,1,8,0:0:0:0:
152,128,43246,2,0,P|196:120|232:96,1,80.9999975280763,0|2,0:0|0:0,0:0:0:0:
196,216,43532,2,0,P|180:256|180:304,1,80.9999975280763,2|8,0:0|0:0,0:0:0:0:
368,320,43818,6,0,P|364:268|292:184,1,161.999995056153,6|2,0:0|0:0,0:0:0:0:
140,84,44246,2,0,P|156:136|180:160,1,80.9999975280763,8|0,0:0|0:0,0:0:0:0:
368,200,44532,1,2,0:0:0:0:
236,256,44675,2,0,L|136:252,1,80.9999975280763,2|8,0:0|0:0,0:0:0:0:
329,360,44960,6,0,B|373:368|373:368|425:332|404:264,1,161.999995056153,6|2,0:0|0:0,0:0:0:0:
268,184,45389,1,8,0:0:0:0:
148,180,45532,1,0,0:0:0:0:
248,280,45675,2,0,L|348:284,2,80.9999975280763,8|8|8,0:0|0:3|0:3,0:0:0:0:
116,340,46103,6,0,P|52:328|12:248,1,135.000005149842,6|8,0:0|0:0,0:0:0:0:
8,168,46532,2,0,P|72:180|112:260,1,135.000005149842,2|8,0:0|0:0,0:0:0:0:
416,344,47246,2,0,P|456:292|456:212,1,135.000005149842,2|8,0:0|0:0,0:0:0:0:
392,168,47675,2,0,L|408:88,2,67.5000025749208,0|2|8,0:0|0:0|0:0,0:0:0:0:
300,324,48246,1,2,0:0:0:0:
300,324,48389,6,0,B|256:316|256:316|212:324|212:324|156:308,1,135.000005149842,6|8,0:0|0:0,0:0:0:0:
211,236,48817,2,0,B|168:224|168:224|124:232|124:232|80:224,1,135.000005149842,2|8,0:0|0:0,0:0:0:0:
120,40,49532,2,0,P|128:92|193:156,1,135.000005149842,2|8,0:0|0:0,0:0:0:0:
272,128,49960,1,0,0:0:0:0:
296,212,50103,2,0,L|304:300,2,67.5000025749208,2|8|2,0:0|0:0|0:0,0:0:0:0:
372,164,50532,1,8,0:0:0:0:
400,296,50675,6,0,P|376:348|288:372,1,135.000005149842,6|8,0:0|0:0,0:0:0:0:
228,336,51103,1,2,0:0:0:0:
188,164,51389,1,8,0:0:0:0:
56,280,51675,1,0,0:0:0:0:
56,280,51818,2,0,B|100:268|100:268|152:280|208:236,1,135.000005149842,2|8,0:0|0:0,0:0:0:0:
188,164,52246,1,2,0:0:0:0:
116,112,52389,1,0,0:0:0:0:
196,80,52532,2,0,L|264:56,1,67.5000025749208,8|0,0:0|0:0,0:0:0:0:
336,128,52818,2,0,L|404:104,1,67.5000025749208,8|0,0:0|0:0,0:0:0:0:
220,248,53246,5,8,0:0:0:0:
220,248,53389,2,0,P|166:273|88:260,1,135.000005149842,2|8,0:0|0:0,0:0:0:0:
276,348,53960,1,0,0:0:0:0:
352,292,54103,1,8,0:0:0:0:
428,348,54246,1,4,0:0:0:0:
504,292,54389,1,0,0:0:0:0:
504,292,54460,1,0,0:0:0:0:
504,292,54532,2,0,L|511:224,1,67.5000025749208,8|0,0:0|0:0,0:0:0:0:
388,88,54818,5,8,0:3:0:0:
420,220,54960,1,8,0:3:0:0:
500,136,55103,1,8,0:3:0:0:
336,212,55246,6,0,P|292:248|276:344,1,135.000005149842,6|8,0:0|0:0,0:0:0:0:
352,376,55675,1,2,0:0:0:0:
224,184,55960,2,0,P|178:144|82:152,1,135.000005149842,8|0,0:0|0:0,0:0:0:0:
140,240,56389,2,0,B|149:287|126:335|126:335|140:379,1,135.000005149842,2|8,0:0|0:0,0:0:0:0:
36,272,56818,2,0,L|28:188,1,67.5000025749208,0|2,0:0|0:0,0:0:0:0:
24,76,57103,1,8,0:0:0:0:
108,120,57246,1,0,0:0:0:0:
172,52,57389,1,8,0:0:0:0:
184,176,57532,6,0,P|226:227|300:244,1,135.000005149842,6|8,0:0|0:0,0:0:0:0:
456,264,57960,2,0,P|413:212|340:196,1,135.000005149842,2|8,0:0|0:0,0:0:0:0:
192,328,58532,2,0,L|280:328,1,67.5000025749208,0|2,0:0|0:0,0:0:0:0:
124,256,58818,1,0,0:0:0:0:
124,256,58960,2,0,P|80:276|48:308,1,67.5000025749208,8|0,0:0|0:0,0:0:0:0:
220,232,59246,2,0,P|236:164|216:84,1,135.000005149842,2|0,0:0|0:0,0:0:0:0:
88,52,59675,2,0,P|116:88|148:104,1,67.5000025749208,8|0,0:0|0:0,0:0:0:0:
312,260,59960,5,6,0:0:0:0:
69,314,60246,1,8,0:0:0:0:
69,314,60389,2,0,P|92:281|124:256,1,80.9999975280763,2|0,0:0|0:0,0:0:0:0:
272,344,60675,2,0,P|220:336|180:312,1,80.9999975280763,0|8,0:0|0:0,0:0:0:0:
221,73,60960,2,0,P|235:152|220:232,1,161.999995056153,2|2,0:0|0:0,0:0:0:0:
152,128,61389,2,0,P|112:124|64:140,1,80.9999975280763,8|0,0:0|0:0,0:0:0:0:
308,184,61675,2,0,P|348:188|396:172,1,80.9999975280763,2|2,0:0|0:0,0:0:0:0:
324,16,61960,1,8,0:0:0:0:
240,140,62103,1,0,0:0:0:0:
344,108,62246,5,2,0:0:0:0:
284,372,62532,2,0,P|248:336|240:216,1,161.999995056153,8|2,0:0|0:0,0:0:0:0:
392,180,62960,1,2,0:0:0:0:
316,296,63103,2,0,P|272:312|228:312,1,80.9999975280763,8|0,0:0|0:0,0:0:0:0:
96,272,63389,6,0,L|56:292,3,40.4999987640381
120,192,63675,1,0,0:0:0:0:
132,168,63746,1,0,0:0:0:0:
136,140,63818,1,0,0:0:0:0:
132,112,63889,1,0,0:0:0:0:
120,88,63960,1,0,0:0:0:0:
256,352,64246,1,8,0:3:0:0:
256,60,64532,6,0,P|288:32|336:16,1,90,6|0,0:0|0:0,0:0:0:0:
255,214,64818,2,0,P|225:240|176:256,1,90,8|0,0:0|0:0,0:0:0:0:
316,136,65103,2,0,P|376:148|440:248,1,180,2|8,0:0|0:0,0:0:0:0:
170,340,65532,6,0,P|168:296|188:256,1,90,2|0,0:0|0:0,0:0:0:0:
336,216,65818,1,0,0:0:0:0:
132,188,65960,1,8,0:0:0:0:
272,320,66103,2,0,P|320:324|368:304,1,90,2|0,0:0|0:0,0:0:0:0:
368,76,66389,1,2,0:0:0:0:
263,122,66532,2,0,L|256:212,1,90,8|4,0:0|0:0,0:0:0:0:
488,216,66818,6,0,P|452:184|396:168,1,90,0|2,0:0|0:0,0:0:0:0:
180,328,67103,2,0,P|138:312|105:281,1,90,8|0,0:0|0:0,0:0:0:0:
32,84,67389,1,2,0:0:0:0:
148,72,67532,2,0,P|189:87|222:118,1,90,2|8,0:0|0:0,0:0:0:0:
72,340,67818,6,0,B|56:316|56:316|48:244,1,90,0|2,0:0|0:0,0:0:0:0:
224,32,68103,2,0,B|240:56|240:56|248:128,1,90,0|8,0:0|0:0,0:0:0:0:
212,300,68389,1,0,0:0:0:0:
104,208,68532,1,2,0:0:0:0:
288,216,68675,2,0,P|348:204|380:184,1,90,2|8,0:0|0:0,0:0:0:0:
210,113,68960,6,0,P|121:115|45:162,1,180,6|2,0:0|0:0,0:0:0:0:
108,332,69389,2,0,P|132:292|140:248,1,90,8|0,0:0|0:0,0:0:0:0:
56,72,69675,1,2,0:0:0:0:
56,72,69818,2,0,L|45:162,1,90,2|8,0:0|0:0,0:0:0:0:
232,356,70103,6,0,B|308:332|328:384|424:356,1,180,6|0,0:0|0:0,0:0:0:0:
480,176,70532,2,0,P|428:180|384:204,1,90,8|0,0:0|0:0,0:0:0:0:
192,248,70818,1,2,0:0:0:0:
192,248,70960,2,0,P|244:264|288:260,1,90,2|8,0:0|0:0,0:0:0:0:
200,20,71246,6,0,B|168:56|168:56|176:92|176:92|140:120|140:180,1,180,6|2,0:0|0:0,0:0:0:0:
256,128,71675,2,0,P|292:92|304:44,1,90,8|0,0:0|0:0,0:0:0:0:
72,68,71960,1,2,0:0:0:0:
20,168,72103,2,0,P|32:216|64:252,1,90,2|8,0:0|0:0,0:0:0:0:
256,308,72389,1,0,0:0:0:0:
344,184,72532,6,0,L|460:152,1,90,12|0,0:0|0:0,0:0:0:0:
476,272,72818,1,0,0:0:0:0:
464,280,72889,1,0,0:0:0:0:
452,288,72960,1,0,0:0:0:0:
440,296,73032,1,0,0:0:0:0:
428,304,73103,2,0,L|404:360,3,45,0|0|0|0,0:0|0:0|0:0|0:0,0:0:0:0:
352,276,73389,2,0,P|328:236|328:180,1,90,0|0,0:0|0:0,0:0:0:0:
432,24,73675,6,0,B|448:48|448:48|444:116,1,90,4|0,0:0|0:0,0:0:0:0:
288,364,73960,2,0,B|272:340|272:340|276:272,1,90,8|0,0:0|0:0,0:0:0:0:
360,80,74246,2,0,B|348:120|348:120|364:156|364:156|344:208|368:256,1,180,2|8,0:0|0:0,0:0:0:0:
472,204,74675,1,0,0:0:0:0:
272,168,74818,6,0,P|208:176|172:196,1,90,2|0,0:0|0:0,0:0:0:0:
188,360,75103,2,0,P|213:300|213:259,1,90,8|0,0:0|0:0,0:0:0:0:
152,64,75389,1,2,0:0:0:0:
128,248,75532,1,2,0:0:0:0:
312,252,75674,1,8,0:0:0:0:
312,252,75746,1,0,0:0:0:0:
312,252,75818,6,0,P|368:185|327:96,1,180,6|2,0:0|0:0,0:0:0:0:
136,200,76246,2,0,P|192:208|228:196,1,90,8|0,0:0|0:0,0:0:0:0:
80,108,76532,1,2,0:0:0:0:
44,256,76675,1,2,0:0:0:0:
176,124,76818,2,0,L|196:36,1,90,8|0,0:0|0:0,0:0:0:0:
140,220,77103,6,0,L|156:308,1,90,2|0,0:0|0:0,0:0:0:0:
320,308,77389,1,8,0:0:0:0:
236,232,77532,1,0,0:0:0:0:
216,372,77675,1,2,0:0:0:0:
400,352,77818,2,0,B|444:336|444:336|480:288,1,90,0|8,0:0|0:0,0:0:0:0:
402,97,78103,6,0,B|368:144|368:144|398:193|390:261,1,180,6|2,0:0|0:0,0:0:0:0:
280,152,78532,1,8,0:0:0:0:
276,132,78603,1,0,0:0:0:0:
272,112,78674,1,0,0:0:0:0:
160,72,78818,1,2,0:0:0:0:
48,232,78960,1,2,0:0:0:0:
172,160,79103,1,8,0:0:0:0:
80,312,79246,6,0,P|48:356|12:380,1,90,4|0,0:2|0:0,0:0:0:0:
184,252,79532,2,0,P|237:243|280:251,1,90,2|8,0:0|0:0,0:0:0:0:
432,368,79818,1,4,0:2:0:0:
352,216,79960,1,0,0:0:0:0:
232,344,80103,2,0,P|178:352|135:344,1,90,2|8,0:0|0:0,0:0:0:0:
76,144,80389,5,6,0:0:0:0:
204,228,88389,5,0,0:0:0:0:
80,280,88675,2,0,L|164:296,1,67.5000025749208,8|0,0:0|0:0,0:0:0:0:
328,176,88960,2,0,L|244:160,1,67.5000025749208,8|0,0:0|0:0,0:0:0:0:
56,204,89246,1,8,0:0:0:0:
88,356,89389,1,0,0:0:0:0:
244,296,89532,6,0,P|280:296|324:312,1,67.5000025749208,4|0,0:2|0:0,0:0:0:0:
412,204,89818,2,0,P|388:240|348:264,1,67.5000025749208,0|8,0:0|0:0,0:0:0:0:
228,196,90103,1,0,0:0:0:0:
224,68,90246,2,0,L|268:120,1,67.5000025749208,0|0,0:0|0:0,0:0:0:0:
156,124,90532,1,8,0:0:0:0:
340,76,90675,6,0,P|384:76|460:140,1,135.000005149842,2|0,0:0|0:0,0:0:0:0:
364,280,91103,1,8,0:0:0:0:
308,192,91246,2,0,L|276:124,1,67.5000025749208,0|0,0:0|0:0,0:0:0:0:
232,276,91532,2,0,L|264:344,1,67.5000025749208,0|8,0:0|0:0,0:0:0:0:
88,288,91818,5,2,0:0:0:0:
88,288,92103,2,0,P|80:236|88:196,1,67.5000025749208,0|8,0:0|0:0,0:0:0:0:
172,56,92389,1,0,0:0:0:0:
208,144,92532,1,0,0:0:0:0:
192,240,92675,2,0,P|200:292|192:332,1,67.5000025749208,0|8,0:0|0:0,0:0:0:0:
323,182,92960,6,0,P|389:172|448:202,1,135.000005149842,6|2,0:0|0:0,0:0:0:0:
456,216,93318,1,0,0:0:0:0:
464,232,93389,1,8,0:0:0:0:
468,248,93460,1,0,0:0:0:0:
468,264,93532,2,0,L|492:304,3,33.7500012874604,6|0|0|0,0:0|0:0|0:0|0:0,0:0:0:0:
388,300,93818,1,6,0:0:0:0:
372,304,93889,1,0,0:0:0:0:
356,308,93960,1,8,0:0:0:0:
340,312,94032,1,0,0:0:0:0:
324,316,94103,6,0,P|288:324|232:308,1,67.5000025749208,4|0,0:2|0:0,0:0:0:0:
156,184,94389,2,0,P|196:196|220:220,1,67.5000025749208,0|8,0:0|0:0,0:0:0:0:
104,344,94675,1,0,0:0:0:0:
28,268,94818,2,0,L|24:200,1,67.5000025749208,0|0,0:0|0:0,0:0:0:0:
176,104,95103,1,8,0:0:0:0:
284,64,95246,6,0,P|287:130|252:187,1,135.000005149842,2|0,0:0|0:0,0:0:0:0:
152,260,95675,1,8,0:0:0:0:
200,348,95818,2,0,L|276:372,1,67.5000025749208,0|0,0:0|0:0,0:0:0:0:
388,248,96103,2,0,L|312:224,1,67.5000025749208,0|8,0:0|0:0,0:0:0:0:
448,356,96389,6,0,P|460:316|456:284,1,67.5000025749208,2|0,0:0|0:0,0:0:0:0:
404,100,96675,2,0,P|392:140|396:172,1,67.5000025749208,0|8,0:0|0:0,0:0:0:0:
308,24,96960,2,0,L|236:36,1,67.5000025749208,0|0,0:0|0:0,0:0:0:0:
224,184,97246,2,0,P|244:148|248:112,1,67.5000025749208,0|8,0:0|0:0,0:0:0:0:
64,128,97532,6,0,L|16:192,1,67.5000025749208,4|0,0:2|0:0,0:0:0:0:
152,348,97818,1,0,0:0:0:0:
272,316,97960,2,0,L|320:252,1,67.5000025749208,4|0,0:2|0:0,0:0:0:0:
208,64,98246,1,0,0:0:0:0:
164,212,98389,1,0,0:0:0:0:
288,140,98532,1,0,0:0:0:0:
80,208,98675,6,0,P|60:248|80:360,1,161.999995056153,6|0,0:0|0:0,0:0:0:0:
360,320,99103,2,0,P|346:271|320:240,1,80.9999975280763,8|0,0:0|0:0,0:0:0:0:
156,128,99389,1,2,0:0:0:0:
152,288,99532,2,0,L|240:304,1,80.9999975280763,2|8,0:0|0:0,0:0:0:0:
384,180,99818,1,0,0:0:0:0:
320,84,99960,6,0,L|232:68,2,80.9999975280763,0|2|8,0:0|0:0|0:0,0:0:0:0:
352,264,100389,2,0,P|344:320|232:384,1,161.999995056153,0|2,0:0|0:0,0:0:0:0:
64,284,100818,1,8,0:0:0:0:
124,188,100960,6,0,B|180:188|180:188|232:168|232:168|296:168,1,161.999995056153,4|2,0:0|0:0,0:0:0:0:
433,264,101389,2,0,L|352:264,1,80.9999975280763,8|0,0:0|0:0,0:0:0:0:
164,104,101675,1,2,0:0:0:0:
248,256,101818,2,0,P|240:304|216:344,1,80.9999975280763,2|8,0:0|0:0,0:0:0:0:
16,328,102103,6,0,L|64:264,1,80.9999975280763,4|0,0:2|0:0,0:0:0:0:
288,88,102389,2,0,L|240:152,1,80.9999975280763,0|8,0:0|0:0,0:0:0:0:
12,188,102675,2,0,P|28:128|136:96,1,161.999995056153,4|2,0:2|0:0,0:0:0:0:
128,208,103103,1,8,0:0:0:0:
240,88,103246,5,6,0:0:0:0:
240,88,103675,2,0,L|252:180,1,80.9999975280763,8|0,0:0|0:0,0:0:0:0:
188,344,103960,1,0,0:0:0:0:
76,296,104103,2,0,L|64:204,1,80.9999975280763,2|8,0:0|0:0,0:0:0:0:
204,264,104389,6,0,P|292:264|352:196,1,161.999995056153,2|2,0:0|0:0,0:0:0:0:
368,92,104818,1,8,0:0:0:0:
412,252,104960,2,0,L|432:340,1,80.9999975280763,0|2,0:0|0:0,0:0:0:0:
252,172,105246,2,0,L|232:84,1,80.9999975280763,2|8,0:0|0:0,0:0:0:0:
64,36,105532,6,0,B|48:76|48:76|72:144|160:128,1,161.999995056153,6|2,0:0|0:0,0:0:0:0:
368,92,105960,2,0,L|292:52,1,80.9999975280763,8|0,0:0|0:0,0:0:0:0:
168,232,106246,2,0,L|244:272,1,80.9999975280763,2|2,0:0|0:0,0:0:0:0:
423,253,106532,2,0,L|352:216,1,80.9999975280763,8|6,0:0|0:0,0:0:0:0:
248,360,106818,6,0,B|204:364|204:364|128:344,2,121.499996292114,0|0|0,0:0|0:0|0:0,0:0:0:0:
352,308,107389,2,0,B|396:304|396:304|472:324,2,121.499996292114,8|0|0,0:0|0:0|0:0,0:0:0:0:
208,256,107960,5,2,0:0:0:0:
208,256,108246,2,0,L|124:220,1,67.5000025749208,0|2,0:0|0:0,0:0:0:0:
92,104,108532,1,8,0:0:0:0:
180,92,108675,2,0,L|264:128,1,67.5000025749208,0|2,0:0|0:0,0:0:0:0:
328,224,108960,2,0,P|344:286|299:371,1,135.000005149842,2|8,0:0|0:0,0:0:0:0:
180,376,109389,2,0,L|188:304,1,67.5000025749208,0|2,0:0|0:0,0:0:0:0:
312,136,109675,1,8,0:0:0:0:
288,232,109818,1,0,0:0:0:0:
364,296,109960,2,0,P|404:288|436:272,1,67.5000025749208,8|0,0:0|0:0,0:0:0:0:
456,152,110246,5,2,0:0:0:0:
456,152,110532,2,0,L|364:132,1,67.5000025749208,0|2,0:0|0:0,0:0:0:0:
248,180,110818,1,8,0:0:0:0:
272,264,110960,2,0,L|364:284,1,67.5000025749208,0|2,0:0|0:0,0:0:0:0:
468,332,111246,2,0,B|432:308|432:308|444:248|400:200,1,135.000005149842,2|8,0:0|0:0,0:0:0:0:
296,344,111675,2,0,L|368:392,1,67.5000025749208,0|2,0:0|0:0,0:0:0:0:
128,352,111960,1,8,0:0:0:0:
56,280,112103,1,0,0:0:0:0:
168,260,112246,2,0,B|192:272|192:272|240:264,1,67.5000025749208,8|8,0:0|0:0,0:0:0:0:
96,184,112532,5,2,0:0:0:0:
96,184,112818,2,0,L|116:92,1,67.5000025749208,0|2,0:0|0:0,0:0:0:0:
244,28,113103,1,8,0:0:0:0:
304,92,113246,2,0,L|284:184,1,67.5000025749208,0|2,0:0|0:0,0:0:0:0:
164,288,113532,2,0,L|192:156,1,135.000005149842,2|8,0:0|0:0,0:0:0:0:
80,268,113960,2,0,P|44:300|-4:308,1,67.5000025749208,0|2,0:0|0:0,0:0:0:0:
28,156,114246,1,8,0:0:0:0:
28,156,114532,2,0,L|0:232,1,67.5000025749208,2|8,0:0|0:0,0:0:0:0:
120,128,114818,5,2,0:0:0:0:
120,128,115103,2,0,L|192:112,1,67.5000025749208,0|2,0:0|0:0,0:0:0:0:
336,200,115389,1,8,0:0:0:0:
280,268,115532,2,0,L|208:284,1,67.5000025749208,0|2,0:0|0:0,0:0:0:0:
340,340,115818,2,0,P|392:324|492:348,1,135.000005149842,2|8,0:0|0:0,0:0:0:0:
476,192,116246,2,0,P|436:208|416:240,1,67.5000025749208,0|2,0:0|0:0,0:0:0:0:
292,128,116532,5,8,0:0:0:0:
456,96,116675,1,8,0:0:0:0:
316,228,116818,1,8,0:0:0:0:
360,68,116960,1,8,0:0:0:0:
240,272,117103,5,6,0:0:0:0:
240,272,117389,2,0,L|200:200,1,67.5000025749208,0|2,0:0|0:0,0:0:0:0:
328,320,117675,2,0,L|404:320,1,67.5000025749208,8|0,0:0|0:0,0:0:0:0:
244,360,117960,1,2,0:0:0:0:
160,316,118103,2,0,P|124:256|128:180,1,135.000005149842,2|8,0:0|0:0,0:0:0:0:
208,76,118532,2,0,P|208:120|196:156,1,67.5000025749208,0|2,0:0|0:0,0:0:0:0:
32,112,118818,2,0,P|84:108|112:96,1,67.5000025749208,8|0,0:0|0:0,0:0:0:0:
276,28,119103,1,2,0:0:0:0:
140,24,119246,1,0,0:0:0:0:
236,148,119389,5,2,0:0:0:0:
236,148,119675,2,0,L|176:204,1,67.5000025749208,0|2,0:0|0:0,0:0:0:0:
172,332,119960,2,0,L|164:248,1,67.5000025749208,8|0,0:0|0:0,0:0:0:0:
284,216,120246,1,2,0:0:0:0:
284,216,120318,1,0,0:0:0:0:
284,216,120389,2,0,B|276:264|276:264|296:304|360:304,1,135.000005149842,2|8,0:0|0:0,0:0:0:0:
464,228,120818,2,0,L|384:224,1,67.5000025749208,0|2,0:0|0:0,0:0:0:0:
324,100,121103,2,0,L|344:16,1,67.5000025749208,8|0,0:0|0:0,0:0:0:0:
284,216,121389,1,8,0:0:0:0:
204,124,121532,1,8,0:0:0:0:
404,196,121675,5,2,0:0:0:0:
404,196,121960,2,0,L|392:288,1,67.5000025749208,0|2,0:0|0:0,0:0:0:0:
228,340,122246,1,8,0:0:0:0:
192,260,122389,2,0,L|204:168,1,67.5000025749208,0|2,0:0|0:0,0:0:0:0:
100,264,122675,2,0,P|84:312|24:372,1,135.000005149842,2|8,0:0|0:0,0:0:0:0:
161,344,123103,2,0,P|194:336|228:340,1,67.5000025749208
340,236,123389,2,0,P|308:247|282:269,1,67.5000025749208,8|0,0:0|0:0,0:0:0:0:
192,208,123675,1,2,0:0:0:0:
252,352,123818,1,8,0:0:0:0:
404,328,123960,5,2,0:0:0:0:
404,328,124246,2,0,L|432:260,1,67.5000025749208,0|2,0:0|0:0,0:0:0:0:
392,112,124532,2,0,L|412:184,1,67.5000025749208,8|0,0:0|0:0,0:0:0:0:
316,308,124818,1,2,0:0:0:0:
292,160,124960,2,0,B|284:124|284:124|296:100|296:100|276:52|300:8,1,135.000005149842,2|8,0:0|0:0,0:0:0:0:
196,100,125389,2,0,P|160:116|120:116,1,67.5000025749208,4|0,0:2|0:0,0:0:0:0:
156,256,125675,2,0,P|160:216|180:182,1,67.5000025749208,8|0,0:0|0:0,0:0:0:0:
360,172,125960,1,8,0:0:0:0:
260,248,126103,1,8,0:0:0:0:
412,288,126246,6,0,P|464:278|509:242,1,80.9999975280763,6|0,0:0|0:0,0:0:0:0:
284,336,126532,2,0,P|231:345|186:381,1,80.9999975280763,8|0,0:0|0:0,0:0:0:0:
320,236,126818,1,2,0:0:0:0:
224,144,126960,2,0,P|176:168|152:208,1,80.9999975280763,2|8,0:0|0:0,0:0:0:0:
52,356,127246,6,0,B|100:336|100:336|208:359,1,161.999995056153,2|2,0:0|0:0,0:0:0:0:
364,368,127675,1,8,0:0:0:0:
408,236,127818,2,0,L|392:144,1,80.9999975280763,2|0,0:0|0:0,0:0:0:0:
224,64,128103,1,2,0:0:0:0:
106,144,128246,2,0,L|120:224,1,80.9999975280763,8|0,0:0|0:0,0:0:0:0:
288,336,128532,6,0,P|264:276|232:248,1,80.9999975280763,6|0,0:0|0:0,0:0:0:0:
40,221,128818,2,0,B|72:229|72:229|120:224,1,80.9999975280763,8|0,0:0|0:0,0:0:0:0:
388,96,129103,2,0,B|356:88|356:88|308:93,1,80.9999975280763,2|2,0:0|0:0,0:0:0:0:
204,196,129389,1,8,0:0:0:0:
336,204,129532,1,2,0:0:0:0:
224,88,129675,6,0,P|168:92|136:108,1,80.9999975280763,0|2,0:0|0:0,0:0:0:0:
136,296,129960,1,8,0:0:0:0:
257,328,130103,2,0,P|320:281|336:204,1,161.999995056153,0|2,0:0|0:0,0:0:0:0:
408,344,130532,2,0,P|456:348|492:340,1,80.9999975280763,8|0,0:0|0:0,0:0:0:0:
476,108,130818,6,0,B|444:120|428:152|428:152|380:160|348:104,1,161.999995056153,6|8,0:0|0:0,0:0:0:0:
192,40,131246,2,0,P|244:24|284:28,1,80.9999975280763,0|2,0:0|0:0,0:0:0:0:
256,152,131532,2,0,L|220:240,1,80.9999975280763,2|8,0:0|0:0,0:0:0:0:
108,304,131818,6,0,B|130:249|130:249|124:184|170:145,1,161.999995056153,2|2,0:0|0:0,0:0:0:0:
352,160,132246,1,8,0:0:0:0:
368,260,132389,1,0,0:0:0:0:
276,304,132532,2,0,P|232:300|192:276,1,80.9999975280763,2|2,0:0|0:0,0:0:0:0:
179,130,132818,2,0,P|220:133|256:152,1,80.9999975280763,8|0,0:0|0:0,0:0:0:0:
88,288,133103,6,0,L|76:208,1,80.9999975280763,6|0,0:0|0:0,0:0:0:0:
188,308,133389,2,0,L|264:360,1,80.9999975280763,8|0,0:0|0:0,0:0:0:0:
148,152,133675,1,2,0:0:0:0:
248,48,133818,1,2,0:0:0:0:
272,172,133960,2,0,L|224:264,1,80.9999975280763,8|0,0:0|0:0,0:0:0:0:
380,96,134246,6,0,P|420:92|460:108,1,80.9999975280763,2|0,0:0|0:0,0:0:0:0:
480,308,134532,2,0,P|440:312|400:296,1,80.9999975280763,8|0,0:0|0:0,0:0:0:0:
216,224,134818,1,0,0:0:0:0:
212,204,134889,1,0,0:0:0:0:
208,184,134960,1,0,0:0:0:0:
204,164,135032,1,0,0:0:0:0:
200,144,135103,1,0,0:0:0:0:
196,124,135175,1,0,0:0:0:0:
192,104,135246,1,0,0:0:0:0:
188,84,135318,1,0,0:0:0:0:
184,64,135389,6,0,P|152:24|112:8,1,80.9999975280763,4|0,0:0|0:0,0:0:0:0:
0,160,135675,2,0,P|56:140|76:116,1,80.9999975280763,8|0,0:0|0:0,0:0:0:0:
308,40,135960,2,0,P|296:88|316:200,1,161.999995056153,2|8,0:0|0:0,0:0:0:0:
408,308,136389,1,2,0:0:0:0:
228,288,136532,5,0,0:0:0:0:
296,216,136674,1,2,0:0:0:0:
312,364,136817,1,8,0:0:0:0:
152,352,136960,2,0,P|96:332|72:308,1,80.9999975280763,0|2,0:0|0:0,0:0:0:0:
72,120,137246,1,2,0:0:0:0:
176,56,137389,2,0,P|232:76|256:100,1,80.9999975280763,8|4,0:0|0:0,0:0:0:0:
192,284,137674,6,0,P|164:236|164:180,1,80.9999975280763,0|2,0:0|0:0,0:0:0:0:
328,288,137960,2,0,L|420:304,1,80.9999975280763,8|0,0:0|0:0,0:0:0:0:
416,72,138246,1,2,0:0:0:0:
296,176,138389,1,2,0:0:0:0:
416,188,138532,1,8,0:0:0:0:
254,65,138674,6,0,P|216:53|176:56,1,80.9999975280763,2|0,0:0|0:0,0:0:0:0:
76,192,138960,2,0,P|128:180|156:156,1,80.9999975280763,2|8,0:0|0:0,0:0:0:0:
176,320,139246,2,0,P|224:364|328:376,1,161.999995056153,0|2,0:0|0:0,0:0:0:0:
460,248,139674,2,0,L|360:296,1,80.9999975280763,8|0,0:0|0:0,0:0:0:0:
128,240,139960,5,4,0:0:0:0:
128,240,140103,2,0,P|188:232|228:240,1,80.9999975280763,2|8,0:0|0:0,0:0:0:0:
448,44,140532,2,2,P|444:92|432:124,1,80.9999975280763,2|0,0:0|0:0,0:0:0:0:
284,244,140817,1,8,0:0:0:0:
416,212,140960,6,0,B|464:228|464:228|500:288|440:336,1,161.999995056153,6|2,0:0|0:0,0:0:0:0:
212,360,141389,2,0,L|204:268,1,80.9999975280763,8|0,0:0|0:0,0:0:0:0:
296,60,141674,1,8,0:0:0:0:
268,184,141817,1,8,0:3:0:0:
168,80,141960,1,8,0:3:0:0:
332,136,142103,1,0,0:0:0:0:
208,244,142246,1,6,0:0:0:0:
256,192,142389,12,6,144532,0:0:0:0:
156,132,153532,5,0,0:0:0:0:
156,132,153603,1,0,0:0:0:0:
156,132,153674,2,0,P|204:136|248:120,1,67.5000025749208,2|0,0:0|0:0,0:0:0:0:
352,252,153960,2,0,P|304:248|260:264,1,67.5000025749208
192,348,154246,2,0,P|244:360|324:324,1,135.000005149842,2|0,0:0|0:0,0:0:0:0:
196,256,154674,2,0,P|140:272|96:356,1,135.000005149842,0|0,0:0|0:0,0:0:0:0:
272,216,155103,2,0,L|276:140,1,67.5000025749208,2|0,0:0|0:0,0:0:0:0:
184,36,155389,1,0,0:0:0:0:
184,36,155532,2,0,L|200:112,1,67.5000025749208
112,184,155817,5,2,0:0:0:0:
108,284,155960,2,0,P|136:328|240:340,1,135.000005149842,0|2,0:0|0:0,0:0:0:0:
372,324,156389,1,0,0:0:0:0:
372,324,156532,2,0,L|288:304,1,67.5000025749208
232,244,156817,1,0,0:0:0:0:
240,156,156960,1,0,0:0:0:0:
320,120,157103,2,0,P|336:84|336:48,1,67.5000025749208,2|0,0:0|0:0,0:0:0:0:
312,208,157389,2,0,P|348:228|380:232,1,67.5000025749208
456,132,157674,1,2,0:0:0:0:
456,132,157817,2,0,L|468:216,1,67.5000025749208
456,320,158103,5,2,0:0:0:0:
456,320,158246,2,0,P|396:320|308:364,1,135.000005149842
128,284,158817,2,0,L|32:296,2,67.5000025749208
256,32,159960,5,8,0:3:0:0:
224,196,160248,6,0,P|144:208|112:200,1,90,6|0,0:0|0:0,0:0:0:0:
336,156,160533,2,0,P|372:196|384:236,1,90,8|0,0:0|0:0,0:0:0:0:
144,384,160819,2,0,B|80:372|80:372|44:312|96:256,1,180,2|8,0:0|0:0,0:0:0:0:
228,32,161248,6,0,B|256:68|256:68|264:128,1,90,2|0,0:0|0:0,0:0:0:0:
216,272,161533,1,0,0:0:0:0:
168,160,161676,1,8,0:0:0:0:
304,236,161819,2,0,L|352:324,1,90,2|0,0:0|0:0,0:0:0:0:
148,344,162105,1,2,0:0:0:0:
148,344,162176,1,0,0:0:0:0:
148,344,162248,2,0,L|100:256,1,90,8|4,0:0|0:0,0:0:0:0:
104,12,162533,6,0,B|136:14|136:14|183:51,1,90,0|2,0:0|0:0,0:0:0:0:
379,240,162819,2,0,B|346:237|346:237|299:200,1,90,8|0,0:0|0:0,0:0:0:0:
284,56,163105,1,2,0:0:0:0:
224,216,163248,2,0,L|212:312,1,90,2|8,0:0|0:0,0:0:0:0:
392,136,163533,6,0,L|452:56,1,90,0|2,0:0|0:0,0:0:0:0:
356,260,163819,2,0,L|296:340,1,90,0|8,0:0|0:0,0:0:0:0:
240,128,164105,1,0,0:0:0:0:
428,212,164248,1,2,0:0:0:0:
224,216,164390,2,0,L|124:220,1,90,2|8,0:0|0:0,0:0:0:0:
48,32,164676,6,0,P|72:88|32:208,1,180,6|2,0:0|0:0,0:0:0:0:
108,356,165105,2,0,P|76:300|76:272,1,90,8|0,0:0|0:0,0:0:0:0:
168,88,165390,1,2,0:0:0:0:
224,216,165533,1,2,0:0:0:0:
108,192,165676,1,8,0:0:0:0:
264,120,165819,6,0,B|330:91|330:91|349:66|349:66|423:34,1,180,6|0,0:0|0:0,0:0:0:0:
440,184,166248,2,0,B|396:188|396:188|348:172,1,90,8|0,0:0|0:0,0:0:0:0:
424,264,166462,1,0,0:0:0:0:
424,264,166533,2,0,L|456:352,1,90,2|2,0:0|0:0,0:0:0:0:
304,352,166819,1,8,0:0:0:0:
40,316,166962,6,0,B|84:324|84:324|124:308|124:308|172:336|224:312,1,180,6|2,0:0|0:0,0:0:0:0:
248,172,167390,2,0,P|204:192|172:236,1,90,8|0,0:0|0:0,0:0:0:0:
368,292,167676,1,2,0:0:0:0:
196,340,167819,1,2,0:0:0:0:
376,376,167962,2,0,P|420:356|452:312,1,90,8|0,0:0|0:0,0:0:0:0:
408,72,168248,6,0,L|388:172,1,90,12|0,0:0|0:0,0:0:0:0:
280,252,168533,1,0,0:0:0:0:
256,252,168605,1,0,0:0:0:0:
232,252,168676,1,0,0:0:0:0:
208,252,168748,1,0,0:0:0:0:
184,252,168819,2,0,L|140:216,3,45,0|0|0|0,0:0|0:0|0:0|0:0,0:0:0:0:
152,344,169105,1,0,0:0:0:0:
152,344,169176,1,0,0:0:0:0:
152,344,169248,1,0,0:0:0:0:
152,344,169319,1,0,0:0:0:0:
152,344,169390,6,0,B|192:348|192:348|248:324,1,90,4|0,0:0|0:0,0:0:0:0:
432,176,169676,2,0,B|392:172|392:172|336:196,1,90,8|0,0:0|0:0,0:0:0:0:
468,368,169962,2,0,P|476:312|472:264,1,90,2|0,0:0|0:0,0:0:0:0:
292,112,170248,1,8,0:0:0:0:
404,252,170390,1,0,0:0:0:0:
240,220,170533,6,0,L|136:216,1,90,2|0,0:0|0:0,0:0:0:0:
276,332,170819,2,0,L|376:304,1,90,8|0,0:0|0:0,0:0:0:0:
164,368,171105,1,2,0:0:0:0:
56,320,171248,2,0,P|28:264|28:220,1,90,2|8,0:0|0:0,0:0:0:0:
72,48,171533,6,0,B|88:100|88:100|60:168|104:224,1,180,6|2,0:0|0:0,0:0:0:0:
272,220,171962,2,0,P|224:164|192:156,1,90,8|0,0:0|0:0,0:0:0:0:
256,328,172248,2,0,P|328:314|351:290,1,90,2|2,0:0|0:0,0:0:0:0:
356,104,172533,1,8,0:0:0:0:
272,220,172676,1,0,0:0:0:0:
448,176,172819,2,0,P|472:136|476:92,1,90,2|0,0:0|0:0,0:0:0:0:
256,36,173105,1,8,0:0:0:0:
216,144,173248,1,0,0:0:0:0:
120,76,173390,1,2,0:0:0:0:
336,128,173533,6,0,B|364:148|364:148|380:216,1,90,0|8,0:0|0:0,0:0:0:0:
116,360,173819,2,0,B|82:360|65:320|65:320|96:264|62:210,1,180,6|2,0:0|0:0,0:0:0:0:
200,296,174248,2,0,P|248:280|277:252,1,90,8|0,0:0|0:0,0:0:0:0:
272,92,174533,1,2,0:0:0:0:
196,196,174676,2,0,L|104:192,1,90,2|8,0:0|0:0,0:0:0:0:
304,344,174962,6,0,B|340:360|340:360|408:348,1,90,4|0,0:2|0:0,0:0:0:0:
208,344,175248,2,0,B|172:360|172:360|122:351,1,90,2|8,0:0|0:0,0:0:0:0:
368,240,175533,2,0,B|400:232|400:232|444:188,1,90,4|0,0:2|0:0,0:0:0:0:
144,240,175819,2,0,B|112:232|112:232|71:191,1,90,2|8,0:0|0:0,0:0:0:0:
305,53,176105,6,0,B|337:85|337:85|352:128,1,90,6|0,0:0|0:0,0:0:0:0:
160,128,176390,2,0,B|174:85|174:85|206:53,1,90,2|8,0:0|0:0,0:0:0:0:
206,330,176676,2,0,B|174:298|174:298|160:256,1,90,2|0,0:0|0:0,0:0:0:0:
352,256,176962,2,0,B|337:298|337:298|305:330,1,90,2|8,0:0|0:0,0:0:0:0:
256,76,177248,6,0,L|256:264,1,180,4|0,0:2|0:0,0:0:0:0:
176,180,177676,1,8,0:0:0:0:
336,204,177819,1,0,0:0:0:0:
164,272,177962,1,8,0:0:0:0:
348,112,178105,1,0,0:0:0:0:
256,348,178248,1,8,0:0:0:0:
256,232,178390,6,0,B|261:197|232:176|232:176|280:152|280:152|224:76|260:0,1,270,6|0,0:0|0:0,0:0:0:0:
