osu file format v10

[General]
AudioFilename: Chikyuu Saigo no Kokuhaku wo.mp3
AudioLeadIn: 0
PreviewTime: 84021
Countdown: 0
SampleSet: Soft
StackLeniency: 0.7
Mode: 0
LetterboxInBreaks: 1

[Editor]
Bookmarks: 3564,3671,23706,23784,33811,33890,54021,54100,74232,74311,84337,84416,107074,107153,129811,129890,139908,139987,151284,151363,177811,177890,198013,198092,203074,203153
DistanceSpacing: 1
BeatDivisor: 4
GridSize: 8

[Metadata]
Title:Chikyuu Saigo no Kokuhaku wo
TitleUnicode:
Artist:ayaponzu
ArtistUnicode:
Creator:JoJo
Version:Hard
Source:kemu
Tags:raririn kanpakyin kpy sorda s_o_r_d_a megpoid gumi mafumafu vocaloid vocaloid2 the earth final confession
BeatmapID:165056
BeatmapSetID:54269

[Difficulty]
HPDrainRate:8
CircleSize:4
OverallDifficulty:7
ApproachRate:8
SliderMultiplier:1.6
SliderTickRate:2

[Events]
//Background and Video events
0,0,"BG.jpg"
//Break Periods
2,107265,108842
2,130003,139158
2,175319,177053
//Storyboard Layer 0 (Background)
//Storyboard Layer 1 (Fail)
//Storyboard Layer 2 (Pass)
//Storyboard Layer 3 (Foreground)
//Storyboard Sound Samples
//Background Colour Transformations
3,100,163,162,255

[TimingPoints]
3564,428.571428571429,4,2,1,40,1,0
3564,-133.333333333333,4,2,1,40,0,0
22435,315.789473684211,4,2,1,60,1,0
22435,-100,4,2,1,5,0,0
23540,-100,4,2,1,60,0,0
33803,-133.333333333333,4,2,1,60,0,0
54013,-100,4,2,1,60,0,0
74224,-200,4,2,1,60,0,0
79276,-200,4,2,1,60,0,0
81487,-100,4,2,1,60,0,0
84329,-100,4,2,1,60,0,1
94435,-133.333333333333,4,2,1,60,0,0
94750,-100,4,2,1,60,0,1
100750,-133.333333333333,4,2,1,60,0,1
105645,-133.333333333333,4,2,1,60,0,0
109592,-100,4,2,1,60,0,0
139908,-133.333333333333,4,2,1,60,0,0
144961,-200,4,2,1,60,0,0
146856,-100,4,2,1,60,0,0
151277,-100,4,2,1,60,0,1
161382,-100,4,2,1,60,0,0
161698,-100,4,2,1,60,0,1
168961,-133.333333333333,4,2,1,60,0,1
170856,-100,4,2,1,60,0,1
175119,-100,4,2,1,60,0,0
177803,-100,4,2,1,60,0,1
177882,-100,4,2,1,60,0,0
203066,-100,4,2,1,5,0,0

[Colours]
Combo1 : 251,214,204
Combo2 : 254,184,107

[HitObjects]
80,264,3564,2,0,B|136:288|208:264,1,119.999996423721
272,288,4206,2,0,B|296:232|272:160,1,119.999996423721
320,24,5064,2,0,B|332:72|416:112|496:72,1,179.999994635582
416,200,5921,1,0,0:0:0
224,336,6564,5,0,0:0:0
224,336,6778,1,0,0:0:0
224,336,6992,2,0,B|152:336|120:272,1,119.999996423721
88,208,7635,2,0,B|72:176|88:128,1,59.9999982118607
160,136,8064,2,0,B|160:64|224:32,1,119.999996423721
328,144,8921,6,0,B|400:144|432:208,1,119.999996423721
317,310,9778,1,0,0:0:0
256,192,10206,12,0,12135,0:0:0
256,192,12564,5,0,0:0:0
128,96,12992,1,0,0:0:0
80,248,13421,1,0,0:0:0
216,328,13849,2,0,B|272:352|352:304|336:216,1,179.999994635582
304,168,14706,2,0,B|376:120|360:40|280:16|216:88,1,239.999992847443
192,288,16421,6,0,B|120:288|88:224,1,119.999996423721
192,112,17278,2,0,B|240:64|310:83,1,119.999996423721
336,152,17921,2,0,B|400:256,1,119.999996423721
256,192,18778,12,0,23382,0:0:0
140,124,23698,6,0,B|219:149|296:116,1,160
431,200,24329,2,0,B|352:175|275:208,1,160
187,342,24961,2,0,B|105:369|32:324,1,160
181,263,25592,2,0,B|206:187,1,80
169,58,25908,2,0,B|144:134,1,80
72,169,26224,2,0,B|217:123|236:248|381:200,1,320
495,88,27171,2,0,B|507:49,2,40
420,317,27645,1,0,0:0:0
180,337,27961,1,0,0:0:0
61,128,28277,2,0,B|42:92,3,40
47,52,28592,2,0,B|128:74|200:28,1,160
256,88,29066,1,0,0:0:0
311,238,29382,2,0,B|344:262|385:265,1,80
512,236,29698,2,0,B|479:212|437:208,1,80
397,139,30013,2,0,B|358:149,3,40
319,139,30329,2,0,B|280:128,3,40
240,139,30645,2,0,B|164:168|83:152,1,160
40,221,31277,2,0,B|75:315,1,80
143,322,31592,2,0,B|228:331,1,80
302,323,31908,2,0,B|378:383,2,80
281,245,32382,1,0,0:0:0
211,205,32540,2,0,B|194:125,1,80
338,57,33013,2,0,B|376:57,2,40
263,26,33329,1,0,0:0:0
352,240,33803,6,0,B|424:240|456:304,1,119.999996423721,0|0,0:0|0:0,0:0:0
296,272,34435,2,0,B|296:344|232:376,1,119.999996423721
136,256,35066,2,0,B|64:256|32:192,2,119.999996423721,0|0|0,0:0|0:0|0:0,0:0:0
136,177,35856,1,0,0:0:0
190,122,36013,2,0,B|294:42,1,119.999996423721
322,262,36645,2,0,B|218:342,1,119.999996423721
149,319,37119,1,0,0:0:0
160,144,37435,6,0,B|88:144|56:80,1,119.999996423721,0|0,0:0|0:0,0:0:0
115,33,37908,1,0,0:0:0
185,67,38066,1,0,0:0:0
261,53,38224,1,0,0:0:0
419,73,38540,1,0,0:0:0
473,219,38856,6,0,B|369:299,1,119.999996423721,0|0,0:0|0:0,0:0:0
73,361,39803,1,0,0:0:0
104,288,39961,2,0,B|32:264|32:160|104:128,1,179.999994635582
152,104,40592,2,0,B|176:32|280:32|312:104,1,179.999994635582
352,232,41382,6,0,B|232:240|168:192,1,179.999994635582
256,312,42013,2,0,B|248:192|296:128,1,179.999994635582
344,82,42645,2,0,B|320:56|272:48,1,59.9999982118607
152,128,43119,1,0,0:0:0
92,178,43277,1,0,0:0:0
368,321,43908,6,0,B|440:305|472:233,1,119.999996423721
404,87,44540,1,0,0:0:0
334,121,44698,2,0,B|248:124,1,59.9999982118607
192,256,45171,2,0,B|64:257,1,119.999996423721
136,184,45645,2,0,B|135:56,1,119.999996423721
288,96,46277,6,0,B|328:152|401:151|464:96,1,179.999994635582
352,224,46908,2,0,B|296:264|297:337|352:400,1,179.999994635582
48,291,47698,2,0,B|95:249|168:248|208:304,1,179.999994635582
304,80,48645,1,0,0:0:0
232,104,48803,1,0,0:0:0
224,112,48882,1,0,0:0:0
213,123,48961,6,0,B|213:171|189:211|133:227,1,119.999996423721
37,323,49592,1,0,0:0:0
189,325,49908,1,0,0:0:0
318,238,50224,2,0,B|381:232|417:142,1,119.999996423721
272,80,50856,1,0,0:0:0
116,80,51171,6,0,B|52:80,1,59.9999982118607
29,153,51486,1,0,0:0:0
139,263,51803,6,0,B|168:304|218:308|269:279,2,119.999996423721
208,224,52592,2,0,B|264:184|263:111|208:48,1,179.999994635582
144,64,53224,5,0,0:0:0
80,112,53382,2,0,B|48:152,2,29.9999991059304
72,152,53619,2,0,B|80:184,4,29.9999991059304
104,207,54013,6,0,B|145:208|180:230,1,80
240,282,54329,1,0,0:0:0
279,351,54487,1,0,0:0:0
349,313,54645,2,0,B|389:322|429:307,1,80
440,227,54961,1,0,0:0:0
498,172,55119,1,0,0:0:0
458,102,55277,2,0,B|396:47|309:54,1,160
239,92,55750,2,0,B|160:112|80:103,2,160
305,137,56540,1,0,0:0:0
167,219,56856,1,0,0:0:0
166,219,57013,2,0,B|166:299|185:377,2,160
174,138,57803,1,0,0:0:0
124,290,58119,1,0,0:0:0
280,257,58435,1,0,0:0:0
357,275,58592,1,0,0:0:0
420,226,58750,2,0,B|499:230,2,80
264,183,59382,1,0,0:0:0
302,331,59698,1,0,0:0:0
171,238,60013,1,0,0:0:0
171,238,60171,2,0,B|114:329|9:298|9:298|33:312|47:334,2,240
100,67,61435,1,0,0:0:0
100,67,61592,2,0,B|168:68|278:48,1,160
419,49,62224,2,0,B|404:143,1,80
372,201,62540,1,0,0:0:0
420,264,62698,1,0,0:0:0
420,264,62856,2,0,B|367:329|256:347,2,160
457,193,63645,2,0,B|495:173,2,40
372,201,63961,1,0,0:0:0
300,164,64119,2,0,B|203:189|119:172,1,160
273,266,64750,1,0,0:0:0
273,266,64908,2,0,B|188:299|96:299,1,160
193,324,65382,2,0,B|108:340|23:325,1,160
82,174,66013,2,0,B|84:96,1,80
160,120,66329,2,0,B|160:24,1,80
237,62,66645,2,0,B|328:103|430:73,1,160
463,41,67119,2,0,B|424:105|426:207,1,160
427,274,67592,1,0,0:0:0
374,334,67750,1,0,0:0:0
374,334,67908,2,0,B|299:356|199:343,2,160
296,311,68698,2,0,B|284:257|279:215,1,80
334,173,69013,2,0,B|219:219|91:208,1,240
172,175,69645,2,0,B|71:172|4:146,2,160
221,111,70435,2,0,B|280:84|392:76,1,160
456,77,70908,1,0,0:0:0
500,230,71224,1,0,0:0:0
377,332,71540,1,0,0:0:0
377,332,71698,2,0,B|295:344|211:330,1,160
77,253,72329,2,0,B|67:166,1,80
148,169,72645,2,0,B|144:80,1,80
215,50,72961,2,0,B|271:48,3,40
286,74,73277,2,0,B|336:72,3,40
361,54,73592,2,0,B|437:118|443:220|444:222,1,160
440,280,74066,1,0,0:0:0
440,280,74224,6,0,B|272:280,1,160
456,192,75487,2,0,B|456:152,2,40
503,81,76119,1,0,0:0:0
286,142,76750,6,0,B|257:185|179:189|142:151,1,160
367,73,78013,2,0,B|400:33|476:30|513:63,1,160
387,267,79277,6,0,B|324:372|188:371|124:265,1,320
256,64,81171,2,0,B|256:152,1,80
416,160,81803,6,0,B|360:216,1,80
391,282,82119,2,0,B|312:282,1,80
288,352,82435,2,0,B|232:296,1,80
165,327,82750,1,0,0:0:0
114,277,82908,2,0,B|64:200|112:104,1,160
188,38,83382,1,0,0:0:0
127,72,84329,6,0,B|216:56|303:61,1,160
366,70,84803,2,0,B|427:134|516:148,1,160
472,219,85277,1,0,0:0:0
497,294,85435,2,0,B|400:321|252:326,1,240
191,283,86066,2,0,B|121:237|38:236,1,160
114,205,86540,1,0,0:0:0
41,62,86856,2,0,B|133:52,1,80
193,86,87171,1,0,0:0:0
193,86,87329,2,0,B|268:98|356:90,1,160
431,76,87803,1,0,0:0:0
431,76,87961,2,0,B|476:196|407:316,1,240
484,340,88592,2,0,B|403:316|324:340,1,160
253,373,89066,1,0,0:0:0
103,315,89382,2,0,B|61:250|65:156,1,160
104,231,89856,2,0,B|93:156|115:62,1,160
139,147,90329,1,0,0:0:0
187,210,90487,2,0,B|239:276|323:310|403:312,1,240
476,303,91119,2,0,B|497:352,2,40
476,142,91592,1,0,0:0:0
427,78,91750,1,0,0:0:0
346,79,91908,2,0,B|253:84,1,80
209,26,92224,2,0,B|137:68,1,80
168,141,92540,2,0,B|163:224,1,80
102,274,92856,1,0,0:0:0
125,350,93013,1,0,0:0:0
204,339,93171,2,0,B|291:304|395:312,1,160
438,329,93645,1,0,0:0:0
410,171,93961,2,0,B|423:112,6,40
276,82,94750,1,0,0:0:0
276,82,94908,2,0,B|199:94|105:82,2,160
204,118,95698,2,0,B|191:182|203:278,1,160
221,355,96171,1,0,0:0:0
327,235,96487,1,0,0:0:0
327,235,96645,2,0,B|349:150|345:62,2,160
293,308,97435,1,0,0:0:0
197,296,97592,1,0,0:0:0
169,207,97750,2,0,B|112:192,4,40
172,46,98382,1,0,0:0:0
315,122,98698,1,0,0:0:0
468,76,99013,1,0,0:0:0
470,236,99329,1,0,0:0:0
97,88,100119,1,0,0:0:0
145,322,100592,1,0,0:0:0
145,322,100750,1,0,0:0:0
258,361,101066,1,0,0:0:0
364,305,101382,1,0,0:0:0
386,186,101698,1,0,0:0:0
313,90,102013,2,0,B|228:60|127:88,1,179.999994635582
79,108,102645,1,0,0:0:0
309,174,103277,2,0,B|352:204|444:212,1,119.999996423721
439,328,103908,1,0,0:0:0
322,358,104224,1,0,0:0:0
221,291,104540,1,0,0:0:0
221,291,104698,2,0,B|164:308|94:303,2,119.999996423721
289,192,105645,2,0,B|384:179|470:187,1,179.999994635582
376,109,106435,1,0,0:0:0
376,109,106592,2,0,B|401:73,6,29.9999991059304
200,144,109592,5,0,0:0:0
464,328,110224,2,0,B|400:344|336:328,2,120
424,256,110856,2,0,B|360:264|312:224|320:144,1,160
205,278,111487,2,0,B|205:374,1,80
119,272,111803,2,0,B|119:192,1,80
191,156,112119,6,0,B|183:92|223:44|303:52,1,160
338,107,112592,2,0,B|402:99|450:139|442:219,1,160
329,311,113224,2,0,B|153:311,1,160
88,312,113698,2,0,B|48:320|8:312,1,80
16,232,114013,1,0,0:0:0
72,175,114171,2,0,B|112:128,3,40
216,128,114645,6,0,B|296:168|376:128,2,160
72,56,115592,1,0,0:0:0
72,216,115908,2,0,B|64:256|72:312,1,80
152,304,116224,2,0,B|174:337|219:371,1,80
280,320,116540,2,0,B|320:368|376:368|424:320,1,160
352,176,117171,6,0,B|184:176,1,160
144,240,117645,2,0,B|72:224|72:144|144:104,2,160
216,96,118592,6,0,B|216:56,2,40
296,96,118908,1,0,0:0:0
368,128,119066,1,0,0:0:0
368,128,119145,1,0,0:0:0
368,128,119224,1,0,0:0:0
424,192,119382,2,0,B|432:232|424:288,1,80
352,304,119698,6,0,B|272:344|176:304,1,160
128,272,120171,1,0,0:0:0
112,192,120329,2,0,B|72:112|112:16,1,160
256,80,120961,2,0,B|296:72|336:80,1,80
392,144,121277,2,0,B|400:184|392:224,1,80
312,232,121592,6,0,B|232:272|136:232,1,160
270,126,122224,2,0,B|350:86|446:126,1,160
464,192,122698,1,0,0:0:0
440,272,122856,2,0,B|264:272,1,160
166,158,123487,6,0,B|126:110|70:110|26:153,1,160
26,234,123961,1,0,0:0:0
82,290,124119,2,0,B|122:338|178:338|221:294,1,160
376,336,124750,5,0,0:0:0
489,222,125066,1,0,0:0:0
375,108,125382,1,0,0:0:0
214,108,125698,1,0,0:0:0
101,220,126013,1,0,0:0:0
214,333,126329,1,0,0:0:0
374,333,126645,2,0,B|496:216,1,160
416,80,127277,5,0,0:0:0
365,141,127434,2,0,B|317:155,3,40
296,125,127750,2,0,B|246:126,3,40
230,94,128066,2,0,B|181:82,3,40
183,44,128382,6,0,B|155:77|111:73,1,80
256,216,128856,1,0,0:0:0
416,80,129171,5,0,0:0:0
410,290,129487,5,0,0:0:0
393,306,129645,1,0,0:0:0
376,322,129803,1,0,0:0:0
132,97,139908,6,0,B|248:104|382:77,1,239.999992847443
448,171,140856,2,0,B|458:243,1,59.9999982118607
433,286,141171,1,0,0:0:0
385,323,141329,1,0,0:0:0
326,309,141487,2,0,B|250:317,2,59.9999982118607
331,188,142119,1,0,0:0:0
291,142,142277,1,0,0:0:0
232,128,142435,2,0,B|170:152|100:130,1,119.999996423721
90,78,142908,2,0,B|86:148|44:212,1,119.999996423721
99,304,143540,1,0,0:0:0
155,322,143698,2,0,B|218:315,1,59.9999982118607
269,340,144013,2,0,B|342:331,1,59.9999982118607
383,357,144329,2,0,B|456:339|488:284,2,119.999996423721
256,192,145040,12,0,146856,0:0:0
284,103,147171,5,0,0:0:0
123,106,147487,2,0,B|114:196,1,80
73,254,147803,2,0,B|124:339,1,80
189,295,148119,2,0,B|272:296,1,80
315,361,148435,1,0,0:0:0
393,346,148592,1,0,0:0:0
449,196,148908,1,0,0:0:0
458,116,149066,1,0,0:0:0
389,75,149224,2,0,B|340:52,3,40
315,73,149540,2,0,B|256:84,4,40
92,109,150171,1,0,0:0:0
110,186,150329,1,0,0:0:0
256,192,150487,12,0,151277,0:0:0
232,256,151592,1,0,0:0:0
304,224,151750,2,0,B|344:144|304:56,1,160
392,72,152224,1,0,0:0:0
440,136,152382,2,0,B|496:160|536:216|528:288|448:344|424:312,1,240
379,251,153013,1,0,0:0:0
240,56,153487,1,0,0:0:0
183,112,153645,1,0,0:0:0
120,160,153803,6,0,B|16:160,1,80
108,228,154119,2,0,B|212:228,2,80
48,288,154592,2,0,B|104:360|208:320,1,160
264,288,155066,2,0,B|344:344|432:288,1,160
414,217,155540,2,0,B|326:209|286:121,1,160
224,64,156013,5,0,0:0:0
160,112,156171,1,0,0:0:0
96,160,156329,2,0,B|144:216|144:216|144:264|192:288,1,160
225,214,156803,2,0,B|289:190|329:246|329:246|377:238,1,160
432,184,157277,1,0,0:0:0
408,96,157435,2,0,B|328:112|264:32,1,160
192,64,157908,1,0,0:0:0
112,88,158066,2,0,B|88:120|24:144,1,80
208,152,158540,5,0,0:0:0
288,160,158698,1,0,0:0:0
288,160,158777,1,0,0:0:0
288,160,158856,2,0,B|328:248,1,80
264,289,159171,2,0,B|263:385,1,80
182,368,159487,2,0,B|112:328,1,80
112,247,159803,2,0,B|15:246,1,80
64,176,160119,2,0,B|120:192|160:136|160:136|224:136,1,160
264,80,160592,2,0,B|296:64|352:80,1,80
410,145,160908,6,0,B|442:177|514:169,2,80
272,344,161698,5,0,0:0:0
192,336,161856,2,0,B|112:360|32:264,1,160
96,128,162487,2,0,B|112:88|176:64,2,80
120,208,162961,1,0,0:0:0
192,168,163119,2,0,B|264:128|352:168,1,160
392,104,163592,5,0,0:0:0
346,165,163750,1,0,0:0:0
402,221,163908,2,0,B|376:296|274:317,1,160
201,315,164382,2,0,B|126:289|105:187,1,160
120,120,164856,1,0,0:0:0
200,112,165013,2,0,B|264:72|264:72|304:96|368:72,1,160
416,120,165487,2,0,B|464:96,2,40
384,280,165961,1,0,0:0:0
232,320,166277,6,0,B|184:288|128:336|72:320,1,160
64,240,166750,2,0,B|32:160,1,80
104,120,167066,2,0,B|137:40,1,80
216,48,167382,1,0,0:0:0
376,64,167698,6,0,B|400:144|304:224,1,160
136,320,168329,2,0,B|112:240|208:160,1,160
248,280,168961,6,0,B|392:280,2,119.999996423721
136,72,170224,2,0,B|16:72,1,119.999996423721
64,224,170856,6,0,B|96:304|200:328,1,160
336,288,171487,2,0,B|376:296|416:272,1,80
456,120,171961,2,0,B|424:40|320:16,1,160
337,101,172435,1,0,0:0:0
272,144,172592,2,0,B|112:216,1,160
72,272,173066,1,0,0:0:0
72,272,173145,1,0,0:0:0
72,272,173224,1,0,0:0:0
48,192,173382,6,0,B|104:128|80:32,1,160
200,152,174013,2,0,B|176:112|200:48,2,80
256,208,174487,2,0,B|376:328,1,160
424,168,175119,1,0,0:0:0
73,103,177803,6,0,B|256:92,1,160
386,46,178435,2,0,B|453:205,1,160
384,242,178908,1,0,0:0:0
431,306,179066,2,0,B|352:357|259:349,1,160
234,283,179540,1,0,0:0:0
189,216,179698,2,0,B|120:265|121:363,1,160
53,209,180329,2,0,B|77:48,1,160
237,56,180961,2,0,B|351:53,1,80
387,93,181277,1,0,0:0:0
434,157,181435,2,0,B|491:156,2,40
344,289,181908,1,0,0:0:0
185,314,182224,1,0,0:0:0
106,332,182382,2,0,B|99:373,2,40
77,256,182698,1,0,0:0:0
127,194,182856,2,0,B|185:133|165:25,1,160
328,47,183487,2,0,B|353:143,1,80
427,135,183803,2,0,B|449:217,1,80
502,271,184119,2,0,B|453:329|348:345,1,160
284,325,184592,1,0,0:0:0
264,247,184750,2,0,B|171:221|89:264,1,160
25,117,185382,2,0,B|71:104,7,40
100,122,186013,2,0,B|153:128,7,40
177,111,186645,2,0,B|221:100,7,40
253,115,187277,2,0,B|297:121,7,40
329,104,187908,1,0,0:0:0
435,223,188224,1,0,0:0:0
308,321,188540,2,0,B|217:325,1,80
165,274,188856,2,0,B|68:278,1,80
165,274,189171,2,0,B|116:200|165:112,2,160
227,325,189961,1,0,0:0:0
306,321,190119,1,0,0:0:0
358,260,190277,1,0,0:0:0
351,180,190435,2,0,B|325:94|407:26,1,160
351,180,191066,1,0,0:0:0
281,220,191224,1,0,0:0:0
207,189,191382,1,0,0:0:0
181,113,191540,2,0,B|179:72,2,40
98,249,192013,1,0,0:0:0
222,350,192329,1,0,0:0:0
369,288,192645,2,0,B|400:200|485:162,1,160
360,52,193277,2,0,B|282:51,1,80
221,105,193592,2,0,B|126:104,1,80
98,172,193908,2,0,B|-4:177,1,80
6,255,194224,2,0,B|100:249,1,80
134,314,194540,2,0,B|210:296,1,80
286,326,194856,2,0,B|372:273,1,80
431,303,195171,2,0,B|484:241,1,80
455,166,195487,1,0,0:0:0
476,89,195645,1,0,0:0:0
403,54,195803,2,0,B|302:45,1,80
264,102,196119,1,0,0:0:0
186,83,196277,1,0,0:0:0
114,119,196435,2,0,B|56:195,1,80
99,255,196750,1,0,0:0:0
81,333,196908,1,0,0:0:0
208,236,197224,2,0,B|214:285,2,40
242,163,197540,1,0,0:0:0
320,149,197698,1,0,0:0:0
380,201,197856,1,0,0:0:0
256,192,198013,12,0,203066,0:0:0
