osu file format v14

[General]
AudioFilename: Ververg Symphony.mp3
AudioLeadIn: 0
PreviewTime: 74914
Countdown: 0
SampleSet: Normal
StackLeniency: 0.7
Mode: 0
LetterboxInBreaks: 1
WidescreenStoryboard: 0

[Editor]
Bookmarks: 16063,28450,40838,56321,62515,74902,87289,99676
DistanceSpacing: 1.7
BeatDivisor: 4
GridSize: 4
TimelineZoom: 1

[Metadata]
Title:Ververg Symphony
TitleUnicode:Ververg Symphony
Artist:axsword
ArtistUnicode:axsword
Creator:Asonate
Version:Hard
Source:
Tags:Breakbeat Drum & Bass onoken ani feat b
BeatmapID:798531
BeatmapSetID:361652

[Difficulty]
HPDrainRate:4
CircleSize:3
OverallDifficulty:5
ApproachRate:7
SliderMultiplier:1.3
SliderTickRate:1

[Events]
//Background and Video events
0,0,"BG.jpg",0,0
//Break Periods
2,41050,43046
2,56146,58530
//Storyboard Layer 0 (Background)
//Storyboard Layer 1 (Fail)
//Storyboard Layer 2 (Pass)
//Storyboard Layer 3 (Foreground)
//Storyboard Sound Samples

[TimingPoints]
592,387.096774193548,4,2,0,30,1,0
592,-100,4,2,0,30,0,0
3688,-100,4,1,0,40,0,0
6882,-100,4,2,0,40,0,0
9882,-100,4,1,0,40,0,0
9979,-100,4,2,0,40,0,0
20721,-100,4,2,0,40,0,0
25366,-100,4,1,0,40,0,0
28462,-83.3333333333333,4,1,0,40,0,0
43946,-111.111111111111,4,1,0,40,0,0
68721,-100,4,1,0,40,0,0
74914,-76.9230769230769,4,1,0,40,0,1
99688,-76.9230769230769,4,1,0,40,0,0

[Colours]
Combo1 : 255,159,113
Combo2 : 179,255,255
Combo3 : 255,172,255
Combo4 : 160,255,160

[HitObjects]
436,128,592,5,4,0:0:0:0:
216,228,1172,5,0,0:0:0:0:
272,164,1366,1,0,0:0:0:0:
348,132,1559,1,0,0:0:0:0:
436,128,1753,1,0,0:0:0:0:
252,60,2140,5,0,0:0:0:0:
160,92,2333,1,0,0:0:0:0:
64,100,2527,2,0,P|76:140|100:168,1,65
184,184,2914,1,0,0:0:0:0:
248,260,3108,1,0,0:0:0:0:
328,312,3301,2,0,P|292:344|252:356,1,65
196,356,3688,5,4,0:0:0:0:
20,268,4075,2,0,L|88:280,1,65,8|0,0:0|0:0,0:0:0:0:
96,184,4462,2,0,L|164:196,1,65,8|0,0:0|0:0,0:0:0:0:
176,100,4850,2,0,L|244:112,1,65,8|0,0:0|0:0,0:0:0:0:
336,116,5237,6,0,P|332:76|300:40,1,65,8|0,0:0|0:0,0:0:0:0:
224,68,5624,2,0,L|152:92,1,65,8|0,0:0|0:0,0:0:0:0:
232,156,6011,2,0,L|160:180,1,65,8|0,0:0|0:0,0:0:0:0:
244,240,6398,2,0,L|172:264,1,65,8|0,0:0|0:0,0:0:0:0:
96,308,6785,6,0,P|208:356|272:300,1,195,4|0,0:0|0:0,0:0:0:0:
244,240,7559,2,0,L|152:192,1,97.5,8|0,0:0|0:0,0:0:0:0:
184,180,7946,2,0,L|276:132,1,97.5,8|0,0:0|0:0,0:0:0:0:
296,116,8333,2,0,L|188:84,1,97.5,8|0,0:0|0:0,0:0:0:0:
172,80,8721,2,0,L|264:44,1,97.5,8|0,0:0|0:0,0:0:0:0:
296,32,9108,1,4,0:0:0:0:
404,60,9495,2,0,P|392:108|356:148,1,97.5,8|0,0:0|0:0,0:0:0:0:
332,156,9882,6,0,L|352:264,2,97.5,4|0|0,0:0|0:0|0:0,0:0:0:0:
248,108,10656,2,0,L|204:204,2,97.5,4|0|0,0:0|0:0|0:0,0:0:0:0:
176,40,11430,2,0,L|80:104,2,97.5,4|0|0,0:0|0:0|0:0,0:0:0:0:
272,16,12204,1,4,0:0:0:0:
284,144,12591,1,8,0:0:0:0:
408,188,12979,6,0,L|448:216,7,32.5,8|0|0|0|0|0|0|0,0:0|0:0|0:0|0:0|0:0|0:0|0:0|0:0,0:0:0:0:
416,236,13753,2,0,L|440:284,7,32.5,8|0|0|0|0|0|0|0,0:0|0:0|0:0|0:0|0:0|0:0|0:0|0:0,0:0:0:0:
404,284,14527,2,0,L|408:328,7,32.5,8|0|0|0|0|0|0|0,0:0|0:0|0:0|0:0|0:0|0:0|0:0|0:0,0:0:0:0:
376,324,15301,2,0,L|368:356,7,32.5,8|0|0|0|0|0|0|0,0:0|0:0|0:0|0:0|0:0|0:0|0:0|0:0,0:0:0:0:
332,344,16075,5,4,0:0:0:0:
148,300,16462,1,0,0:0:0:0:
188,212,16656,1,0,0:0:0:0:
256,144,16850,1,8,0:0:0:0:
348,116,17043,1,0,0:0:0:0:
444,116,17237,1,0,0:0:0:0:
444,116,17624,5,4,0:0:0:0:
356,72,17817,1,0,0:0:0:0:
260,64,18011,1,0,0:0:0:0:
168,92,18204,1,0,0:0:0:0:
92,156,18398,1,8,0:0:0:0:
184,189,18591,1,0,0:0:0:0:
168,92,18785,1,0,0:0:0:0:
96,272,19172,5,4,0:0:0:0:
276,348,19559,1,0,0:0:0:0:
360,300,19753,1,0,0:0:0:0:
416,220,19946,1,8,0:0:0:0:
428,124,20140,1,0,0:0:0:0:
396,32,20333,1,0,0:0:0:0:
204,60,20721,5,4,0:0:0:0:
140,132,20914,1,0,0:0:0:0:
236,156,21108,1,0,0:0:0:0:
184,240,21301,1,0,0:0:0:0:
284,244,21495,2,0,B|324:256|352:244|352:244|372:268|372:268|408:260,1,130,8|0,0:0|0:0,0:0:0:0:
387,325,22269,6,0,L|403:249,1,65,4|0,2:0|2:0,2:0:0:0:
304,240,22656,2,0,L|288:164,1,65,8|0,0:0|0:0,0:0:0:0:
388,172,23043,2,0,L|404:96,1,65,8|0,0:0|0:0,0:0:0:0:
304,88,23430,2,0,L|288:12,1,65,8|0,0:0|0:0,0:0:0:0:
388,12,23817,5,4,0:0:0:0:
290,24,24011,1,0,0:0:0:0:
204,72,24204,1,0,0:0:0:0:
144,148,24398,1,0,0:0:0:0:
116,240,24591,1,8,0:0:0:0:
212,244,24785,1,0,0:0:0:0:
296,292,24979,1,4,0:0:0:0:
392,124,25366,6,0,P|348:104|268:100,1,130,4|0,0:0|0:0,0:0:0:0:
88,180,26140,2,0,P|116:240|172:276,1,130,8|0,0:0|0:0,0:0:0:0:
267,100,26914,5,4,0:0:0:0:
432,312,27688,5,4,0:0:0:0:
120,308,28462,6,0,P|104:256|128:148,1,155.999995239258,4|0,0:0|0:0,0:0:0:0:
280,92,29237,1,8,0:0:0:0:
376,236,29624,1,8,0:0:0:0:
304,284,29817,1,0,0:0:0:0:
220,308,30011,6,0,P|232:236|328:200,1,155.999995239258,4|0,0:0|0:0,0:0:0:0:
456,128,30785,1,8,0:0:0:0:
296,68,31172,1,8,0:0:0:0:
212,60,31366,1,0,0:0:0:0:
132,92,31559,6,0,L|104:168,1,77.999997619629,4|0,0:0|0:0,0:0:0:0:
188,184,31946,2,0,L|216:260,1,77.999997619629,8|0,0:0|0:0,0:0:0:0:
296,288,32333,2,0,L|322:214,1,77.999997619629,8|0,0:0|0:0,0:0:0:0:
408,196,32721,2,0,L|381:122,1,77.999997619629,8|0,0:0|0:0,0:0:0:0:
296,104,33108,5,4,0:0:0:0:
132,52,33495,1,4,0:0:0:0:
100,220,33882,2,0,P|136:272|192:288,2,116.999996429443,8|0|0,0:0|0:0|0:0,0:0:0:0:
184,200,34656,2,0,L|352:196,1,155.999995239258,4|0,0:0|0:0,0:0:0:0:
428,48,35430,1,8,0:0:0:0:
260,8,35817,1,8,0:0:0:0:
188,56,36011,1,0,0:0:0:0:
172,140,36204,6,0,P|196:200|284:240,1,155.999995239258,4|0,0:0|0:0,0:0:0:0:
416,144,36979,2,0,L|352:120,3,51.999998413086,8|0|0|0,0:0|0:0|0:0|0:0,0:0:0:0:
204,76,37753,5,4,0:0:0:0:
140,136,37946,1,0,0:0:0:0:
208,192,38140,1,4,0:0:0:0:
148,252,38333,1,0,0:0:0:0:
188,328,38527,2,0,L|292:340,1,77.999997619629
324,272,38914,2,0,L|416:228,1,77.999997619629
368,156,39301,5,4,0:0:0:0:
288,124,39495,1,4,0:0:0:0:
204,144,39688,1,4,0:0:0:0:
136,196,39882,1,4,0:0:0:0:
96,272,40075,2,0,L|88:320,7,38.9999988098145,4|0|0|0|0|0|0|0,0:0|0:0|0:0|0:0|0:0|0:0|0:0|0:0,0:0:0:0:
82,349,40850,5,4,0:0:0:0:
82,349,43946,6,0,B|116:340|144:308|144:308|184:324|184:324|200:296|248:280,1,175.499994644165,4|0,0:0|0:0,0:0:0:0:
296,232,44721,2,0,P|316:288|288:352,1,116.999996429443,8|0,0:0|0:0,0:0:0:0:
298,340,45495,6,0,P|336:364|384:360,2,87.7499973220826,4|0|0,0:0|0:0|0:0,0:0:0:0:
227,288,46269,1,8,0:0:0:0:
136,180,47043,6,0,B|164:152|212:144|212:144|236:144|236:128|236:128|260:132|256:116|256:116|296:104,1,175.499994644165,4|0,0:0|0:0,0:0:0:0:
368,92,47817,2,0,B|408:136|408:136|428:208,1,116.999996429443,8|0,0:0|0:0,0:0:0:0:
448,276,48398,1,0,0:0:0:0:
448,276,48591,6,0,P|400:288|368:284,1,58.4999982147217,4|0,0:0|0:0,0:0:0:0:
348,204,48979,2,0,L|288:176,1,58.4999982147217,0|4,0:0|0:0,0:0:0:0:
404,137,49366,2,0,L|360:81,1,58.4999982147217,0|4,0:0|0:0,0:0:0:0:
468,76,49753,1,4,0:0:0:0:
260,40,50140,6,0,B|232:84|188:88|188:88|136:64|80:88,1,175.499994644165,4|0,0:0|0:0,0:0:0:0:
60,156,50914,2,0,P|80:200|160:224,1,116.999996429443,8|0,0:0|0:0,0:0:0:0:
112,316,51688,6,0,B|143:331|195:307|195:307|224:268|276:272,1,175.499994644165,4|0,0:0|0:0,0:0:0:0:
356,292,52462,1,8,0:0:0:0:
356,292,53043,5,8,0:0:0:0:
384,208,53237,2,0,B|408:144|372:96|372:96|344:104|336:152,1,175.499994644165,4|0,0:0|0:0,0:0:0:0:
338,139,54011,1,8,0:0:0:0:
356,292,54398,1,0,0:0:0:0:
356,292,54785,6,0,P|312:296|236:272,1,116.999996429443,4|4,0:0|0:0,0:0:0:0:
176,216,55366,1,0,0:0:0:0:
208,136,55559,1,4,0:0:0:0:
288,96,55753,1,0,0:0:0:0:
376,108,55946,1,4,0:0:0:0:
256,192,59430,12,0,61753,0:0:0:0:
388,128,62527,5,4,0:0:0:0:
96,324,63301,5,4,0:0:0:0:
440,264,64075,5,4,0:0:0:0:
124,109,64850,5,4,0:0:0:0:
468,44,65624,6,0,P|428:76|384:92,1,87.7499973220826,4|0,0:0|0:0,0:0:0:0:
380,92,66011,1,8,0:0:0:0:
296,72,66204,1,0,0:0:0:0:
208,84,66398,1,8,0:0:0:0:
144,144,66591,1,0,0:0:0:0:
140,232,66785,2,0,L|240:212,1,87.7499973220826,8|0,0:0|0:0,0:0:0:0:
240,212,67172,5,4,0:0:0:0:
328,220,67366,1,0,0:0:0:0:
392,276,67559,1,8,0:0:0:0:
420,360,67753,1,0,0:0:0:0:
476,292,67946,1,0,0:0:0:0:
492,204,68140,1,0,0:0:0:0:
480,116,68333,1,4,0:0:0:0:
480,116,68721,6,0,L|344:156,1,130,4|0,0:0|0:0,0:0:0:0:
304,300,69495,1,8,0:0:0:0:
188,196,69882,1,0,0:0:0:0:
179,336,70269,2,0,L|315:296,1,130,4|0,0:0|0:0,0:0:0:0:
356,152,71043,1,8,0:0:0:0:
212,92,71430,1,0,0:0:0:0:
80,228,71817,6,0,L|156:204,1,65,4|0,0:0|0:0,0:0:0:0:
180,204,72108,1,0,0:0:0:0:
216,208,72204,1,4,0:0:0:0:
300,248,72398,1,0,0:0:0:0:
356,320,72591,2,0,L|280:344,1,65,4|0,0:0|0:0,0:0:0:0:
260,344,72882,1,0,0:0:0:0:
224,344,72979,1,4,0:0:0:0:
136,308,73172,1,0,0:0:0:0:
80,228,73366,6,0,L|84:176,3,32.5,4|0|0|0,0:0|0:0|0:0|0:0,0:0:0:0:
124,168,73753,2,0,L|148:112,3,32.5,4|0|0|0,0:0|0:0|0:0|0:0,0:0:0:0:
184,124,74140,2,0,L|212:92,3,32.5,4|0|0|0,0:0|0:0|0:0|0:0,0:0:0:0:
256,104,74527,2,0,P|304:104|356:128,1,97.5,4|0,0:0|0:0,0:0:0:0:
364,132,74914,6,0,L|288:208,1,84.4999961318971,4|0,0:0|0:0,0:0:0:0:
272,220,75204,1,0,0:0:0:0:
240,248,75301,2,0,B|200:288|152:280|152:280|116:296|96:332,2,168.999992263794,4|0|0,0:0|0:0|0:0,0:0:0:0:
212,168,76269,1,0,0:0:0:0:
136,128,76462,5,4,0:0:0:0:
52,124,76656,1,0,0:0:0:0:
52,124,76753,1,0,0:0:0:0:
52,124,76850,2,0,L|72:216,1,84.4999961318971
116,280,77237,1,8,0:0:0:0:
192,316,77430,1,0,0:0:0:0:
276,324,77624,2,0,P|332:312|368:280,1,84.4999961318971,8|0,0:0|0:0,0:0:0:0:
412,236,78011,6,0,P|444:208|496:204,2,84.4999961318971,4|0|0,0:0|0:0|0:0,0:0:0:0:
480,288,78591,1,0,0:0:0:0:
480,288,78785,2,0,P|496:212|404:152,1,168.999992263794,8|8,0:0|0:0,0:0:0:0:
116,280,79559,5,4,0:0:0:0:
200,268,79753,1,0,0:0:0:0:
272,224,79946,1,0,0:0:0:0:
312,152,80140,1,0,0:0:0:0:
312,152,80237,1,0,0:0:0:0:
312,152,80333,2,0,P|268:120|216:112,1,84.4999961318971,8|0,0:0|0:0,0:0:0:0:
220,112,80624,1,0,0:0:0:0:
200,112,80721,2,0,P|152:112|108:92,1,84.4999961318971,8|0,0:0|0:0,0:0:0:0:
40,64,81108,5,4,0:0:0:0:
40,148,81301,1,0,0:0:0:0:
68,228,81495,1,0,0:0:0:0:
116,296,81688,1,0,0:0:0:0:
188,340,81882,2,0,P|232:360|296:348,1,84.4999961318971,8|0,0:0|0:0,0:0:0:0:
332,304,82269,1,8,0:0:0:0:
272,248,82462,1,0,0:0:0:0:
232,236,82559,1,0,0:0:0:0:
188,240,82656,6,0,P|144:196|136:168,1,84.4999961318971
208,128,83043,1,0,0:0:0:0:
292,112,83237,1,0,0:0:0:0:
376,120,83430,1,8,0:0:0:0:
448,164,83624,1,0,0:0:0:0:
452,248,83817,2,0,L|400:324,1,84.4999961318971,8|0,0:0|0:0,0:0:0:0:
340,372,84204,6,0,P|268:372|236:348,1,84.4999961318971,4|0,0:0|0:0,0:0:0:0:
216,296,84591,1,0,0:0:0:0:
224,212,84785,1,0,0:0:0:0:
272,132,84979,2,0,P|320:132|364:164,1,84.4999961318971,8|0,0:0|0:0,0:0:0:0:
372,276,85366,2,0,P|324:276|280:244,1,84.4999961318971,8|0,0:0|0:0,0:0:0:0:
224,212,85753,6,0,L|180:228,1,42.2499980659486,4|0,0:0|0:0,0:0:0:0:
144,128,86333,6,0,L|97:132,1,42.2499980659486,4|0,0:0|0:0,0:0:0:0:
88,28,86914,6,0,L|41:19,1,42.2499980659486,4|0,0:0|0:0,0:0:0:0:
40,220,87301,5,4,0:0:0:0:
88,292,87495,2,0,L|188:304,1,84.4999961318971
256,284,87882,1,0,0:0:0:0:
324,232,88076,1,8,0:0:0:0:
340,148,88269,1,0,0:0:0:0:
316,68,88462,1,8,0:0:0:0:
136,80,88850,5,4,0:0:0:0:
136,168,89043,1,0,0:0:0:0:
180,244,89237,1,0,0:0:0:0:
256,284,89430,1,0,0:0:0:0:
340,280,89624,1,8,0:0:0:0:
412,236,89817,1,0,0:0:0:0:
448,160,90011,1,8,0:0:0:0:
300,80,90398,6,0,P|228:80|164:108,1,126.749994197846,4|0,0:0|0:0,0:0:0:0:
160,112,90785,1,0,0:0:0:0:
104,176,90979,1,0,0:0:0:0:
120,260,91172,2,0,P|192:260|256:232,1,126.749994197846,8|0,0:0|0:0,0:0:0:0:
260,228,91559,1,8,0:0:0:0:
384,112,91946,6,0,L|284:132,1,84.4999961318971,4|0,0:0|0:0,0:0:0:0:
216,132,92333,1,0,0:0:0:0:
140,96,92527,1,0,0:0:0:0:
92,28,92721,2,0,P|64:60|56:104,1,84.4999961318971,8|0,0:0|0:0,0:0:0:0:
80,184,93108,2,0,L|64:280,1,84.4999961318971,8|0,0:0|0:0,0:0:0:0:
104,344,93495,5,4,0:0:0:0:
272,316,93882,1,0,0:0:0:0:
240,152,94269,1,8,0:0:0:0:
384,240,94656,1,0,0:0:0:0:
216,240,95043,5,4,0:0:0:0:
92,124,95430,1,0,0:0:0:0:
116,292,95817,1,8,0:0:0:0:
192,140,96204,1,0,0:0:0:0:
308,264,96591,5,4,0:0:0:0:
384,232,96785,1,0,0:0:0:0:
432,160,96979,2,0,P|400:116|348:104,1,84.4999961318971,4|0,0:0|0:0,0:0:0:0:
248,84,97366,1,4,0:0:0:0:
172,120,97559,1,0,0:0:0:0:
120,188,97753,2,0,P|156:248|152:284,1,84.4999961318971,4|0,0:0|0:0,0:0:0:0:
140,344,98140,6,0,L|180:368,3,42.2499980659486,4|0|0|0,0:0|0:0|0:0|0:0,0:0:0:0:
192,328,98527,2,0,L|244:312,3,42.2499980659486,4|0|0|0,0:0|0:0|0:0|0:0,0:0:0:0:
212,276,98914,2,0,L|236:236,3,42.2499980659486,4|0|0|0,0:0|0:0|0:0|0:0,0:0:0:0:
192,224,99301,2,0,L|180:164,3,42.2499980659486,4|0|0|0,0:0|0:0|0:0|0:0,0:0:0:0:
144,196,99688,6,0,L|80:156,3,42.2499980659486,4|0|0|0,0:0|0:0|0:0|0:0,0:0:0:0:
232,136,100269,6,0,L|180:80,3,42.2499980659486,4|0|0|0,0:0|0:0|0:0|0:0,0:0:0:0:
316,76,100850,6,0,L|280:9,2,42.2499980659486,4|0|0,0:0|0:0|0:0,0:0:0:0:
388,124,101237,6,0,L|423:146,3,42.2499980659486,4|0|0|0,0:0|0:0|0:0|0:0,0:0:0:0:
304,192,101817,6,0,L|332:222,3,42.2499980659486,4|0|0|0,0:0|0:0|0:0|0:0,0:0:0:0:
224,268,102398,6,0,L|243:304,2,42.2499980659486,4|0|0,0:0|0:0|0:0,0:0:0:0:
