osu file format v14

[General]
AudioFilename: Ververg Symphony.mp3
AudioLeadIn: 0
PreviewTime: 74914
Countdown: 0
SampleSet: Normal
StackLeniency: 0.7
Mode: 0
LetterboxInBreaks: 1
WidescreenStoryboard: 0

[Editor]
Bookmarks: 16063,28450,40838,56321,62515,74902,87289,99676
DistanceSpacing: 1.3
BeatDivisor: 4
GridSize: 4
TimelineZoom: 1

[Metadata]
Title:Ververg Symphony
TitleUnicode:Ververg Symphony
Artist:axsword
ArtistUnicode:axsword
Creator:Asonate
Version:Easy
Source:
Tags:Breakbeat Drum & Bass onoken ani feat b
BeatmapID:794509
BeatmapSetID:361652

[Difficulty]
HPDrainRate:3
CircleSize:2
OverallDifficulty:2
ApproachRate:2
SliderMultiplier:0.7
SliderTickRate:1

[Events]
//Background and Video events
0,0,"BG.jpg",0,0
//Break Periods
2,792,2128
2,41050,42386
2,56333,60967
//Storyboard Layer 0 (Background)
//Storyboard Layer 1 (Fail)
//Storyboard Layer 2 (Pass)
//Storyboard Layer 3 (Foreground)
//Storyboard Sound Samples

[TimingPoints]
592,387.096774193548,4,2,0,30,1,0
592,-100,4,2,0,30,0,0
3688,-100,4,1,0,40,0,0
6882,-100,4,2,0,40,0,0
9882,-100,4,1,0,40,0,0
9979,-100,4,2,0,40,0,0
25366,-100,4,1,0,40,0,0
74914,-100,4,1,0,40,0,1
99688,-100,4,1,0,40,0,0

[Colours]
Combo1 : 255,159,113
Combo2 : 179,255,255
Combo3 : 255,172,255
Combo4 : 160,255,160

[HitObjects]
192,116,592,5,4,0:0:0:0:
192,116,3688,6,0,L|124:152,1,70,8|0,0:0|0:0,0:0:0:0:
188,220,4462,2,0,L|126:252,1,70,8|0,0:0|0:0,0:0:0:0:
188,320,5237,6,0,L|264:348,1,70,8|0,0:0|0:0,0:0:0:0:
276,256,6011,2,0,L|352:284,1,70,8|0,0:0|0:0,0:0:0:0:
380,368,6785,6,0,P|428:320|432:248,1,140,4|0,0:0|0:0,0:0:0:0:
364,192,7946,1,0,0:0:0:0:
284,236,8333,2,0,L|245:313,1,70
176,250,9108,2,0,L|208:188,1,70
136,124,9882,6,0,P|216:92|272:116,2,140,8|0|0,0:0|0:0|0:0,0:0:0:0:
44,136,11817,1,0,0:0:0:0:
100,208,12204,1,0,0:0:0:0:
8,220,12591,1,0,0:0:0:0:
64,292,12979,6,0,B|120:288|156:296|192:308|192:308|188:284|188:284|88:240|96:164|120:88|208:72|272:120,1,490,8|0,0:0|0:0,0:0:0:0:
208,188,16075,6,0,P|240:204|284:208,1,70,8|0,0:0|0:0,0:0:0:0:
348,156,16850,1,8,0:0:0:0:
400,80,17237,1,0,0:0:0:0:
444,160,17624,6,0,P|440:192|412:228,1,70,8|0,0:0|0:0,0:0:0:0:
356,288,18398,1,8,0:0:0:0:
276,328,18785,1,0,0:0:0:0:
212,264,19172,6,0,P|180:240|140:228,1,70,8|0,0:0|0:0,0:0:0:0:
136,324,19946,1,8,0:0:0:0:
56,284,20333,1,0,0:0:0:0:
72,192,20721,6,0,L|92:124,1,70,8|0,0:0|0:0,0:0:0:0:
156,60,21495,2,0,P|196:52|228:60,1,70,8|0,0:0|0:0,0:0:0:0:
284,128,22269,6,0,P|328:136|364:132,1,70,8|0,0:0|0:0,0:0:0:0:
444,124,23043,2,0,L|492:192,1,70,8|0,0:0|0:0,0:0:0:0:
412,240,23817,6,0,L|356:288,1,70,8|0,0:0|0:0,0:0:0:0:
280,240,24591,2,0,L|224:288,1,70,8|0,0:0|0:0,0:0:0:0:
140,252,25366,6,0,L|84:300,1,70,8|0,0:0|0:0,0:0:0:0:
20,236,26140,1,8,0:0:0:0:
68,156,26527,1,0,0:0:0:0:
56,64,26914,5,4,0:0:0:0:
224,132,27688,5,4,0:0:0:0:
316,288,28462,6,0,B|232:300|184:236|184:236|136:164|88:176|92:216|124:216,1,280,4|4,0:0|0:0,0:0:0:0:
288,168,30785,1,8,0:0:0:0:
392,316,31559,6,0,L|312:300,1,70,8|0,0:0|0:0,0:0:0:0:
308,212,32333,2,0,L|376:225,1,70,8|0,0:0|0:0,0:0:0:0:
364,136,33108,2,0,L|295:122,1,70,8|0,0:0|0:0,0:0:0:0:
284,32,33882,2,0,L|352:45,1,70,8|0,0:0|0:0,0:0:0:0:
364,136,34656,6,0,B|408:140|440:128|440:128|432:204|376:240|376:240|364:288|328:296,1,280,4|4,0:0|0:0,0:0:0:0:
216,155,36979,2,0,P|196:128|160:96,1,70,8|0,0:0|0:0,0:0:0:0:
88,56,37753,6,8,L|72:128,1,70
4,184,38527,2,8,L|20:256,1,70
104,288,39301,6,0,B|136:258|173:263|173:263|161:224|161:224|206:228|245:204|252:184,1,210,4|0,0:0|0:0,0:0:0:0:
312,132,40850,5,4,0:0:0:0:
324,304,43946,6,0,P|288:304|196:244,1,140,4|8,0:0|0:0,0:0:0:0:
148,124,45495,2,0,P|216:133|270:176,1,140,4|8,0:0|0:0,0:0:0:0:
372,272,47043,6,0,P|400:232|404:140,1,140,4|8,0:0|0:0,0:0:0:0:
270,176,48591,2,0,P|242:216|238:308,1,140,4|8,0:0|0:0,0:0:0:0:
102,335,50140,6,0,P|63:279|60:210,1,140,4|8,0:0|0:0,0:0:0:0:
164,103,51688,2,0,P|204:160|207:229,1,140,4|8,0:0|0:0,0:0:0:0:
348,344,53237,6,0,B|380:344|400:328|400:328|428:336|428:336|460:324|476:292,1,140,4|8,0:0|0:0,0:0:0:0:
409,235,54398,1,8,0:0:0:0:
317,247,54785,2,0,P|265:283|249:371,1,140,4|8,0:0|0:0,0:0:0:0:
79,301,62527,5,8,0:0:0:0:
60,120,63301,1,8,0:0:0:0:
236,160,64075,1,8,0:0:0:0:
400,76,64850,1,8,0:0:0:0:
295,231,65624,5,12,0:0:0:0:
236,160,66011,1,0,0:0:0:0:
144,135,66398,2,0,L|72:163,1,70,8|0,0:0|0:0,0:0:0:0:
116,244,67172,6,0,L|44:272,2,70,8|0|8,0:0|0:0|0:0,0:0:0:0:
204,216,68333,1,8,0:0:0:0:
292,236,68721,6,0,L|360:256,1,70,4|0,0:0|0:0,0:0:0:0:
380,168,69495,2,0,L|448:188,1,70,8|0,0:0|0:0,0:0:0:0:
448,96,70269,6,0,L|380:76,1,70,8|0,0:0|0:0,0:0:0:0:
300,120,71043,2,0,L|232:100,1,70,8|0,0:0|0:0,0:0:0:0:
164,40,71817,5,8,0:0:0:0:
144,128,72204,1,0,0:0:0:0:
64,184,72591,1,8,0:0:0:0:
152,228,72979,1,0,0:0:0:0:
228,180,73366,6,0,P|236:264|128:316,1,210,4|0,0:0|0:0,0:0:0:0:
56,268,74914,5,4,0:0:0:0:
48,176,75301,2,0,B|64:136|100:120|100:120|136:128|176:112,1,140,4|8,0:0|0:0,0:0:0:0:
228,176,76462,5,8,0:0:0:0:
312,216,76850,2,0,P|380:200|404:140,1,140,4|8,0:0|0:0,0:0:0:0:
352,64,78011,5,8,0:0:0:0:
264,44,78398,2,8,P|204:40|128:88,1,140,12|8,0:0|0:0,0:0:0:0:
84,152,79559,5,8,0:0:0:0:
136,228,79946,2,0,B|172:252|204:252|204:252|224:280|260:292,1,140,4|8,0:0|0:0,0:0:0:0:
284,204,81108,5,8,0:0:0:0:
355,147,81495,2,0,B|384:184|372:232|372:232|376:260|400:284,1,140,4|8,0:0|0:0,0:0:0:0:
464,220,82656,5,8,0:0:0:0:
452,128,83043,2,0,P|404:68|320:52,1,140,4|0,0:0|0:0,0:0:0:0:
256,68,84204,5,8,0:0:0:0:
166,50,84591,2,0,P|101:72|60:128,1,140,4|0,0:0|0:0,0:0:0:0:
140,176,85753,6,0,B|112:208|112:208|72:216|56:252,2,105,4|4|4,0:0|0:0|0:0,0:0:0:0:
228,152,87301,6,0,P|256:132|272:96,1,70,4|0,0:0|0:0,0:0:0:0:
220,24,88075,1,8,0:0:0:0:
132,56,88462,1,8,0:0:0:0:
92,136,88850,6,0,P|88:184|100:216,1,70
176,164,89624,1,8,0:0:0:0:
248,108,90011,1,8,0:0:0:0:
308,176,90398,6,0,P|316:216|300:256,1,70,4|0,0:0|0:0,0:0:0:0:
224,272,91172,1,8,0:0:0:0:
140,308,91559,1,8,0:0:0:0:
212,360,91946,6,0,L|284:368,1,70,4|0,0:0|0:0,0:0:0:0:
364,328,92721,1,8,0:0:0:0:
356,236,93108,1,8,0:0:0:0:
272,200,93495,6,0,L|236:124,1,70,4|0,0:0|0:0,0:0:0:0:
292,60,94269,2,0,P|316:80|332:124,1,70,4|0,0:0|0:0,0:0:0:0:
242,136,95043,6,0,L|148:108,1,70,4|0,0:0|0:0,0:0:0:0:
124,192,95817,2,0,L|206:216,1,70,4|0,0:0|0:0,0:0:0:0:
256,272,96591,5,4,0:0:0:0:
348,268,96979,1,8,0:0:0:0:
428,228,97366,1,8,0:0:0:0:
480,152,97753,1,8,0:0:0:0:
396,128,98140,6,0,B|316:116|264:64|264:64|244:104|268:124,1,210,4|0,0:0|0:0,0:0:0:0:
304,200,99688,6,0,P|296:276|260:308,2,105,4|4|4,0:0|0:0|0:0,0:0:0:0:
216,228,101237,2,0,B|182:237|136:248|84:212|76:156|76:156|124:160|120:204,1,245,4|0,0:0|0:0,0:0:0:0:
