osu file format v14

[General]
AudioFilename: Ververg Symphony.mp3
AudioLeadIn: 0
PreviewTime: 74914
Countdown: 0
SampleSet: Normal
StackLeniency: 0.7
Mode: 0
LetterboxInBreaks: 1
WidescreenStoryboard: 0

[Editor]
Bookmarks: 16063,16462,23817,28450,40838,56321,62515,74902,87289,99676
DistanceSpacing: 1.1
BeatDivisor: 4
GridSize: 4
TimelineZoom: 2.6

[Metadata]
Title:Ververg Symphony
TitleUnicode:Ververg Symphony
Artist:axsword
ArtistUnicode:axsword
Creator:Asonate
Version:Awakening
Source:
Tags:Breakbeat Drum & Bass onoken ani feat b
BeatmapID:812887
BeatmapSetID:361652

[Difficulty]
HPDrainRate:6.3
CircleSize:4.8
OverallDifficulty:9.5
ApproachRate:9.3
SliderMultiplier:2.1
SliderTickRate:1

[Events]
//Background and Video events
0,0,"BG.jpg",0,0
//Break Periods
2,41050,43392
2,56533,58876
//Storyboard Layer 0 (Background)
//Storyboard Layer 1 (Fail)
//Storyboard Layer 2 (Pass)
//Storyboard Layer 3 (Foreground)
//Storyboard Sound Samples

[TimingPoints]
592,387.096774193548,4,2,0,30,1,0
592,-100,4,2,0,30,0,0
3301,-133.333333333333,4,2,0,30,0,0
3688,-100,4,2,0,25,0,0
6011,-100,4,1,0,25,0,0
6591,-100,4,2,0,25,0,0
6785,-133.333333333333,4,1,0,25,0,0
6882,-133.333333333333,4,2,0,40,0,0
9882,-100,4,1,0,40,0,0
9979,-100,4,2,0,40,0,0
12204,-133.333333333333,4,2,0,40,0,0
12979,-100,4,2,0,30,0,0
16075,-90.9090909090909,4,2,0,40,0,0
24979,-133.333333333333,4,2,0,40,0,0
25366,-133.333333333333,4,1,0,40,0,0
28462,-200,4,1,0,40,0,0
29237,-83.3333333333333,4,1,0,40,0,0
30011,-200,4,1,0,40,0,0
30785,-83.3333333333333,4,1,0,40,0,0
34656,-200,4,1,0,40,0,0
35430,-83.3333333333333,4,1,0,40,0,0
36204,-200,4,1,0,40,0,0
37366,-200,4,1,0,40,0,0
43946,-111.111111111111,4,1,0,40,0,0
55946,-200,4,1,0,40,0,0
62527,-200,4,1,0,40,0,0
66011,-111.111111111111,4,1,0,40,0,0
68333,-111.111111111111,4,1,0,40,0,0
68382,-111.111111111111,4,2,0,5,0,0
68721,-100,4,1,0,40,0,0
74527,-200,4,1,0,40,0,0
74914,-66.6666666666667,4,1,0,40,0,1
99688,-66.6666666666667,4,1,0,40,0,0

[Colours]
Combo1 : 0,128,255
Combo2 : 179,255,255
Combo3 : 255,172,255
Combo4 : 160,255,160
Combo5 : 255,159,113
Combo6 : 255,0,0

[HitObjects]
112,144,592,6,0,B|140:116|188:120|188:120|232:148|284:128|304:72,1,210,4|0,0:0|0:0,0:0:0:0:
228,56,1172,1,0,0:0:0:0:
188,220,1366,1,0,0:0:0:0:
368,196,1559,1,0,0:0:0:0:
296,89,1753,1,0,0:0:0:0:
296,89,2140,5,0,0:0:0:0:
304,236,2333,1,0,0:0:0:0:
228,144,2527,1,0,0:0:0:0:
249,332,2720,1,0,0:0:0:0:
296,164,2914,1,0,0:0:0:0:
160,252,3107,1,0,0:0:0:0:
264,96,3301,2,0,P|312:68|384:100,1,118.125004506111,4|0,0:0|0:0,0:0:0:0:
323,143,3688,5,4,0:0:0:0:
279,170,3784,1,0,0:0:0:0:
228,164,3881,1,0,0:0:0:0:
193,126,3978,1,0,0:0:0:0:
190,75,4075,2,0,P|200:36|220:12,1,52.5,4|0,0:0|0:0,0:0:0:0:
347,96,4269,2,0,L|311:164,1,52.5
168,268,4462,2,0,L|204:200,1,52.5,4|0,0:0|0:0,0:0:0:0:
352,240,4656,2,0,P|342:279|322:303,1,52.5
196,348,4850,1,4,0:0:0:0:
144,348,4946,1,0,0:0:0:0:
100,320,5043,1,0,0:0:0:0:
84,268,5140,1,0,0:0:0:0:
88,216,5237,6,0,P|122:226|130:274,1,52.5,4|0,0:0|0:0,0:0:0:0:
48,364,5430,2,0,P|14:354|6:306,1,52.5
88,216,5624,2,0,P|124:200|152:200,1,52.5,4|0,0:0|0:0,0:0:0:0:
352,240,5817,2,0,P|316:256|288:256,1,52.5
168,132,6011,1,4,0:0:0:0:
328,32,6204,1,0,0:0:0:0:
224,332,6398,1,4,0:0:0:0:
360,296,6591,1,0,0:0:0:0:
404,248,6688,1,0,0:0:0:0:
424,184,6785,38,0,P|424:144|408:96,1,78.7500030040742,4|0,0:0|0:0,0:0:0:0:
352,68,7075,1,0,0:0:0:0:
352,68,7172,2,0,P|296:88|264:84,1,78.7500030040742
188,44,7559,1,8,0:0:0:0:
196,136,7753,1,0,0:0:0:0:
196,136,7850,1,0,0:0:0:0:
196,136,7946,2,0,P|172:184|136:208,1,78.7500030040742
56,220,8333,5,4,0:0:0:0:
88,304,8527,1,0,0:0:0:0:
88,304,8624,1,0,0:0:0:0:
88,304,8721,2,0,P|136:320|184:308,1,78.7500030040742
232,300,9011,1,0,0:0:0:0:
232,300,9108,2,0,P|276:268|304:180,1,118.125004506111,8|0,0:0|0:0,0:0:0:0:
352,164,9495,2,0,P|288:144|236:192,1,118.125004506111
302,211,9882,5,4,0:0:0:0:
104,84,10172,1,0,0:0:0:0:
160,312,10462,1,0,0:0:0:0:
216,172,10656,5,4,0:0:0:0:
356,360,10946,1,0,0:0:0:0:
364,124,11237,1,0,0:0:0:0:
216,172,11430,37,0,0:0:0:0:
48,336,11721,1,0,0:0:0:0:
88,100,12011,1,4,0:0:0:0:
200,56,12204,6,0,P|240:44|280:48,1,78.7500030040742,4|0,0:0|0:0,0:0:0:0:
344,168,12591,2,8,P|304:180|264:176,1,78.7500030040742,0|0,0:0|0:0,0:0:0:0:
432,68,12979,1,4,0:0:0:0:
470,102,13075,1,0,0:0:0:0:
489,151,13172,1,0,0:0:0:0:
485,202,13269,1,0,0:0:0:0:
458,247,13366,6,0,L|388:260,1,52.5,4|0,0:0|0:0,0:0:0:0:
292,177,13559,2,0,L|362:164,1,52.5
370,324,13753,5,4,0:0:0:0:
291,325,13849,1,0,0:0:0:0:
214,312,13946,1,0,0:0:0:0:
140,285,14043,1,0,0:0:0:0:
72,246,14140,37,4,0:0:0:0:
140,208,14237,1,0,0:0:0:0:
160,132,14333,1,0,0:0:0:0:
227,93,14430,1,0,0:0:0:0:
272,28,14527,6,0,L|220:12,1,52.5,4|0,0:0|0:0,0:0:0:0:
140,208,14721,2,0,L|200:196,1,52.5
370,324,14914,2,0,L|318:308,1,52.5,4|0,0:0|0:0,0:0:0:0:
404,112,15108,2,0,L|464:100,1,52.5
330,228,15301,5,4,0:0:0:0:
303,218,15397,1,0,0:0:0:0:
282,199,15494,1,0,0:0:0:0:
269,173,15591,1,0,0:0:0:0:
267,144,15688,1,4,0:0:0:0:
276,117,15784,1,0,0:0:0:0:
295,95,15881,1,0,0:0:0:0:
320,81,15978,1,0,0:0:0:0:
344,80,16075,38,0,L|455:127,1,115.50000352478,4|0,0:0|0:0,0:0:0:0:
432,324,16462,6,0,L|404:312,1,28.8750008811951,4|0,0:0|0:0,0:0:0:0:
247,244,16656,1,0,0:0:0:0:
431,125,16850,1,8,0:0:0:0:
199,111,17043,1,0,0:0:0:0:
355,280,17237,1,0,0:0:0:0:
355,280,17624,5,4,0:0:0:0:
307,66,17817,1,0,0:0:0:0:
196,218,18011,1,0,0:0:0:0:
466,119,18204,1,0,0:0:0:0:
196,53,18398,1,8,0:0:0:0:
417,236,18591,2,0,L|376:222,1,38.5000011749268,4|0,0:0|0:0,0:0:0:0:
172,152,18785,2,0,B|103:126|103:126|159:110,1,115.50000352478,4|0,0:0|0:0,0:0:0:0:
453,165,19172,54,0,P|496:248|464:300,1,115.50000352478,4|0,0:0|0:0,0:0:0:0:
208,332,19559,2,0,L|228:288,1,28.8750008811951,4|0,0:0|0:0,0:0:0:0:
300,128,19753,1,0,0:0:0:0:
120,216,19946,1,8,0:0:0:0:
352,224,20140,1,0,0:0:0:0:
164,56,20333,1,0,0:0:0:0:
164,56,20721,5,4,0:0:0:0:
360,168,20914,1,0,0:0:0:0:
148,184,21108,1,0,0:0:0:0:
368,48,21301,1,0,0:0:0:0:
312,312,21495,2,0,P|304:340|280:360,1,57.7500017623902,4|0,0:0|0:0,0:0:0:0:
152,256,21688,2,0,P|132:277|102:285,1,57.7500017623902,4|0,0:0|0:0,0:0:0:0:
80,120,21882,2,0,P|108:88|228:112,1,173.250005287171
300,120,22269,6,0,P|272:168|184:172,1,115.50000352478,4|0,0:0|0:0,0:0:0:0:
464,40,22656,2,0,L|448:80,1,28.8750008811951,4|0,0:0|0:0,0:0:0:0:
404,200,22850,1,0,0:0:0:0:
288,88,23043,1,8,0:0:0:0:
300,312,23237,1,0,0:0:0:0:
376,104,23430,1,0,0:0:0:0:
376,104,23817,5,4,0:0:0:0:
176,144,24011,1,0,0:0:0:0:
368,216,24204,1,0,0:0:0:0:
224,40,24398,1,0,0:0:0:0:
208,288,24591,1,8,0:0:0:0:
368,216,24785,2,0,L|404:200,1,28.8750008811951,4|0,0:0|0:0,0:0:0:0:
272,100,24979,2,0,L|148:148,1,118.125004506111,4|0,0:0|0:0,0:0:0:0:
88,152,25366,38,0,B|96:80|160:72|160:72|164:36|164:36|212:48|256:32,1,236.250009012223,4|0,0:0|0:0,0:0:0:0:
344,164,26140,2,0,B|316:208|256:224|256:224|248:252|304:260,1,157.500006008148,8|0,0:0|0:0,0:0:0:0:
120,292,26914,2,0,B|88:260|96:212|96:212|56:176|56:176|68:156|96:152|96:152|72:128|76:92,1,236.250009012223,4|0,0:0|0:0,0:0:0:0:
152,100,27591,1,0,0:0:0:0:
152,100,27688,1,8,0:0:0:0:
424,184,28075,1,0,0:0:0:0:
180,268,28462,5,4,0:0:0:0:
128,248,28558,1,0,0:0:0:0:
92,204,28656,2,0,L|68:208,1,13.125
84,152,28753,2,0,L|68:140,1,13.125
112,108,28850,2,0,L|100:88,1,13.125
252,88,29043,1,0,0:0:0:0:
128,248,29237,2,0,B|88:300|88:300|124:340|124:340|208:336,1,188.999994232178,8|0,0:0|0:0,0:0:0:0:
218,335,29624,1,0,0:0:0:0:
300,156,29817,1,0,0:0:0:0:
376,296,30011,5,4,0:0:0:0:
428,276,30107,1,0,0:0:0:0:
460,232,30204,2,0,L|480:224,1,13.125
456,176,30301,2,0,L|472:164,1,13.125
424,132,30398,2,0,L|432:120,1,13.125
376,296,30591,1,0,0:0:0:0:
380,100,30785,2,0,B|384:36|384:36|288:120,1,188.999994232178,8|0,0:0|0:0,0:0:0:0:
269,133,31172,1,0,0:0:0:0:
188,344,31366,1,0,0:0:0:0:
112,248,31559,5,4,0:0:0:0:
300,248,31753,1,0,0:0:0:0:
300,248,31850,1,0,0:0:0:0:
300,248,31946,1,0,0:0:0:0:
196,84,32140,1,0,0:0:0:0:
144,208,32333,1,8,0:0:0:0:
328,352,32527,2,0,B|300:352|288:328|288:328|264:336|264:336|252:304|200:292,1,125.999996154785
420,308,32914,2,0,B|406:308|400:296|400:296|388:300|388:300|382:284|356:278,1,62.9999980773926
211,220,33108,37,4,0:0:0:0:
464,132,33301,1,0,0:0:0:0:
476,156,33398,1,0,0:0:0:0:
480,180,33495,1,0,0:0:0:0:
236,297,33688,1,0,0:0:0:0:
220,260,33785,1,0,0:0:0:0:
211,220,33882,2,0,P|252:174|314:170,1,125.999996154785
236,297,34172,2,0,P|174:293|134:248,1,125.999996154785,8|0,0:0|0:0,0:0:0:0:
292,252,34462,2,0,L|372:264,1,62.9999980773926
444,176,34656,5,4,0:0:0:0:
464,124,34752,1,0,0:0:0:0:
444,72,34850,2,0,L|440:48,1,13.125
392,60,34946,2,0,L|376:52,1,13.125
348,92,35043,2,0,L|332:100,1,13.125
444,176,35237,1,0,0:0:0:0:
272,80,35430,2,0,B|208:48|208:48|144:108|144:108|217:144,1,188.999994232178,8|0,0:0|0:0,0:0:0:0:
193,132,35817,1,0,0:0:0:0:
384,332,36011,1,0,0:0:0:0:
212,348,36204,5,4,0:0:0:0:
160,328,36300,1,0,0:0:0:0:
120,292,36398,2,0,L|100:288,1,13.125
112,236,36495,2,0,L|100:220,1,13.125
140,188,36591,2,0,L|136:168,1,13.125
276,104,36785,1,0,0:0:0:0:
248,296,36979,37,4,0:0:0:0:
368,328,37108,5,4,0:0:0:0:
340,204,37237,69,4,0:0:0:0:
232,300,37366,38,0,P|168:312|140:304,1,78.75,4|0,0:0|0:0,0:0:0:0:
88,276,37753,5,4,0:0:0:0:
256,120,37946,1,0,0:0:0:0:
84,136,38140,1,4,0:0:0:0:
308,256,38333,1,0,0:0:0:0:
336,80,38527,1,4,0:0:0:0:
176,240,38721,1,0,0:0:0:0:
368,184,38914,1,4,0:0:0:0:
176,80,39108,1,0,0:0:0:0:
300,288,39301,37,4,0:0:0:0:
292,128,39495,1,0,0:0:0:0:
292,128,39591,1,0,0:0:0:0:
292,128,39688,1,4,0:0:0:0:
156,208,39882,1,0,0:0:0:0:
156,208,39979,1,0,0:0:0:0:
156,208,40075,5,4,0:0:0:0:
121,245,40171,1,0,0:0:0:0:
119,297,40268,1,0,0:0:0:0:
151,337,40365,1,0,0:0:0:0:
202,346,40462,1,4,0:0:0:0:
246,321,40558,1,0,0:0:0:0:
263,272,40655,1,0,0:0:0:0:
176,80,40850,1,4,0:0:0:0:
176,80,43946,6,0,B|188:104|216:112|216:112|216:144|232:160,1,94.499997116089,4|0,0:0|0:0,0:0:0:0:
292,176,44237,1,0,0:0:0:0:
292,176,44333,1,0,0:0:0:0:
368,232,44527,1,0,0:0:0:0:
387,190,44624,1,0,0:0:0:0:
378,144,44721,1,8,0:0:0:0:
216,124,44914,1,0,0:0:0:0:
197,166,45011,1,0,0:0:0:0:
206,212,45107,1,0,0:0:0:0:
300,56,45301,1,0,0:0:0:0:
300,56,45398,1,0,0:0:0:0:
300,56,45495,5,4,0:0:0:0:
156,56,45688,2,0,L|112:56,1,23.6249992790222
288,176,46075,1,0,0:0:0:0:
336,168,46172,1,0,0:0:0:0:
376,140,46269,1,8,0:0:0:0:
376,140,46656,37,0,0:0:0:0:
398,180,46752,1,0,0:0:0:0:
397,227,46849,1,0,0:0:0:0:
371,266,46946,1,0,0:0:0:0:
329,285,47043,6,0,P|256:276|228:232,1,94.499997116089,4|0,0:0|0:0,0:0:0:0:
232,192,47333,1,0,0:0:0:0:
278,185,47429,1,0,0:0:0:0:
318,161,47526,1,0,0:0:0:0:
346,123,47623,1,0,0:0:0:0:
356,78,47720,1,0,0:0:0:0:
347,32,47817,1,8,0:0:0:0:
193,108,48010,1,0,0:0:0:0:
201,156,48107,1,0,0:0:0:0:
232,192,48204,1,0,0:0:0:0:
356,78,48398,1,0,0:0:0:0:
164,288,48591,5,4,0:0:0:0:
332,176,48785,1,0,0:0:0:0:
380,168,48882,1,0,0:0:0:0:
428,160,48979,1,0,0:0:0:0:
260,92,49172,1,0,0:0:0:0:
344,260,49366,1,8,0:0:0:0:
356,78,49559,1,0,0:0:0:0:
172,216,49753,1,0,0:0:0:0:
124,224,49849,1,0,0:0:0:0:
80,204,49946,1,0,0:0:0:0:
64,160,50043,1,0,0:0:0:0:
68,112,50140,6,0,P|96:72|152:60,1,94.499997116089,4|0,0:0|0:0,0:0:0:0:
136,128,50430,1,0,0:0:0:0:
136,128,50527,1,0,0:0:0:0:
112,208,50721,1,0,0:0:0:0:
64,216,50817,1,0,0:0:0:0:
20,196,50914,1,8,0:0:0:0:
200,84,51108,1,0,0:0:0:0:
248,72,51204,1,0,0:0:0:0:
288,100,51301,1,0,0:0:0:0:
376,208,51495,1,0,0:0:0:0:
328,216,51591,1,0,0:0:0:0:
280,224,51688,38,0,B|196:236|196:236|216:204,1,94.499997116089,4|0,0:0|0:0,0:0:0:0:
232,164,51979,1,0,0:0:0:0:
276,148,52075,1,0,0:0:0:0:
320,132,52172,1,0,0:0:0:0:
364,116,52269,1,0,0:0:0:0:
408,100,52366,1,0,0:0:0:0:
452,80,52462,2,0,B|476:128|476:128|460:176,1,94.499997116089,8|0,0:0|0:0,0:0:0:0:
272,200,52850,2,0,P|236:192|216:176,1,47.2499985580445,4|0,0:0|0:0,0:0:0:0:
216,80,53043,2,0,P|252:88|272:104,1,47.2499985580445,4|0,0:0|0:0,0:0:0:0:
388,204,53237,6,0,P|392:256|360:296,1,94.499997116089,4|0,0:0|0:0,0:0:0:0:
296,280,53527,1,0,0:0:0:0:
296,280,53624,1,0,0:0:0:0:
224,216,53817,1,0,0:0:0:0:
220,168,53914,1,0,0:0:0:0:
256,136,54011,1,8,0:0:0:0:
296,280,54204,2,0,P|268:304|224:308,1,47.2499985580445
256,136,54591,1,0,0:0:0:0:
144,248,54785,6,0,P|92:256|56:224,1,94.499997116089,4|0,0:0|0:0,0:0:0:0:
60,160,55075,1,0,0:0:0:0:
60,160,55172,1,0,0:0:0:0:
248,76,55366,1,0,0:0:0:0:
72,48,55559,1,8,0:0:0:0:
300,200,55753,1,0,0:0:0:0:
124,236,55946,2,0,B|76:244|44:212|44:212|76:200,1,105,4|4,0:0|0:0,0:0:0:0:
256,192,59430,12,0,62333,0:0:0:0:
144,112,62527,5,4,0:0:0:0:
352,68,62721,2,0,P|380:112|388:184,1,105
256,328,63301,37,4,0:0:0:0:
122,163,63495,2,0,P|131:112|160:68,1,105
356,36,64075,5,4,0:0:0:0:
352,248,64269,2,0,P|304:296|256:292,1,105
108,168,64850,5,4,0:0:0:0:
308,112,65043,2,0,P|372:116|400:144,1,105
132,312,65624,6,0,P|112:292|108:240,1,78.75,4|0,0:0|0:0,0:0:0:0:
208,312,66011,38,0,P|200:344|184:364,1,47.2499985580445,4|0,0:0|0:0,0:0:0:0:
36,244,66204,2,0,P|44:212|64:184,1,47.2499985580445
208,312,66398,2,0,P|179:328|144:332,1,47.2499985580445,4|0,0:0|0:0,0:0:0:0:
120,128,66591,2,0,P|148:111|180:108,1,47.2499985580445
208,312,66785,1,4,0:0:0:0:
170,283,66881,1,0,0:0:0:0:
154,240,66978,1,0,0:0:0:0:
164,194,67075,1,0,0:0:0:0:
197,161,67172,6,0,P|236:144|252:144,1,47.2499985580445,4|0,0:0|0:0,0:0:0:0:
304,272,67366,2,0,P|269:247|261:233,1,47.2499985580445
344,124,67559,2,0,P|339:166|331:180,1,47.2499985580445,4|0,0:0|0:0,0:0:0:0:
197,161,67753,2,0,P|201:118|209:104,1,47.2499985580445
264,24,67946,1,4,0:0:0:0:
380,220,68140,1,0,0:0:0:0:
196,160,68333,2,0,L|160:148,6,23.6249992790222,4|0|0|0|0|0|0,0:0|0:0|0:0|0:0|0:0|0:0|0:0,0:0:0:0:
198,79,68721,5,4,0:0:0:0:
368,134,68914,1,0,0:0:0:0:
313,304,69108,1,0,0:0:0:0:
143,249,69301,1,0,0:0:0:0:
235,93,69495,5,4,0:0:0:0:
354,171,69688,1,0,0:0:0:0:
276,290,69882,1,0,0:0:0:0:
157,212,70075,1,0,0:0:0:0:
260,111,70269,37,4,0:0:0:0:
336,196,70462,1,0,0:0:0:0:
251,272,70656,1,0,0:0:0:0:
175,187,70849,1,0,0:0:0:0:
275,130,71043,5,4,0:0:0:0:
317,211,71236,1,0,0:0:0:0:
288,255,71333,1,0,0:0:0:0:
236,253,71430,1,0,0:0:0:0:
194,172,71623,1,0,0:0:0:0:
256,192,71817,5,4,0:0:0:0:
136,124,72011,1,0,0:0:0:0:
188,108,72108,1,0,0:0:0:0:
236,92,72204,1,4,0:0:0:0:
112,232,72398,1,0,0:0:0:0:
344,136,72591,1,4,0:0:0:0:
60,44,72785,1,0,0:0:0:0:
132,44,72882,1,0,0:0:0:0:
204,44,72979,1,4,0:0:0:0:
16,260,73172,1,0,0:0:0:0:
272,264,73366,5,4,0:0:0:0:
352,252,73462,1,0,0:0:0:0:
416,216,73559,1,0,0:0:0:0:
444,152,73656,1,0,0:0:0:0:
432,88,73753,1,4,0:0:0:0:
392,48,73850,1,0,0:0:0:0:
340,44,73946,1,0,0:0:0:0:
312,80,74043,1,0,0:0:0:0:
320,120,74140,1,4,0:0:0:0:
348,144,74237,1,0,0:0:0:0:
380,140,74333,1,0,0:0:0:0:
392,116,74430,1,0,0:0:0:0:
388,108,74527,70,0,P|352:96|340:136,1,78.75,4|0,0:0|0:0,0:0:0:0:
444,152,74914,22,0,P|460:112|448:72,1,78.7500030040742,4|0,0:0|0:0,0:0:0:0:
388,108,75108,1,0,0:0:0:0:
348,144,75204,1,0,0:0:0:0:
336,196,75301,1,4,0:0:0:0:
364,240,75397,1,0,0:0:0:0:
416,256,75494,1,0,0:0:0:0:
468,236,75591,1,0,0:0:0:0:
488,180,75688,1,4,0:0:0:0:
472,116,75784,1,0,0:0:0:0:
412,76,75881,1,0,0:0:0:0:
336,72,75978,1,0,0:0:0:0:
268,104,76075,1,4,0:0:0:0:
212,152,76171,1,0,0:0:0:0:
148,188,76268,1,0,0:0:0:0:
72,180,76365,1,0,0:0:0:0:
32,120,76462,6,0,P|38:84|74:36,1,78.7500030040742,4|0,0:0|0:0,0:0:0:0:
152,312,76656,1,0,0:0:0:0:
164,328,76753,1,0,0:0:0:0:
184,344,76850,1,4,0:0:0:0:
220,360,76946,1,0,0:0:0:0:
260,360,77043,1,0,0:0:0:0:
304,336,77140,1,0,0:0:0:0:
336,284,77237,1,4,0:0:0:0:
344,216,77333,1,0,0:0:0:0:
328,144,77430,1,0,0:0:0:0:
288,80,77527,1,0,0:0:0:0:
220,44,77624,2,0,P|212:88|236:136,1,78.7500030040742,4|0,0:0|0:0,0:0:0:0:
344,216,77817,1,0,0:0:0:0:
400,160,77914,1,0,0:0:0:0:
366,87,78011,70,0,L|278:79,1,78.7500030040742,4|0,0:0|0:0,0:0:0:0:
160,160,78204,1,0,0:0:0:0:
160,160,78301,1,0,0:0:0:0:
160,160,78398,2,0,L|248:168,1,78.7500030040742,4|0,0:0|0:0,0:0:0:0:
348,220,78591,1,0,0:0:0:0:
324,264,78688,1,0,0:0:0:0:
280,296,78785,1,4,0:0:0:0:
212,300,78881,1,0,0:0:0:0:
156,256,78978,1,0,0:0:0:0:
140,184,79075,1,0,0:0:0:0:
172,116,79172,1,4,0:0:0:0:
232,72,79268,1,0,0:0:0:0:
300,60,79365,1,0,0:0:0:0:
364,68,79462,1,0,0:0:0:0:
416,100,79559,6,0,P|452:145|460:177,1,78.7500030040742,4|0,0:0|0:0,0:0:0:0:
324,264,79753,1,0,0:0:0:0:
296,256,79850,1,0,0:0:0:0:
260,240,79946,1,4,0:0:0:0:
224,212,80043,1,0,0:0:0:0:
196,176,80140,1,0,0:0:0:0:
184,128,80237,1,0,0:0:0:0:
192,76,80333,1,4,0:0:0:0:
128,88,80430,1,0,0:0:0:0:
76,132,80527,1,0,0:0:0:0:
56,196,80624,1,0,0:0:0:0:
72,264,80721,1,4,0:0:0:0:
128,328,80817,1,0,0:0:0:0:
204,360,80914,1,0,0:0:0:0:
288,364,81011,1,0,0:0:0:0:
372,352,81108,70,0,P|404:328|420:256,1,78.7500030040742,4|0,0:0|0:0,0:0:0:0:
388,140,81301,1,0,0:0:0:0:
364,128,81398,1,0,0:0:0:0:
332,132,81495,1,4,0:0:0:0:
304,152,81591,1,0,0:0:0:0:
292,188,81688,1,0,0:0:0:0:
308,224,81785,1,0,0:0:0:0:
348,236,81882,1,4,0:0:0:0:
388,216,81979,1,0,0:0:0:0:
408,172,82075,1,0,0:0:0:0:
400,108,82172,1,0,0:0:0:0:
360,56,82269,1,4,0:0:0:0:
304,24,82366,1,0,0:0:0:0:
236,12,82462,1,0,0:0:0:0:
164,20,82559,1,0,0:0:0:0:
96,48,82656,6,0,P|48:80|20:120,1,78.7500030040742,4|0,0:0|0:0,0:0:0:0:
168,204,82850,1,0,0:0:0:0:
192,208,82946,1,0,0:0:0:0:
224,208,83043,1,4,0:0:0:0:
256,200,83140,1,0,0:0:0:0:
284,184,83237,1,0,0:0:0:0:
304,152,83333,1,0,0:0:0:0:
304,108,83430,1,4,0:0:0:0:
280,68,83527,1,0,0:0:0:0:
236,44,83624,1,0,0:0:0:0:
168,44,83721,1,0,0:0:0:0:
104,72,83817,1,4,0:0:0:0:
56,128,83914,1,0,0:0:0:0:
32,200,84011,1,0,0:0:0:0:
28,280,84108,1,0,0:0:0:0:
48,332,84204,69,4,0:0:0:0:
80,364,84301,1,0,0:0:0:0:
116,376,84398,1,0,0:0:0:0:
148,376,84495,1,0,0:0:0:0:
176,368,84591,1,4,0:0:0:0:
192,352,84688,1,0,0:0:0:0:
196,332,84785,1,4,0:0:0:0:
192,320,84882,1,0,0:0:0:0:
184,312,84979,1,4,0:0:0:0:
172,304,85075,1,0,0:0:0:0:
160,304,85172,1,4,0:0:0:0:
152,304,85269,1,0,0:0:0:0:
144,308,85366,2,0,P|152:344|192:264,1,236.250009012223,4|0,0:0|0:0,0:0:0:0:
148,232,85753,5,4,0:0:0:0:
219,249,85850,1,0,0:0:0:0:
151,223,85946,1,0,0:0:0:0:
215,257,86043,1,0,0:0:0:0:
412,67,86333,69,4,0:0:0:0:
346,91,86430,1,0,0:0:0:0:
414,76,86527,1,0,0:0:0:0:
344,82,86624,1,0,0:0:0:0:
100,244,86914,5,4,0:0:0:0:
121,175,87011,1,0,0:0:0:0:
88,240,87108,1,0,0:0:0:0:
360,252,87301,70,0,P|392:220|404:172,1,78.7500030040742,4|0,0:0|0:0,0:0:0:0:
312,172,87495,1,0,0:0:0:0:
287,211,87591,1,0,0:0:0:0:
248,238,87688,1,4,0:0:0:0:
202,247,87785,1,0,0:0:0:0:
156,237,87882,1,0,0:0:0:0:
118,210,87978,1,0,0:0:0:0:
94,170,88075,1,4,0:0:0:0:
148,166,88171,1,0,0:0:0:0:
201,149,88268,1,0,0:0:0:0:
247,120,88365,1,0,0:0:0:0:
286,80,88462,1,4,0:0:0:0:
350,56,88558,1,0,0:0:0:0:
409,90,88655,1,0,0:0:0:0:
420,158,88752,1,0,0:0:0:0:
374,209,88850,6,0,P|312:224|280:192,1,78.7500030040742,4|0,0:0|0:0,0:0:0:0:
409,90,89043,1,0,0:0:0:0:
432,104,89140,1,0,0:0:0:0:
452,132,89237,1,4,0:0:0:0:
464,168,89333,1,0,0:0:0:0:
464,208,89430,1,0,0:0:0:0:
452,248,89527,1,0,0:0:0:0:
424,280,89624,1,4,0:0:0:0:
384,300,89721,1,0,0:0:0:0:
336,296,89817,1,0,0:0:0:0:
292,276,89914,1,0,0:0:0:0:
256,240,90011,1,4,0:0:0:0:
212,208,90108,1,0,0:0:0:0:
152,188,90204,1,0,0:0:0:0:
84,200,90301,1,0,0:0:0:0:
32,248,90398,70,0,P|20:288|56:316,1,78.7500030040742,4|0,0:0|0:0,0:0:0:0:
212,208,90591,1,0,0:0:0:0:
200,168,90688,1,0,0:0:0:0:
176,132,90785,1,4,0:0:0:0:
132,112,90882,1,0,0:0:0:0:
80,120,90979,1,0,0:0:0:0:
44,164,91075,1,0,0:0:0:0:
36,228,91172,1,4,0:0:0:0:
68,292,91269,1,0,0:0:0:0:
132,328,91366,1,0,0:0:0:0:
208,328,91462,1,0,0:0:0:0:
284,308,91559,1,4,0:0:0:0:
352,264,91656,1,0,0:0:0:0:
400,196,91753,1,0,0:0:0:0:
428,120,91850,1,0,0:0:0:0:
432,40,91946,6,0,L|312:64,1,78.7500030040742,4|0,0:0|0:0,0:0:0:0:
192,84,92140,2,0,L|72:108,1,78.7500030040742,0|0,0:0|0:0,0:0:0:0:
152,252,92333,2,0,L|272:228,1,78.7500030040742,4|0,0:0|0:0,0:0:0:0:
384,204,92527,2,0,L|504:180,1,78.7500030040742,0|0,0:0|0:0,0:0:0:0:
412,344,92721,1,4,0:0:0:0:
334,335,92817,1,0,0:0:0:0:
271,290,92914,1,0,0:0:0:0:
237,220,93011,1,0,0:0:0:0:
241,142,93108,1,4,0:0:0:0:
171,110,93204,1,0,0:0:0:0:
99,137,93301,1,0,0:0:0:0:
66,206,93398,1,0,0:0:0:0:
91,279,93495,2,0,P|144:304|200:280,1,78.7500030040742,4|0,0:0|0:0,0:0:0:0:
384,204,93688,69,0,0:0:0:0:
352,132,93785,1,0,0:0:0:0:
284,92,93882,2,0,P|212:92|176:120,1,78.7500030040742,4|0,0:0|0:0,0:0:0:0:
200,336,94075,5,0,0:0:0:0:
276,348,94172,1,0,0:0:0:0:
352,344,94269,2,0,P|392:324|416:280,1,78.7500030040742,4|0,0:0|0:0,0:0:0:0:
200,136,94462,69,0,0:0:0:0:
136,168,94559,1,0,0:0:0:0:
88,220,94656,2,0,P|64:272|68:308,1,78.7500030040742,4|0,0:0|0:0,0:0:0:0:
308,256,94850,5,0,0:0:0:0:
336,196,94946,1,0,0:0:0:0:
352,132,95043,2,0,P|336:76|292:44,1,78.7500030040742,4|0,0:0|0:0,0:0:0:0:
52,104,95237,69,0,0:0:0:0:
52,168,95333,1,0,0:0:0:0:
88,220,95430,2,0,P|132:248|172:240,1,78.7500030040742,4|0,0:0|0:0,0:0:0:0:
312,124,95624,5,0,0:0:0:0:
268,84,95721,1,0,0:0:0:0:
216,60,95817,2,0,P|164:56|108:72,1,78.7500030040742,4|0,0:0|0:0,0:0:0:0:
388,184,96011,69,0,0:0:0:0:
408,132,96108,1,0,0:0:0:0:
408,80,96204,2,0,P|388:40|340:4,1,78.7500030040742,4|0,0:0|0:0,0:0:0:0:
112,284,96398,1,0,0:0:0:0:
84,312,96495,1,0,0:0:0:0:
56,340,96591,5,4,0:0:0:0:
276,212,96785,1,8,0:0:0:0:
204,176,96882,1,0,0:0:0:0:
132,140,96979,1,4,0:0:0:0:
308,348,97172,1,8,0:0:0:0:
64,208,97366,1,4,0:0:0:0:
408,132,97559,1,8,0:0:0:0:
324,104,97656,1,0,0:0:0:0:
240,76,97753,1,4,0:0:0:0:
440,224,97946,1,8,0:0:0:0:
244,336,98140,69,4,0:0:0:0:
184,352,98236,1,0,0:0:0:0:
122,347,98333,1,0,0:0:0:0:
68,315,98430,1,0,0:0:0:0:
36,262,98527,1,4,0:0:0:0:
34,199,98623,1,0,0:0:0:0:
63,144,98720,1,0,0:0:0:0:
115,109,98817,1,0,0:0:0:0:
176,92,98914,1,4,0:0:0:0:
246,92,99010,1,0,0:0:0:0:
314,112,99107,1,0,0:0:0:0:
374,149,99204,1,0,0:0:0:0:
424,204,99301,2,0,P|436:288|304:272,1,236.250009012223,4|0,0:0|0:0,0:0:0:0:
276,232,99688,5,4,0:0:0:0:
296,302,99785,1,0,0:0:0:0:
268,236,99882,1,0,0:0:0:0:
305,299,99979,1,0,0:0:0:0:
467,46,100269,69,4,0:0:0:0:
392,77,100366,1,0,0:0:0:0:
469,56,100462,1,0,0:0:0:0:
389,66,100559,1,0,0:0:0:0:
111,134,100850,5,4,0:0:0:0:
188,173,100946,1,0,0:0:0:0:
120,120,101043,1,0,0:0:0:0:
143,308,101237,69,4,0:0:0:0:
232,343,101333,1,0,0:0:0:0:
148,297,101430,1,0,0:0:0:0:
226,353,101527,1,0,0:0:0:0:
439,166,101817,5,4,0:0:0:0:
348,113,101914,1,0,0:0:0:0:
430,177,102011,1,0,0:0:0:0:
356,101,102108,1,0,0:0:0:0:
100,238,102398,69,4,0:0:0:0:
154,147,102495,1,0,0:0:0:0:
132,249,102591,1,0,0:0:0:0:
