osu file format v9

[General]
AudioFilename: SCIENCE POP.mp3
AudioLeadIn: 0
PreviewTime: 73643
Countdown: 0
SampleSet: Soft
StackLeniency: 0.7
Mode: 0
LetterboxInBreaks: 1

[Editor]
DistanceSpacing: 0.7
BeatDivisor: 4
GridSize: 4

[Metadata]
Title:Koiwa Dou? Moro Hadou OK * Houteishiki!!
Artist:ave;new project feat. Sakura Saori
Creator:cRyo[iceeicee]
Version:Insane
Source:pop'n music
Tags:20 fantasia TOMOSUKE SCIENCE POP root chodouken

[Difficulty]
HPDrainRate:7
CircleSize:4
OverallDifficulty:8
ApproachRate:9
SliderMultiplier:1.89999990463257
SliderTickRate:1

[Events]
//Background and Video events
0,0,"bg.jpg"
//Break Periods
//Storyboard Layer 0 (Background)
//Storyboard Layer 1 (Fail)
//Storyboard Layer 2 (Pass)
//Storyboard Layer 3 (Foreground)
//Storyboard Sound Samples
//Background Colour Transformations
3,100,163,162,255

[TimingPoints]
1925,234.375,4,2,1,65,1,0
5557,-100,4,2,2,65,0,0
6143,-100,4,1,1,45,0,0
6788,-100,4,2,2,65,0,0
7550,-100,4,1,1,65,0,0
8018,-133.333333333333,4,2,2,65,0,0
8780,-133.333333333333,4,1,1,65,0,0
9425,-100,4,1,2,55,0,0
10538,-100,4,2,1,55,0,0
10655,-100,4,1,2,55,0,0
10772,-100,4,2,2,65,0,0
11007,-100,4,2,2,65,0,0
11124,-100,4,1,2,55,0,0
12882,-100,4,2,2,65,0,0
12999,-100,4,1,2,55,0,0
14991,-100,4,2,2,65,0,0
15108,-100,4,1,2,55,0,0
15870,-66.6666666666667,4,1,1,65,0,0
16925,-100,4,1,2,55,0,0
20147,-100,4,2,0,65,0,0
20557,-100,4,1,2,65,0,0
22139,-100,4,2,2,60,0,0
22257,-100,4,2,0,65,0,0
22374,-100,4,2,2,60,0,0
22491,-100,4,1,2,55,0,0
23370,-66.6666666666667,4,1,1,65,0,0
25596,-100,4,1,0,45,0,0
26241,-100,4,2,2,65,0,0
27764,-100,4,2,2,65,0,0
29522,-83.3333333333333,4,2,2,65,0,0
31866,-76.9230769230769,4,1,0,45,0,0
32686,-76.9230769230769,4,2,2,65,0,0
32921,-76.9230769230769,4,1,0,45,0,0
33975,-100,4,2,2,65,0,0
37550,-100,4,2,0,65,0,0
37667,-100,4,2,2,65,0,0
38311,-100,4,2,2,55,0,0
38428,-100,4,2,2,65,0,0
39346,-100,4,2,1,65,0,0
39503,-100,4,2,2,65,0,0
40831,-100,4,2,2,65,0,0
41300,-100,4,2,2,65,0,0
45811,-100,4,2,2,55,0,0
45928,-100,4,2,2,65,0,0
46778,-100,4,2,2,55,0,0
46878,-100,4,2,2,65,0,0
48741,-100,4,2,1,65,0,0
48858,-100,4,2,2,65,0,0
52550,-66.6666666666667,4,2,1,75,0,0
52784,-100,4,2,2,65,0,0
54425,-76.9230769230769,4,1,0,55,0,0
55362,-100,4,1,0,55,0,0
55831,-76.9230769230769,4,1,0,55,0,0
56300,-100,4,2,2,65,0,0
63096,-100,4,1,0,55,0,0
63331,-66.6666666666667,4,1,0,55,0,0
63800,-100,4,2,2,55,0,0
65675,-133.333333333333,4,2,1,45,0,0
65733,-133.333333333333,4,2,1,45,0,0
65833,-133.333333333333,4,2,1,45,0,0
67315,-133.333333333333,4,1,0,35,0,0
67550,-90.9090909090909,4,2,1,65,0,0
71241,-90.9090909090909,4,2,2,55,0,0
73175,-90.9090909090909,4,1,0,55,0,0
73643,-90.9090909090909,4,2,2,65,0,0
75050,-100,4,1,2,55,0,0
76163,-100,4,2,1,55,0,0
76280,-100,4,1,2,55,0,0
76397,-100,4,2,2,65,0,0
76632,-100,4,2,2,65,0,0
76749,-100,4,1,2,55,0,0
78507,-100,4,2,2,65,0,0
78624,-100,4,1,2,55,0,0
80616,-100,4,1,2,55,0,0
81495,-66.6666666666667,4,1,2,55,0,0
82550,-100,4,1,2,55,0,0
86007,-100,4,2,2,65,0,0
86124,-100,4,1,2,55,0,0
87882,-100,4,2,2,65,0,0
87999,-100,4,1,2,55,0,0
88995,-76.9230769230769,4,1,2,55,0,0
89991,-100,4,1,2,55,0,0
91280,-100,4,2,2,65,0,0
91866,-100,4,1,2,55,0,0
93331,-133.333333333333,4,2,2,55,0,0
93800,-100,4,1,2,55,0,0
95440,-66.6666666666667,4,2,2,65,0,0
95557,-66.6666666666667,4,1,2,55,0,0
95616,-100,4,1,2,55,0,0
97257,-66.6666666666667,4,2,2,65,0,0
97374,-66.6666666666667,4,1,2,55,0,0
97491,-100,4,1,2,55,0,0
99132,-66.6666666666667,4,2,2,65,0,0
99249,-66.6666666666667,4,1,2,55,0,0
99366,-100,4,1,2,55,0,0
100772,-66.6666666666667,4,2,2,65,0,0
100889,-66.6666666666667,4,1,2,55,0,0
101300,-100,4,1,2,55,0,0
102882,-66.6666666666667,4,2,2,65,0,0
102999,-66.6666666666667,4,1,2,55,0,0
103116,-100,4,1,2,55,0,0
104757,-66.6666666666667,4,2,2,65,0,0
104874,-66.6666666666667,4,1,2,55,0,0
104991,-100,4,1,2,55,0,0
106632,-66.6666666666667,4,2,2,65,0,0
106749,-66.6666666666667,4,1,2,55,0,0
106866,-100,4,1,2,55,0,0
108741,-100,4,2,2,65,0,0
109092,-100,4,1,2,55,0,0
109503,-100,4,2,1,55,0,0
109561,-100,4,1,2,55,0,0
111612,-100,4,2,2,45,0,0

[Colours]
Combo1 : 255,89,255
Combo2 : 255,149,43
Combo3 : 141,141,199

[HitObjects]
120,244,3800,1,4
48,196,3917,1,0
80,116,4034,1,2
164,116,4151,1,0
192,196,4268,2,0,B|240:204|288:184,1,94.9999952316285,2|0
372,92,4503,2,0,B|324:84|276:104,1,94.9999952316285,2|0
424,168,4737,5,2
424,168,4854,1,0
424,168,4971,2,0,B|440:216|432:292,1,94.9999952316285,10|0
260,344,5206,1,2
260,344,5323,1,0
260,344,5440,2,0,B|308:356|364:340,1,94.9999952316285,2|0
252,260,5675,5,8
192,196,5792,1,8
192,196,5850,1,8
192,196,5909,2,0,B|144:184|88:200,1,94.9999952316285,8|8
44,68,6143,2,2,B|156:100,1,94.9999952316285,2|0
306,200,6378,1,0
306,200,6495,2,2,B|357:253|331:337|258:344,1,189.999990463257,6|4
158,277,6846,6,0,B|252:260,1,94.9999952316285,2|0
98,213,7081,2,0,B|192:196,1,94.9999952316285,2|0
32,152,7315,2,2,B|125:134,1,94.9999952316285
272,100,7550,1,2
272,100,8018,6,0,B|243:143|271:201|322:208,1,142.499988600612,4|2
388,240,8370,1,2
452,204,8487,2,0,B|480:247|452:305|401:312,1,142.499988600612,4|2
332,300,8839,5,8
260,296,8956,1,8
188,288,9073,1,8
116,280,9190,1,8
116,280,9425,6,2,B|76:232|76:232|116:176|100:108,1,189.999990463257,2|0
184,68,9776,1,0
184,68,9893,2,0,B|144:36|92:32,2,94.9999952316285,2|0|0
256,128,10245,6,2,B|332:160|392:100|392:100|444:140,1,189.999990463257,2|0
504,72,10596,2,0,B|516:120|508:176,1,94.9999952316285,4|0
392,312,10831,2,2,B|380:264|388:208,1,94.9999952316285,2|2
426,126,11065,1,4
426,126,11300,6,0,B|376:124|324:136,1,94.9999952316285,2|0
172,292,11534,2,0,B|222:294|274:282,1,94.9999952316285,2|0
336,224,11768,1,2
336,224,11885,1,0
336,224,12003,1,2
336,224,12120,6,2,B|348:156|348:156|320:100|320:100|324:28,1,189.999990463257,0|2
228,80,12471,2,2,B|276:176,1,94.9999952316285,2|0
440,172,12706,2,0,B|397:87,1,94.9999952316285,2|0
271,165,12940,1,4
271,165,13175,6,0,B|151:173,1,94.9999952316285,2|0
120,276,13409,2,0,B|214:269,1,94.9999952316285,2|0
300,264,13643,1,2
384,256,13760,1,0
468,248,13878,1,0
388,344,13995,6,0,B|293:350,1,94.9999952316285,2|0
215,269,14229,2,0,B|208:174,1,94.9999952316285,2|0
21,119,14464,2,0,B|116:112,1,94.9999952316285,2|0
268,96,14698,1,0
268,96,14815,2,4,B|328:72|328:72|360:88|392:84|392:84|464:56,2,189.999990463257,2|4|4
256,212,15401,5,0
256,212,15518,2,0,B|300:196|332:148,2,94.9999952316285,2|2|0
52,280,15870,6,0,B|76:272|76:272|80:284|104:256|104:252|104:252|136:244|136:244|200:204,1,142.499988600612,2|0
332,304,16104,2,0,B|312:272|312:272|276:292|260:304|180:268,1,142.499988600612,2|0
155,83,16339,6,0,B|155:131|175:143|175:143|171:191|171:191|174:219,1,142.499988600612,2|0
408,284,16573,2,0,B|388:240|348:200|348:200|368:132,1,142.499988600612,2|0
380,88,16749,2,0,B|412:24,2,71.2499943003061
380,88,16925,6,0,B|312:60|276:128|164:80,1,189.999990463257,6|0
136,152,17276,1,0
52,144,17393,2,0,B|24:48,2,94.9999952316285,2|0|0
104,236,17745,2,0,B|164:248|204:212|204:212|300:236,1,189.999990463257,2|0
380,176,18096,2,0,B|284:156,2,94.9999952316285,2|0|0
404,340,18448,6,0,B|372:300|360:252,1,94.9999952316285,2|0
444,232,18682,1,2
444,232,18800,2,0,B|464:188|456:116,1,94.9999952316285,2|0
332,28,19034,2,0,B|312:72|320:144,1,94.9999952316285,2|0
380,176,19268,5,2
296,200,19385,1,0
216,224,19503,1,2
136,248,19620,2,2,B|172:288|144:336|144:336|32:324,1,189.999990463257,2|2
24,244,19971,2,0,B|20:124,1,94.9999952316285,2|0
80,84,20206,2,0,B|128:72,3,47.4999976158143,2|0|0|0
232,52,20440,1,4
232,52,20675,6,0,B|296:68|296:68|340:44|340:44|376:36|412:48,1,189.999990463257,6|0
472,156,21026,1,2
472,156,21143,2,0,B|496:112|488:48,2,94.9999952316285,2|0|2
320,268,21495,2,0,B|436:236,1,94.9999952316285,2|0
224,224,21729,2,0,B|327:163,1,94.9999952316285,2|0
136,216,21964,2,0,B|195:111,1,94.9999952316285,2|0
232,52,22198,1,2
316,56,22315,1,8
400,64,22432,1,2
472,156,22550,6,0,B|469:208|447:252,1,94.9999952316285,6|0
288,340,22784,2,0,B|320:304|376:293,1,94.9999952316285,2|0
376,216,23018,1,2
348,136,23135,1,0
316,56,23253,1,2
136,84,23370,6,0,B|168:132|203:136|203:136|288:116,1,142.499988600612,6|0
208,316,23604,1,0
208,316,23721,1,0
208,316,23839,2,0,B|204:280|204:280|156:260|124:192,1,142.499988600612,6|0
52,96,24073,1,0
52,96,24190,1,0
312,140,24425,5,2
388,100,24542,1,0
316,56,24659,1,0
384,180,24776,1,2
180,292,25128,5,2
104,252,25245,1,0
176,208,25362,1,0
108,332,25479,1,2
52,96,25714,6,0,B|100:92|160:116,1,94.9999952316285,0|0
236,140,25948,2,0,B|276:116|298:68,2,94.9999952316285,0|0|0
208,316,26300,6,0,B|304:308,1,94.9999952316285,4|0
484,244,26534,2,0,B|388:236,1,94.9999952316285,2|0
204,216,26768,2,0,B|300:208,1,94.9999952316285,2|0
480,144,27003,2,0,B|384:136,1,94.9999952316285,2|0
224,46,27237,5,2
236,140,27354,1,0
144,156,27471,2,0,B|124:200|128:252,2,94.9999952316285,2|0|2
20,52,27823,5,0
20,52,27940,2,0,B|64:72|116:68,1,94.9999952316285,4|0
236,140,28175,2,0,B|224:44,1,94.9999952316285,2|0
344,224,28409,2,0,B|332:129,1,94.9999952316285,2|0
456,276,28643,2,0,B|444:181,1,94.9999952316285,2|0
356,320,28878,2,0,B|261:331,1,94.9999952316285,2|0
112,336,29112,5,4
160,264,29229,1,0
80,236,29346,2,0,B|56:196|64:120,1,94.9999952316285,2|0
100,36,29581,1,2
100,36,29698,1,2
100,36,29815,2,0,B|140:88|176:40|176:40|264:24|264:24|348:64,1,227.999993991852,4|2
460,156,30167,5,0
460,156,30284,2,0,B|412:144|412:144|340:168|340:168|320:144|320:144|288:124|248:112,1,227.999993991852,4|2
48,196,30635,5,0
48,196,30753,2,0,B|96:188|108:180|108:180|160:200|188:156|188:156|264:196,1,227.999993991852,4|2
464,276,31104,5,0
464,276,31221,2,0,B|424:260|424:260|384:244|384:244|364:292|296:268|296:268|224:304,1,227.999993991852,4|0
88,364,31573,1,2
88,364,31690,2,0,B|80:308|112:240,1,113.999996995926,4|0
136,164,31925,6,0,B|172:116|172:116|144:40,1,123.499991592765,2|0
256,28,32159,2,0,B|256:172,1,123.499991592765,2|0
376,164,32393,2,0,B|340:116|340:116|368:40,2,123.499991592765,2|2|0
300,328,32745,2,0,B|276:304|276:304|260:296|244:300|199:259,1,123.499991592765,4|0
88,108,32979,6,0,B|112:164,2,47.4999976158143,0|0|0
190,140,33214,2,0,B|184:187,2,47.4999976158143
252,228,33448,2,0,B|200:260,2,61.7499957963826
388,244,33682,2,0,B|440:212,2,61.7499957963826,0|0|4
80,352,34034,6,0,B|153:359|203:287|163:225,2,189.999990463257,8|2|8
84,264,34620,2,0,B|64:168|92:56,1,189.999990463257,4|0
224,80,34971,2,0,B|200:124|200:124|148:152,2,94.9999952316285,8|0|0
308,68,35323,5,2
392,80,35440,1,8
456,140,35557,1,2
424,220,35675,2,0,B|404:268|436:312,1,94.9999952316285,4|0
257,348,35909,2,0,B|308:356|352:336,1,94.9999952316285,8|0
176,328,36143,5,2
164,244,36260,1,0
152,160,36378,1,8
124,80,36495,2,0,B|116:153|188:203|250:163,1,189.999990463257,2|0
436,96,36846,6,0,B|384:80|384:80|296:100,1,142.499992847443,8|0
298,99,37081,2,0,B|282:151|282:151|302:239,1,142.499992847443,8|0
301,237,37315,2,0,B|353:253|353:253|441:233,1,142.499992847443,8|0
440,164,37550,1,4
252,320,37784,6,0,B|208:344|148:336,1,94.9999952316285,8|0
16,216,38018,2,0,B|60:196|120:200,2,94.9999952316285,2|0|8
88,276,38370,2,0,B|161:283|211:211|171:149,1,189.999990463257,4|0
244,40,38721,1,8
244,40,38839,2,0,B|256:136,1,94.9999952316285
272,220,39073,5,2
316,296,39190,1,8
396,324,39307,1,2
476,296,39425,2,0,B|484:248|476:196,1,94.9999952316285,4|0
340,72,39659,2,0,B|332:120|340:172,1,94.9999952316285,8|0
384,240,39893,5,2
316,296,40010,1,0
232,316,40128,1,8
148,300,40245,2,0,B|140:373|212:423|274:383,1,189.999990463257,4|0
208,236,40596,6,0,B|160:212|84:220,1,94.9999952316285,8|0
12,208,40831,1,8
12,208,40948,1,8
12,208,41065,1,8
12,208,41182,1,8
408,124,41534,5,4
408,124,41768,2,0,B|392:76|424:12,2,94.9999952316285,0|0|8
252,220,42120,2,0,B|441:205,1,189.999990463257,2|0
496,328,42471,2,0,B|516:280|512:212,1,94.9999952316285,8|0
332,144,42706,6,0,B|236:84,1,94.9999952316285,4|0
251,94,42940,1,8
251,94,43057,2,0,B|177:86|127:158|167:220,1,189.999990463257,2|0
196,300,43409,1,8
128,352,43526,1,0
56,308,43643,1,2
80,224,43760,1,0
166,219,43878,6,0,B|275:233,1,94.9999952316285,8|0
380,252,44112,1,8
380,252,44229,1,8
400,40,44464,6,8,B|436:80,2,47.4999976158143
332,88,44698,1,8
332,88,44815,1,8
332,88,44932,2,0,B|260:112|208:76|208:76|128:108,1,189.999990463257,4|0
16,164,45284,2,0,B|60:184|116:176,1,94.9999952316285,8|0
192,164,45518,5,2
216,248,45635,1,0
232,332,45753,1,10
232,332,45870,2,0,B|304:312|304:312|348:332|348:332|436:312,1,189.999990463257,4|0
456,232,46221,2,0,B|360:256,1,94.9999952316285,8|0
292,208,46456,5,2
268,128,46573,1,0
352,144,46690,1,8
212,64,46807,1,4
212,64,47042,6,0,B|168:84|168:84|119:77,2,94.9999952316285,2|8|0
88,204,47393,2,0,B|132:184|132:184|180:190,2,94.9999952316285,2|0|8
60,296,47745,2,8,B|44:340,2,47.4999976158143
60,296,47979,6,0,B|248:280,1,189.999990463257,8|8
248,280,48272,2,0,B|296:252,1,47.4999976158143
368,204,48448,1,8
456,128,48565,1,8
456,128,48800,6,0,B|384:136|362:229|422:272,2,189.999990463257,4|8|2
472,212,49385,1,0
508,292,49503,1,8
444,348,49620,2,0,B|392:356|348:332,1,94.9999952316285,2|0
261,264,49854,1,0
261,264,49971,1,8
261,264,50089,2,0,B|306:222|306:222|361:217|424:273,1,189.999990463257,2|0
256,344,50440,6,0,B|204:356|136:320,1,94.9999952316285,8|0
16,264,50675,2,0,B|68:276|108:252,1,94.9999952316285,4|0
128,160,50909,1,8
128,160,51026,2,0,B|137:109|121:65,1,94.9999952316285,2|0
288,36,51260,2,0,B|240:20|192:24,1,94.9999952316285,0|8
308,200,51495,2,0,B|356:216|404:212,1,94.9999952316285,2|0
472,96,51729,5,0
472,96,51846,2,0,B|436:140|436:140|428:116|428:116|404:124|404:124|384:100|384:100|352:124|352:124|268:120|268:120|240:176|192:208,1,379.999980926514,12|8
92,337,52432,5,0
92,337,52550,2,0,B|48:185,1,142.499988600612,4|0
125,65,52784,2,0,B|137:113|128:160,1,94.9999952316285,8|0
52,200,53018,5,2
36,116,53135,1,0
44,32,53253,1,8
208,112,53370,2,0,B|308:112,1,94.9999952316285,2|0
480,192,53604,1,0
480,192,53721,2,0,B|385:192,1,94.9999952316285,12|0
300,196,53956,5,2
216,188,54073,1,0
208,272,54190,1,10
292,280,54307,1,2
140,372,54425,6,0,B|196:384|196:384|247:340,2,123.499991592765,2|0|0
139,372,54776,2,0,B|87:332|87:332|116:252|116:252|96:212|96:212|101:139,1,246.99998318553,2|2
88,36,55128,1,2
204,116,55245,1,0
204,116,55479,6,0,B|312:104,2,94.9999952316285,2|2|0
312,176,55831,2,0,B|359:170,4,47.4999976158143,2|0|0|0|0
408,224,56065,2,0,B|448:220,9,23.7499988079071,2|0|0|0|0|0|0|0|0|0
496,172,56300,6,0,B|516:92|516:92|464:84|440:-8,2,189.999990463257,4|0|2
412,148,56885,1,0
340,192,57003,1,2
332,276,57120,1,0
465,300,57237,5,8
465,300,57354,1,8
465,300,57471,2,0,B|408:224,1,94.9999952316285,2|0
340,112,57706,2,0,B|282:135|299:112|299:112|244:116|244:116|233:99|156:85,1,189.999990463257,2|0
173,88,58175,6,0,B|122:87|78:99,1,94.9999952316285,4|0
76,184,58409,2,0,B|104:228|100:304,1,94.9999952316285,2|0
32,352,58643,2,0,B|4:308|8:232,1,94.9999952316285,2|0
176,184,58878,2,0,B|204:228|200:304,1,94.9999952316285,8|8
168,352,59112,6,0,B|252:384|308:316|308:316|376:336,1,189.999990463257,2|0
428,328,59464,1,2
448,244,59581,1,8
364,236,59698,2,2,B|332:200|332:148,1,94.9999952316285
372,68,59932,6,0,B|320:52|304:80|304:80|296:64|292:36|292:36|256:96|256:96|196:52|196:124|132:124|68:56,1,379.999980926514,4|2
82,70,60518,2,0,B|60:112|62:163,1,94.9999952316285,0|0
60,308,60753,1,8
60,308,60987,6,0,B|107:315|151:291,1,94.9999952316285,2|0
244,308,61221,2,0,B|240:256|204:212,1,94.9999952316285,2|0
188,136,61456,1,8
244,72,61573,1,8
328,68,61690,2,0,B|376:80|428:56,1,94.9999952316285,2|0
488,196,61925,6,0,B|412:204|372:148|372:148|280:160,1,189.999990463257,4|0
320,252,62276,2,0,B|352:292|348:356,2,94.9999952316285,2|2|0
244,308,62628,2,0,B|196:320|150:303,1,94.9999952316285
48,148,62862,1,8
48,148,63096,6,0,B|68:256,1,94.9999952316285,2|0
172,200,63331,2,0,B|200:148|200:148|192:60,1,142.499988600612,2|0
280,56,63565,2,0,B|352:56,3,71.2499943003061
376,52,63800,6,0,B|416:28|480:32,2,94.9999952316285,4|0|8
444,144,64151,1,0
444,144,64268,2,0,B|456:196|420:260,1,94.9999952316285,4|0
340,332,64503,2,0,B|315:291|327:239,1,94.9999952316285,8|0
256,164,64737,2,0,B|176:228|56:172,3,189.999990463257,4|8|4|8
232,88,65557,1,0
308,72,65675,6,0,B|368:88|416:48,1,106.874991450459,4|0
409,53,65909,2,0,B|449:93|469:169,1,106.874991450459,2|0
462,145,66143,2,0,B|418:185|410:249,1,106.874991450459,2|0
352,308,66378,6,0,B|308:348|240:348,1,106.874991450459,2|0
344,203,66612,2,0,B|328:255|352:308,1,106.874991450459,4|0
239,192,66846,2,0,B|295:180|344:204,1,106.874991450459,2|0
249,87,67081,2,0,B|225:139|240:192,1,106.874991450459,2|0
164,236,67315,2,0,B|204:292,3,35.624997150153
140,208,67550,6,0,B|28:216,1,104.499991640449,4|0
164,100,67784,2,0,B|52:108,1,104.499991640449,8|0
408,136,68018,2,0,B|303:143,1,104.499991640449,8|0
456,248,68253,2,0,B|351:255,1,104.499991640449,8|0
204,332,68487,5,12
204,332,68604,1,0
204,332,68721,1,8
204,332,68839,1,0
204,332,68956,2,0,B|99:339,1,104.499991640449,8|0
64,240,69190,2,0,B|36:191|44:127,1,104.499991640449,8|0
156,204,69425,6,0,B|220:188|220:188|288:212|288:212|376:192,1,208.999983280898,12|8
452,240,69776,1,8
452,240,69835,1,8
452,240,69893,2,0,B|460:184|432:112,1,104.499991640449
276,36,70128,2,0,B|296:164,1,104.499991640449,8|0
308,244,70362,6,0,B|326:294|326:334|292:387|252:390|203:382|178:356|151:305|161:249,1,313.499974921347,4|0
159,271,70831,1,8
36,192,70948,1,8
36,192,71300,6,0,B|120:232|196:176|196:176|232:216,1,208.999983280898,4|0
396,316,71651,1,0
396,316,71768,2,0,B|352:344|292:332,1,104.499991640449,8|0
160,272,72003,2,0,B|204:244|264:256,1,104.499991640449,8|0
256,192,72237,12,4,73175
452,120,73643,5,4
452,120,74112,1,2
464,224,74346,1,2
376,284,74581,2,0,B|304:240|264:328|184:268,1,189.999990463257,4|0
132,208,74874,2,0,B|116:160,2,52.2499958202245
104,120,75050,6,0,B|148:88|148:88|208:124|300:84,1,189.999990463257,6|0
464,224,75401,1,0
464,224,75518,2,0,B|420:228|420:228|420:204|384:240|344:196|344:196|272:236,1,189.999990463257,2|0
220,364,75870,2,0,B|260:300|260:300|208:268|216:200,1,189.999990463257,2|0
139,113,76221,2,0,B|127:161|132:208,1,94.9999952316285,4|0
204,56,76456,2,2,B|160:24|84:28,1,94.9999952316285
24,192,76690,1,4
24,192,76925,6,0,B|48:232|48:288,1,94.9999952316285,2|0
136,352,77159,2,0,B|176:324|188:264,1,94.9999952316285,2|0
216,192,77393,1,2
296,160,77510,1,0
380,180,77628,1,0
440,240,77745,6,2,B|508:246|508:246|544:170|476:106,1,189.999990463257
352,104,78096,2,0,B|388:80|388:80|439:80,1,94.9999952316285,2|0
320,236,78331,2,0,B|284:260|284:260|228:260,1,94.9999952316285,2|0
56,240,78565,1,4
56,240,78800,6,0,B|40:128,1,94.9999952316285,2|0
28,60,79034,1,2
108,84,79151,1,0
192,64,79268,1,2
276,80,79385,1,0
360,64,79503,1,2
500,126,79620,2,0,B|404:140,1,94.9999952316285,2|0
256,208,79854,5,8
256,208,79971,2,0,B|300:233|348:225,1,94.9999952316285,2|0
492,280,80206,2,0,B|447:305|399:297,1,94.9999952316285,2|0
240,328,80440,2,0,B|284:353|332:345,1,94.9999952316285,2|0
432,224,80675,5,10
328,156,80792,1,0
404,60,80909,2,0,B|356:44|288:60,1,94.9999952316285,2|0
164,88,81143,2,0,B|200:116|268:120,2,94.9999952316285,2|2|0
16,204,81495,6,0,B|36:184|24:168|24:168|48:160|48:136|48:136|80:76,1,142.499988600612,6|0
184,320,81729,2,0,B|158:293|158:293|180:288|160:276|144:256|144:256|144:236|100:200,1,142.499988600612,2|0
380,236,81964,2,0,B|347:237|335:240|332:228|332:228|321:236|303:228|303:228|236:227,1,142.499988600612,2|0
288,92,82198,2,2,B|322:117|322:117|336:103|336:103|360:123|340:74|335:91|348:97|348:97|410:83|397:133|397:133|488:164|460:275,1,356.24997150153,2|0
404,316,82550,6,0,B|330:324|280:252|320:190,1,189.999990463257,6|0
319,192,82901,1,0
319,192,83018,2,0,B|270:248|184:229|171:157,1,189.999990463257,2|0
171,159,83370,2,2,B|166:79|213:48|256:38|305:59|329:118|329:118|314:147|264:199|379:195|379:287|291:339,1,474.999976158143,2|0
248,136,84073,1,2
232,220,84190,1,0
172,280,84307,1,2
92,308,84425,6,0,B|72:264|74:214,1,94.9999952316285,2|0
216,56,84659,2,0,B|182:96|134:104,1,94.9999952316285,2|0
0,100,84893,5,2
72,144,85010,1,0
148,184,85128,1,2
172,280,85245,2,0,B|212:300|212:300|216:284|216:284|228:312|260:280|260:280|308:316|412:288,1,237.499988079071,2|0
400,260,85596,6,0,B|420:212|396:132,1,94.9999952316285,0|0
312,56,85831,2,0,B|292:104|316:184,1,94.9999952316285
480,180,86065,1,4
133,171,86300,6,0,B|173:155|173:155|181:171|181:171|193:163|193:163|329:147,1,189.999990463257,2|0
400,260,86651,1,0
400,260,86768,2,0,B|344:316|316:280|316:280|276:308|214:280,1,189.999990463257,2|2
148,260,87120,5,2
68,232,87237,1,2
20,304,87354,1,0
72,372,87471,1,0
152,344,87589,2,0,B|248:368|338:306,1,189.999990463257,2|0
416,180,87940,1,4
416,180,88175,6,0,B|460:168|540:164,2,94.9999952316285,2|0|2
312,68,88526,1,0
312,68,88585,1,0
312,68,88643,2,0,B|336:112|328:184,2,94.9999952316285,2|0|0
252,208,88995,6,0,B|201:199|201:199|184:128|188:236|152:260|5:219,1,246.99998318553,6|0
47,229,89288,2,0,B|31:169,1,61.7499957963826
8,44,89464,2,0,B|83:71|118:29|118:29|170:39|235:101,1,246.99998318553,6|2
346,90,89815,2,0,B|292:122|226:94,1,123.499991592765,2|0
440,200,90050,5,2
428,116,90167,1,0
360,168,90284,1,2
504,148,90401,1,2
111,282,90753,5,2
123,198,90870,1,0
191,250,90987,1,2
47,230,91104,1,2
386,345,91339,6,0,B|342:369|287:360,2,94.9999952316285,8|0|8
469,291,91690,2,0,B|435:186,1,94.9999952316285,8|8
384,80,91925,5,2
300,72,92042,1,0
216,64,92159,1,2
132,56,92276,1,2
4,212,92628,5,6
88,204,92745,1,0
172,196,92862,1,2
256,188,92979,1,2
256,188,93331,6,0,B|280:220|288:260,1,71.2499943003061,2|0
360,332,93565,2,0,B|368:296|388:266,1,71.2499943003061,2|2
468,208,93800,5,6
468,208,93917,1,0
468,208,94034,1,2
468,208,94151,2,0,B|476:156|448:96,1,94.9999952316285,2|0
228,112,94385,2,0,B|264:148|324:148,1,94.9999952316285,2|0
396,40,94620,6,0,B|372:92|372:92|392:164|392:164|372:228,1,189.999990463257,2|2
304,268,94971,1,0
304,268,95089,2,0,B|244:236|244:236|196:268|104:256,1,189.999990463257,2|0
0,100,95440,6,0,B|48:104|68:84|68:84|148:72,1,142.499988600612,4|0
228,112,95675,5,6
228,112,95792,1,0
228,112,95909,1,2
228,112,96026,2,0,B|280:116|324:88,1,94.9999952316285,2|0
488,244,96260,2,0,B|436:248|392:220,1,94.9999952316285,2|0
272,212,96495,6,0,B|324:124|376:212|428:88,1,189.999990463257,2|0
380,32,96846,1,2
380,32,96964,2,0,B|324:32|324:32|300:48|284:28|284:28|260:48|244:32|244:32|184:32,1,189.999990463257,2|0
0,228,97315,6,0,B|36:224|36:224|64:224|56:244|156:224,1,142.499988600612,4|0
196,156,97550,5,6
196,156,97667,1,0
196,156,97784,1,2
196,156,97901,2,0,B|232:192|232:244,1,94.9999952316285,2|0
196,364,98135,2,0,B|160:328|160:276,1,94.9999952316285,2|0
268,312,98370,6,0,B|364:348|460:272,1,189.999990463257,2|0
496,144,98721,1,2
496,144,98839,2,0,B|436:168|416:196|416:196|380:172|312:188,1,189.999990463257,2|0
28,112,99190,6,0,B|100:116|80:84|96:104|96:104|172:104,1,142.499988600612,4|0
224,176,99425,5,6
224,176,99542,1,0
224,176,99659,1,2
224,176,99776,2,0,B|196:216|192:264,1,94.9999952316285,2|0
112,236,100010,2,0,B|76:268|101:286|77:322,1,94.9999952316285,2|0
112,236,100245,6,0,B|136:200|116:168|116:168|160:136|96:112|128:28,1,189.999990463257,2|0
28,40,100596,1,2
28,40,100714,1,2
200,72,100831,6,0,B|256:88|280:48|344:72,1,142.499988600612,4|0
472,72,101065,2,0,B|452:100|444:136,3,71.2499943003061,0|0|0|0
440,168,101300,6,0,B|436:220|468:268,2,94.9999952316285,6|0|2
376,276,101651,2,0,B|324:288|280:272,1,94.9999952316285,2|0
120,164,101885,2,0,B|172:152|216:168,1,94.9999952316285,2|0
283,273,102120,6,0,B|223:257|223:257|175:313|103:289,1,189.999990463257,2|0
27,176,102471,1,2
27,176,102589,2,0,B|131:160|131:160|175:180|227:164,1,189.999990463257,2|0
468,48,102940,6,0,B|432:44|432:44|412:52|412:52|376:44|376:44|304:44,1,142.499988600612,4|0
252,104,103175,5,6
252,104,103292,1,0
252,104,103409,1,2
252,104,103526,2,0,B|268:152|256:216,1,94.9999952316285,2|0
104,264,103760,2,0,B|152:272|208:260,1,94.9999952316285,2|0
288,312,103995,5,2
288,312,104053,1,0
288,312,104112,2,0,B|412:320,1,94.9999952316285,2|0
320,240,104346,2,0,B|444:248,1,94.9999952316285,2|0
344,168,104581,2,0,B|468:176,1,94.9999952316285,2|0
512,100,104815,6,0,B|472:93|472:93|448:93|448:93|428:101|428:101|372:93,1,142.499988600612,4|0
240,60,105050,5,6
240,60,105167,1,0
240,60,105284,1,2
240,60,105401,2,0,B|192:60|136:80,1,94.9999952316285,2|0
40,284,105635,2,0,B|72:248|72:192,1,94.9999952316285,2|0
20,84,105870,6,0,B|40:132|40:132|92:112|144:144|152:200,1,189.999990463257,2|0
188,272,106221,1,2
188,272,106339,2,0,B|240:280|312:248,2,94.9999952316285,2|0|0
296,112,106690,6,0,B|328:156|328:156|328:168|328:168|344:176|344:176|372:240,1,142.499988600612,4|0
440,324,106925,5,6
452,240,107042,1,0
464,156,107159,1,2
476,72,107276,2,0,B|428:60|372:64,1,94.9999952316285,2|0
300,160,107510,2,0,B|253:163|205:151,1,94.9999952316285,2|0
104,76,107745,6,0,B|84:128|84:128|120:128|120:128|76:160|156:184|156:184|180:216|184:244|172:280|144:316|144:316|72:328,1,379.999980926514,2|0
0,260,108331,2,0,B|44:236|96:248,1,94.9999952316285,2|0
224,332,108565,1,2
456,284,108800,5,4
468,200,108917,1,0
484,116,109034,1,0
420,60,109151,2,0,B|368:68,5,47.4999976158143
404,100,109503,6,0,B|352:140|352:140|324:116|324:116|296:120|296:120|312:144|312:144|293:198|288:196|228:136|228:136|188:196|104:180,1,379.999980926514,12|0
104,120,110089,1,0
104,120,110206,2,2,B|44:152|52:272|180:260,1,189.999990463257,2|0
180,272,110499,6,0,B|252:292,1,47.4999976158143
268,296,110616,2,0,B|336:308,1,47.4999976158143,0|4
256,192,110792,12,4,111612
