osu file format v9

[General]
AudioFilename: songsongsong.mp3
AudioLeadIn: 0
PreviewTime: 14085
Countdown: 0
SampleSet: Normal
StackLeniency: 0.4
Mode: 1
LetterboxInBreaks: 1

[Editor]
Bookmarks: 14081,38758,84599
DistanceSpacing: 1.1
BeatDivisor: 4
GridSize: 8

[Metadata]
Title:Chouetsu Koi Shite Naishomea!!
Artist:ave;new project feat. Sakura Saori & Inoue Miyu
Creator:Natteke
Version:lepidon! - Taiko Oni
Source:Ore no Tsure wa Hitodenashi
Tags:h3k1ru aenna lepidopodus

[Difficulty]
HPDrainRate:5
CircleSize:5
OverallDifficulty:6
ApproachRate:5
SliderMultiplier:1.4
SliderTickRate:0.5

[Events]
//Background and Video events
0,0,"bg.jpg"
Video,-64,"video chouetsu.avi"
//Break Periods
//Storyboard Layer 0 (Background)
//Storyboard Layer 1 (Fail)
//Storyboard Layer 2 (Pass)
//Storyboard Layer 3 (Foreground)
//Storyboard Sound Samples
//Background Colour Transformations
3,100,163,162,255

[TimingPoints]
2870,280.373831775701,4,1,0,65,1,0
14084,-100,4,1,0,75,0,1
29785,-100,4,1,0,65,0,0
58944,-100,4,1,0,75,0,1
84739,-100,4,1,0,65,0,0

[Colours]
Combo1 : 17,254,176
Combo2 : 173,255,95
Combo3 : 255,88,100
Combo4 : 255,94,55

[HitObjects]
208,240,2869,1,4
264,248,3430,1,4
504,56,3991,1,4
384,152,4271,1,4
232,272,4552,1,4
240,120,4832,1,4
136,232,5112,5,0
288,192,5393,1,8
344,240,5533,1,0
352,328,5813,1,0
232,232,6094,1,0
376,184,6374,1,8
368,264,6514,1,0
296,296,6655,1,0
384,224,6795,1,12
272,112,7075,1,12
168,224,7355,1,0
320,192,7636,1,8
392,208,7776,1,0
320,344,8056,1,0
320,192,8337,1,0
464,144,8617,1,8
440,216,8757,1,0
408,288,8898,1,0
440,216,9038,1,12
312,304,9318,1,12
192,200,9598,5,0
344,168,9879,1,8
400,224,10019,1,0
288,328,10299,1,0
424,256,10580,1,0
392,272,10650,1,0
360,288,10720,1,0
408,224,10860,1,8
328,216,11000,1,0
320,296,11141,1,0
384,256,11281,1,12
392,272,11561,1,12
192,200,11841,1,0
344,168,12122,1,8
400,224,12262,1,0
288,328,12542,1,0
424,256,12823,1,0
392,272,12893,1,0
360,288,12963,1,0
408,224,13103,1,8
328,216,13243,1,0
320,296,13384,1,0
384,256,13524,1,12
392,272,13804,1,12
256,208,14084,5,0
312,144,14365,1,8
384,160,14505,1,0
456,176,14645,1,8
504,240,14785,1,0
480,168,14926,1,8
328,168,15206,1,0
408,168,15346,1,8
480,152,15486,1,0
408,168,15627,1,8
304,280,15907,1,12
376,256,16047,1,12
232,200,16327,1,0
408,168,16608,1,8
480,192,16748,1,0
432,136,16888,1,8
464,208,17028,1,0
392,176,17169,1,8
272,272,17449,1,0
336,232,17589,1,8
408,200,17729,1,8
408,168,17870,1,0
256,168,18150,1,0
336,160,18290,1,8
259,168,18430,1,0
272,272,18570,5,0
256,304,18641,1,0
256,304,18711,1,0
304,240,18851,1,8
376,272,19131,1,0
336,264,19201,1,0
296,256,19271,1,0
400,280,19412,1,8
248,288,19692,1,0
248,288,19762,1,0
248,288,19832,1,0
312,248,19972,1,8
376,208,20112,1,0
224,192,20393,1,12
296,256,20533,1,12
376,208,20813,1,0
352,136,20954,1,0
424,152,21094,1,8
456,224,21234,1,0
384,256,21374,1,0
400,184,21514,1,8
352,240,21655,1,0
304,304,21795,1,0
352,192,22215,1,12
352,192,22496,1,4
220,111,22776,1,8
250,134,22846,1,8
280,157,22916,1,8
352,132,23056,5,0
423,162,23197,1,8
490,198,23337,1,0
478,121,23477,1,8
444,190,23617,1,0
370,325,23898,1,8
322,264,24038,1,0
294,112,24318,1,0
262,134,24388,1,0
326,172,24458,1,8
359,241,24598,1,0
223,166,24879,1,12
275,222,25019,1,12
335,80,25299,1,0
384,139,25440,1,0
411,210,25580,1,8
389,283,25720,1,8
326,237,25860,1,0
368,172,26000,1,8
411,210,26141,1,8
371,276,26281,1,0
218,255,26561,1,0
218,255,26631,1,0
256,250,26701,1,8
332,248,26841,1,0
289,183,26982,1,12
361,156,27122,1,12
425,253,27262,1,12
301,161,27542,1,0
270,138,27612,1,0
238,115,27683,1,0
310,140,27823,1,8
378,174,27963,1,8
454,172,28103,1,0
416,180,28173,1,0
416,180,28243,1,0
438,179,28384,1,8
373,220,28524,1,0
325,235,28804,1,4
291,304,28944,1,4
287,150,29224,1,4
438,179,29505,1,12
285,159,29785,5,0
439,151,30066,1,8
420,225,30206,1,0
496,220,30346,1,8
386,256,30627,1,0
310,239,30767,1,8
177,161,31047,1,0
253,166,31187,1,8
277,238,31327,1,0
311,201,31608,1,8
379,236,31748,1,8
380,82,32028,1,0
392,158,32169,1,0
408,233,32309,1,8
348,282,32449,1,8
396,222,32589,1,0
467,193,32729,1,0
409,140,32870,1,8
400,216,33010,1,0
346,271,33150,1,0
282,314,33290,1,0
344,268,33430,1,8
323,194,33570,1,8
168,208,33851,1,0
326,208,33991,1,8
323,194,34131,1,8
323,194,34201,1,8
310,157,34271,5,0
464,168,34552,1,8
424,232,34692,1,0
424,152,34832,1,8
312,264,35112,1,0
376,216,35253,1,8
224,176,35533,1,0
304,176,35673,1,8
384,184,35813,1,0
344,120,35954,1,8
384,184,36094,1,0
384,168,36234,1,8
224,176,36514,1,0
280,232,36655,1,0
352,200,36795,1,8
384,272,36935,1,0
416,200,37075,1,0
384,168,37215,1,0
312,176,37355,1,8
312,176,37496,1,8
368,224,37636,1,4
416,200,37916,1,12
328,328,38197,1,12
216,216,38477,1,0
192,192,38547,1,0
160,168,38617,1,0
160,168,38687,1,0
160,168,38757,5,0
312,168,39038,1,8
392,168,39178,1,0
464,184,39318,1,8
368,304,39598,1,0
296,280,39739,1,8
464,184,40019,1,0
408,136,40159,1,8
424,208,40299,1,0
344,200,40440,1,0
368,128,40580,1,8
336,200,40720,1,8
384,344,41000,1,8
368,272,41141,1,8
384,200,41281,1,0
320,160,41421,1,0
392,176,41561,1,8
392,176,41701,1,8
368,248,41841,1,0
352,328,41982,1,0
304,272,42122,1,0
280,240,42192,1,0
256,216,42262,1,0
392,176,42402,1,8
456,216,42542,1,8
336,112,42823,1,0
400,152,42963,1,8
432,224,43103,1,8
416,192,43173,1,8
376,184,43243,5,0
304,208,43384,1,0
376,184,43524,1,8
448,168,43664,1,0
392,176,43804,1,8
240,136,44084,1,0
400,152,44225,1,8
400,304,44505,1,0
424,232,44645,1,8
368,184,44785,1,0
392,176,44926,1,8
448,168,45066,1,0
368,168,45206,1,8
216,184,45486,1,0
296,176,45627,1,0
448,168,45767,1,8
392,216,45907,1,8
384,296,46047,1,0
376,336,46117,1,0
336,320,46187,1,0
344,240,46327,1,8
376,168,46468,2,0,B|112:80|112:80|104:112,1,280
120,160,47169,1,12
160,224,47309,1,12
360,104,47729,5,0
424,240,48010,1,8
320,128,48290,1,0
416,248,48570,1,8
264,240,48851,1,0
408,184,49131,1,0
480,168,49271,1,8
344,232,49552,1,8
384,224,49622,1,8
344,232,49692,1,8
408,88,49972,1,0
336,224,50253,1,8
192,168,50533,1,0
344,200,50813,1,8
496,184,51094,1,0
424,216,51234,1,0
352,224,51374,1,0
416,184,51514,1,8
304,288,51795,1,8
328,264,51865,1,8
360,240,51935,1,8
216,176,52215,5,0
264,120,52355,1,0
336,144,52496,1,8
416,184,52776,1,0
360,240,52916,1,0
408,176,53056,1,8
328,312,53337,1,0
360,240,53617,1,0
408,176,53757,1,8
272,248,54038,1,8
304,232,54108,1,8
304,232,54178,1,8
368,272,54318,1,8
408,176,54458,1,0
344,224,54598,1,0
408,176,54739,1,8
408,176,55019,1,0
464,224,55159,1,0
384,232,55299,1,8
232,224,55580,1,0
232,224,55650,1,0
232,224,55720,1,0
232,224,55790,1,0
240,264,55860,1,0
192,120,56141,1,0
208,160,56211,1,0
216,200,56281,1,0
232,232,56351,1,0
232,232,56421,1,0
360,144,56701,2,0,B|64:64|64:64|64:208,1,420
360,264,58103,5,12
208,232,58384,1,12
272,120,58944,5,0
352,120,59084,1,0
416,160,59225,1,8
472,208,59365,1,0
448,136,59505,1,8
416,208,59645,1,0
448,136,59785,1,8
424,208,59926,1,0
344,216,60066,1,0
416,208,60206,1,8
480,168,60346,1,0
416,160,60486,1,8
432,312,60767,1,12
376,264,60907,1,12
232,208,61187,1,0
192,144,61327,1,0
272,144,61468,1,8
416,160,61608,1,0
472,216,61748,1,8
448,144,61888,1,0
496,200,62028,1,8
424,184,62169,1,0
352,208,62309,1,0
416,160,62449,1,8
488,176,62589,1,8
440,232,62729,1,0
296,184,63010,1,0
368,168,63150,1,8
440,200,63290,1,0
384,256,63430,5,0
360,288,63500,1,0
328,312,63570,1,0
336,232,63711,1,8
320,160,63851,1,8
192,184,63991,1,0
224,208,64061,1,0
224,208,64131,1,0
368,168,64271,1,8
376,248,64412,1,8
408,160,64552,1,0
408,160,64622,1,0
408,160,64692,1,0
440,200,64832,1,8
384,256,64972,1,0
248,184,65253,1,12
296,240,65393,1,12
152,192,65673,1,0
128,120,65814,1,0
200,136,65954,1,8
232,208,66094,1,0
160,240,66234,1,0
176,168,66374,1,8
128,224,66515,1,0
200,200,66655,2,0,B|392:72|392:72|400:208,1,350
344,224,67636,1,8
304,208,67706,1,8
344,224,67776,1,8
272,120,67916,5,0
352,120,68056,1,0
416,160,68197,1,8
472,208,68337,1,0
448,136,68477,1,8
416,208,68617,1,0
448,136,68757,1,8
424,208,68898,1,0
344,216,69038,1,0
416,208,69178,1,8
480,168,69318,1,0
416,160,69458,1,8
432,312,69739,1,12
376,264,69879,1,12
232,208,70159,1,0
192,144,70299,1,0
272,144,70440,1,8
416,160,70580,1,0
472,216,70720,1,8
448,144,70860,1,0
496,200,71000,1,8
424,184,71141,1,0
352,208,71281,1,0
416,160,71421,1,8
488,176,71561,1,8
440,232,71701,1,0
296,184,71982,1,0
368,168,72122,1,8
440,200,72262,1,0
384,256,72402,5,0
360,288,72472,1,0
328,312,72542,1,0
336,232,72683,1,8
320,160,72823,1,8
192,184,72963,1,0
224,208,73033,1,0
224,208,73103,1,0
368,168,73243,1,8
376,248,73384,1,8
408,160,73524,1,0
408,160,73594,1,0
408,160,73664,1,0
440,200,73804,1,8
384,256,73944,1,0
248,184,74225,1,12
296,240,74365,1,12
144,208,74645,1,0
216,192,74785,1,0
296,184,74926,1,8
376,176,75066,1,0
432,232,75206,1,0
448,160,75346,1,8
392,216,75486,1,0
352,280,75627,1,0
472,176,76047,1,12
320,216,76327,1,4
419,98,76608,1,12
381,165,76748,1,8
364,199,76818,1,8
348,234,76888,5,8
273,214,77028,1,0
346,190,77169,1,8
422,198,77309,1,0
440,123,77449,1,0
423,198,77589,1,8
381,262,77729,1,8
414,192,77870,1,0
260,185,78150,1,0
360,48,78290,1,8
336,120,78430,1,8
360,272,78711,1,12
280,280,78851,1,12
157,187,79131,1,0
233,184,79271,1,8
310,182,79412,1,0
386,175,79552,1,8
462,173,79692,1,0
388,150,79832,1,8
434,211,79972,1,8
403,281,80112,1,0
282,184,80393,1,0
356,165,80533,1,8
327,236,80673,1,8
458,155,80954,1,12
401,207,81094,1,12
274,119,81374,5,8
305,141,81444,1,8
335,164,81514,1,8
398,207,81655,1,8
329,241,81795,1,0
403,260,81935,1,0
421,185,82075,1,8
484,141,82215,1,8
425,190,82355,1,0
275,226,82636,1,0
348,202,82776,1,8
348,202,82846,1,8
348,202,82916,1,8
398,207,83056,1,8
421,185,83197,1,0
348,211,83337,1,8
305,358,83617,1,4
303,281,83757,1,4
303,281,83898,1,4
303,281,84038,1,4
303,281,84178,1,4
448,330,84458,1,4
374,307,84598,1,4
