osu file format v9

[General]
AudioFilename: songsongsong.mp3
AudioLeadIn: 0
PreviewTime: 14085
Countdown: 0
SampleSet: Normal
StackLeniency: 0.4
Mode: 0
LetterboxInBreaks: 1

[Editor]
Bookmarks: 14081,38758,47730,84599
DistanceSpacing: 0.9
BeatDivisor: 4
GridSize: 8

[Metadata]
Title:Chouetsu Koi Shite Naishomea!!
Artist:ave;new project feat. Sakura Saori & Inoue Miyu
Creator:Natteke
Version:Normal
Source:Ore no Tsure wa Hitodenashi
Tags:h3k1ru aenna lepidopodus

[Difficulty]
HPDrainRate:3
CircleSize:4
OverallDifficulty:3
ApproachRate:5
SliderMultiplier:1.1
SliderTickRate:2

[Events]
//Background and Video events
0,0,"bg.jpg"
Video,-64,"video chouetsu.avi"
//Break Periods
//Storyboard Layer 0 (Background)
//Storyboard Layer 1 (Fail)
//Storyboard Layer 2 (Pass)
//Storyboard Layer 3 (Foreground)
//Storyboard Sound Samples
//Background Colour Transformations
3,100,163,162,255

[TimingPoints]
2870,280.373831775701,4,1,0,50,1,0
24389,-100,4,2,0,65,0,0
24669,-100,4,1,0,50,0,0
26632,-100,4,2,0,65,0,0
26912,-100,4,1,0,50,0,0
29646,-133.333333333333,4,2,0,60,0,0
44576,-133.333333333333,4,2,0,40,0,0
44996,-133.333333333333,4,2,0,60,0,0
47730,-166.666666666667,4,2,0,60,0,0
57964,-100,4,2,0,60,0,0
58945,-100,4,1,0,50,0,1
59015,-100,4,1,0,50,0,0
67917,-100,4,1,0,50,0,1
67987,-100,4,1,0,50,0,0

[Colours]
Combo1 : 17,254,176
Combo2 : 173,255,95
Combo3 : 255,88,100
Combo4 : 255,94,55

[HitObjects]
256,272,2870,5,0
256,272,3430,1,0
256,112,3991,5,0
352,192,4271,1,0
256,272,4552,1,0
160,192,4832,1,0
152,72,5112,6,0,B|32:72,1,110,4|8
64,168,5673,2,0,B|32:224|72:280,1,110,0|8
160,296,6234,2,0,B|272:296,1,110,0|8
368,296,6795,1,2
368,296,7075,1,10
440,232,7355,6,0,B|472:176|440:128,1,110,0|8
352,88,7916,2,0,B|320:135|352:191,1,110,0|8
264,232,8477,2,0,B|295:287|264:335,1,110,0|8
175,295,9038,2,0,B|143:247|175:191,1,110,2|10
224,104,9598,6,0,B|160:32|56:80,1,165,4|0
32,160,10299,1,0
128,200,10580,2,0,B|192:272|296:224,1,165,4|0
320,144,11281,1,2
320,144,11561,1,10
400,200,11841,6,0,B|472:256|424:352,1,165,4|0
328,320,12542,2,0,B|208:320,1,110,0|4
144,256,13103,1,0
144,256,13243,2,0,B|144:128,1,110,0|2
192,64,13804,1,2
256,136,14084,6,0,B|312:168|376:128,2,110,6|10|2
280,232,14926,1,2
368,280,15206,2,0,B|408:224,3,55,10|0|2|2
464,160,15907,1,2
464,160,16047,2,0,B|496:104|456:48,2,110,8|6|2
384,104,16888,6,0,B|272:104,1,110,2|10
208,184,17449,2,0,B|152:184,3,55,10|0|2|2
80,248,18150,1,0
80,248,18290,1,8
160,312,18570,6,0,B|264:368|376:312,1,220,4|0
376,112,19692,2,0,B|272:56|160:112,1,220,0|0
104,184,20533,1,10
176,248,20813,5,2
272,248,21094,1,10
344,320,21374,2,0,B|400:352|464:312,1,110,2|10
392,240,21935,2,0,B|336:160|472:128|392:16,1,220,4|2
208,80,23056,6,0,B|152:96|96:72,2,110,2|10|2
264,160,23898,1,8
264,160,24038,2,0,B|344:120|432:168,1,165,2|8
352,344,25019,1,10
352,344,25299,6,0,B|408:328|464:352,2,110,2|10|2
296,264,26141,1,8
296,264,26281,2,0,B|216:304|128:256,1,165,2|8
224,80,27262,1,10
136,128,27542,5,6
176,216,27823,1,10
256,280,28103,1,0
336,216,28384,1,8
376,128,28664,1,4
256,40,29225,5,8
64,192,29785,6,0,B|104:176|152:192,1,82.4999975413085,4|2
140,264,30346,2,0,B|204:304|252:296|300:304|380:264,1,247.499992623925,0|2
367,189,31468,2,0,B|408:176|448:192,1,82.4999975413085,0|2
472,120,32028,6,0,B|392:88|296:128,1,164.999995082617,0|0
256,176,32869,1,2
201,122,33150,2,0,B|120:88|40:120,1,164.999995082617,4|0
32,272,34271,6,0,B|200:272,1,164.999995082617,4|0
315,272,35393,2,0,B|480:272,1,164.999995082617,0|0
484,123,36514,5,0
428,67,36795,1,2
364,35,37075,1,0
292,27,37355,1,2
220,27,37636,1,4
148,35,37916,1,2
84,67,38197,1,0
28,123,38477,1,2
32,200,38757,6,0,B|112:248|200:200,1,164.999995082617,4|0
256,336,39879,1,0
328,320,40159,1,2
400,336,40440,1,0
480,200,41000,6,0,B|400:248|312:200,1,164.999995082617
256,48,42122,1,0
184,64,42402,1,6
112,48,42683,1,0
64,192,43243,6,0,B|136:160|160:224|232:184,1,164.999995082617,4|0
256,256,44084,1,2
312,312,44365,2,0,B|352:296|400:312,1,82.4999975413085,0|8
448,256,44926,2,0,B|434:215|450:175,1,82.4999975413085,8|0
472,104,45486,5,0
408,72,45767,2,0,B|368:48|312:72,1,82.4999975413085,2|0
272,112,46327,2,0,B|224:128|184:112,1,82.4999975413085,2|4
256,192,46748,12,4,47729
209,274,48851,6,4,B|254:304|304:272,2,99.000002360344
256,216,49972,1,4
303,78,51094,6,4,B|258:48|208:80,2,99.000002360344
256,136,52215,1,4
208,336,53337,6,4,B|312:336,2,99.000002360344
144,296,54458,6,4,B|97:262|57:182|99:102|149:62,1,264.000006294251
256,192,56141,1,4
367,65,56701,2,4,B|413:102|455:182|415:262|368:296,1,264.000006294251
312,344,58103,2,4,B|200:344,1,110
104,248,58944,6,0,B|72:192|104:136,1,110,6|10
200,144,59505,2,0,B|228:193|196:249,1,110,2|10
152,336,60066,2,0,B|88:336,3,55,10|0|2|2
24,264,60767,1,10
24,264,60907,1,2
104,208,61187,6,0,B|160:184|210:209,1,110,6|10
304,248,61748,2,0,B|354:273|410:249,1,110,2|10
440,152,62309,2,0,B|448:96,3,55,10|0|2|2
352,72,63010,1,2
352,72,63150,1,10
256,104,63430,6,0,B|152:40|47:110,1,220,6|2
112,184,64271,1,0
208,200,64552,2,0,B|272:272|200:368,2,165,4|2|2
296,160,65673,5,2
336,248,65954,1,10
320,344,66234,1,2
320,344,66374,1,2
416,344,66655,2,0,B|464:264|411:181,1,165,6|2
352,112,67355,1,10
256,88,67636,1,2
160,120,67916,6,0,B|96:128|72:200,1,110,6|10
88,280,68477,2,0,B|152:272|176:200,1,110,2|10
256,168,69038,2,0,B|256:224,3,55,10|0|2|2
352,264,69739,1,2
352,264,69879,1,10
352,264,70159,6,0,B|416:256|440:184,1,110,6|10
424,104,70720,2,0,B|360:112|336:184,1,110,2|10
256,216,71281,2,0,B|256:160,3,55,10|0|2|2
256,64,71982,1,2
256,64,72122,1,10
176,120,72402,6,0,B|96:128|64:240|144:296,1,220,6|0
328,328,73524,2,0,B|408:320|440:208|360:152,1,220,6|2
280,200,74365,2,0,B|240:144|288:88,1,110,2|6
368,48,74926,1,10
448,104,75206,2,0,B|512:184|432:272,2,165,2|2|2
376,176,76327,1,2
328,264,76608,1,10
232,296,76888,6,0,B|128:368|16:288,1,220,6|2
128,184,77869,2,0,B|192:112|136:24,1,165,6|2
64,96,78570,1,10
64,96,78851,1,2
160,112,79131,6,0,B|264:40|376:120,1,220,6|2
264,224,80112,2,0,B|200:296|256:384,1,165,6|2
328,312,80813,1,10
328,312,81094,1,2
408,248,81374,6,0,B|448:192|400:136,1,110,2|8
328,88,81935,2,0,B|288:144|336:200,1,110,2|8
248,248,82496,2,0,B|144:168|40:256,1,220,6|2
96,336,83337,1,0
256,192,83617,12,4,84598
